  0
SECTION
  2
HEADER
  9
$ACADVER
  1
AC1015
  9
$ACADMAINTVER
 70
    20
  9
$DWGCODEPAGE
  3
ANSI_932
  9
$INSBASE
 10
0.0
 20
0.0
 30
0.0
  9
$EXTMIN
 10
4.19999999999996
 20
8.274999999999977
 30
0.0
  9
$EXTMAX
 10
189.4249999999999
 20
280.0749999999999
 30
0.0
  9
$LIMMIN
 10
0.0
 20
0.0
  9
$LIMMAX
 10
194.0
 20
282.0
  9
$ORTHOMODE
 70
     0
  9
$REGENMODE
 70
     1
  9
$FILLMODE
 70
     1
  9
$QTEXTMODE
 70
     0
  9
$MIRRTEXT
 70
     0
  9
$LTSCALE
 40
1.0
  9
$ATTMODE
 70
     1
  9
$TEXTSIZE
 40
0.2
  9
$TRACEWID
 40
0.05
  9
$TEXTSTYLE
  7
BIGFONT
  9
$CLAYER
  8
0
  9
$CELTYPE
  6
CONTINUOUS
  9
$CECOLOR
 62
   256
  9
$CELTSCALE
 40
1.0
  9
$DISPSILH
 70
     0
  9
$DIMSCALE
 40
1.0
  9
$DIMASZ
 40
3.0
  9
$DIMEXO
 40
0.0625
  9
$DIMDLI
 40
0.38
  9
$DIMRND
 40
0.0
  9
$DIMDLE
 40
0.0
  9
$DIMEXE
 40
1.0
  9
$DIMTP
 40
0.0
  9
$DIMTM
 40
0.0
  9
$DIMTXT
 40
3.5
  9
$DIMCEN
 40
0.09
  9
$DIMTSZ
 40
0.0
  9
$DIMTOL
 70
     0
  9
$DIMLIM
 70
     0
  9
$DIMTIH
 70
     0
  9
$DIMTOH
 70
     0
  9
$DIMSE1
 70
     0
  9
$DIMSE2
 70
     0
  9
$DIMTAD
 70
     1
  9
$DIMZIN
 70
     0
  9
$DIMBLK
  1

  9
$DIMASO
 70
     1
  9
$DIMSHO
 70
     1
  9
$DIMPOST
  1

  9
$DIMAPOST
  1

  9
$DIMALT
 70
     0
  9
$DIMALTD
 70
     2
  9
$DIMALTF
 40
25.4
  9
$DIMLFAC
 40
1.0
  9
$DIMTOFL
 70
     1
  9
$DIMTVP
 40
0.0
  9
$DIMTIX
 70
     0
  9
$DIMSOXD
 70
     0
  9
$DIMSAH
 70
     0
  9
$DIMBLK1
  1

  9
$DIMBLK2
  1

  9
$DIMSTYLE
  2
STANDARD
  9
$DIMCLRD
 70
     0
  9
$DIMCLRE
 70
     0
  9
$DIMCLRT
 70
     0
  9
$DIMTFAC
 40
1.0
  9
$DIMGAP
 40
1.0
  9
$DIMJUST
 70
     0
  9
$DIMSD1
 70
     0
  9
$DIMSD2
 70
     0
  9
$DIMTOLJ
 70
     1
  9
$DIMTZIN
 70
     0
  9
$DIMALTZ
 70
     0
  9
$DIMALTTZ
 70
     0
  9
$DIMUPT
 70
     0
  9
$DIMDEC
 70
     4
  9
$DIMTDEC
 70
     4
  9
$DIMALTU
 70
     2
  9
$DIMALTTD
 70
     2
  9
$DIMTXSTY
  7
STANDARD
  9
$DIMAUNIT
 70
     0
  9
$DIMADEC
 70
     0
  9
$DIMALTRND
 40
0.0
  9
$DIMAZIN
 70
     0
  9
$DIMDSEP
 70
    46
  9
$DIMATFIT
 70
     3
  9
$DIMFRAC
 70
     0
  9
$DIMLDRBLK
  1

  9
$DIMLUNIT
 70
     2
  9
$DIMLWD
 70
    -2
  9
$DIMLWE
 70
    -2
  9
$DIMTMOVE
 70
     0
  9
$LUNITS
 70
     2
  9
$LUPREC
 70
     4
  9
$SKETCHINC
 40
0.1
  9
$FILLETRAD
 40
1.0
  9
$AUNITS
 70
     0
  9
$AUPREC
 70
     0
  9
$MENU
  1
.
  9
$ELEVATION
 40
0.0
  9
$PELEVATION
 40
0.0
  9
$THICKNESS
 40
0.0
  9
$LIMCHECK
 70
     0
  9
$CHAMFERA
 40
0.0
  9
$CHAMFERB
 40
0.0
  9
$CHAMFERC
 40
0.0
  9
$CHAMFERD
 40
0.0
  9
$SKPOLY
 70
     0
  9
$TDCREATE
 40
2453573.411721273
  9
$TDUCREATE
 40
2453573.036721274
  9
$TDUPDATE
 40
2456553.583550405
  9
$TDUUPDATE
 40
2456553.208550405
  9
$TDINDWG
 40
0.9343338657
  9
$TDUSRTIMER
 40
0.9342362500
  9
$USRTIMER
 70
     1
  9
$ANGBASE
 50
0.0
  9
$ANGDIR
 70
     0
  9
$PDMODE
 70
     0
  9
$PDSIZE
 40
0.0
  9
$PLINEWID
 40
0.0
  9
$SPLFRAME
 70
     0
  9
$SPLINETYPE
 70
     6
  9
$SPLINESEGS
 70
     8
  9
$HANDSEED
  5
3876
  9
$SURFTAB1
 70
     6
  9
$SURFTAB2
 70
     6
  9
$SURFTYPE
 70
     6
  9
$SURFU
 70
     6
  9
$SURFV
 70
     6
  9
$UCSBASE
  2

  9
$UCSNAME
  2

  9
$UCSORG
 10
0.0
 20
0.0
 30
0.0
  9
$UCSXDIR
 10
1.0
 20
0.0
 30
0.0
  9
$UCSYDIR
 10
0.0
 20
1.0
 30
0.0
  9
$UCSORTHOREF
  2

  9
$UCSORTHOVIEW
 70
     0
  9
$UCSORGTOP
 10
0.0
 20
0.0
 30
0.0
  9
$UCSORGBOTTOM
 10
0.0
 20
0.0
 30
0.0
  9
$UCSORGLEFT
 10
0.0
 20
0.0
 30
0.0
  9
$UCSORGRIGHT
 10
0.0
 20
0.0
 30
0.0
  9
$UCSORGFRONT
 10
0.0
 20
0.0
 30
0.0
  9
$UCSORGBACK
 10
0.0
 20
0.0
 30
0.0
  9
$PUCSBASE
  2

  9
$PUCSNAME
  2

  9
$PUCSORG
 10
0.0
 20
0.0
 30
0.0
  9
$PUCSXDIR
 10
1.0
 20
0.0
 30
0.0
  9
$PUCSYDIR
 10
0.0
 20
1.0
 30
0.0
  9
$PUCSORTHOREF
  2

  9
$PUCSORTHOVIEW
 70
     0
  9
$PUCSORGTOP
 10
0.0
 20
0.0
 30
0.0
  9
$PUCSORGBOTTOM
 10
0.0
 20
0.0
 30
0.0
  9
$PUCSORGLEFT
 10
0.0
 20
0.0
 30
0.0
  9
$PUCSORGRIGHT
 10
0.0
 20
0.0
 30
0.0
  9
$PUCSORGFRONT
 10
0.0
 20
0.0
 30
0.0
  9
$PUCSORGBACK
 10
0.0
 20
0.0
 30
0.0
  9
$USERI1
 70
     0
  9
$USERI2
 70
     0
  9
$USERI3
 70
     0
  9
$USERI4
 70
     0
  9
$USERI5
 70
     0
  9
$USERR1
 40
0.0
  9
$USERR2
 40
0.0
  9
$USERR3
 40
0.0
  9
$USERR4
 40
0.0
  9
$USERR5
 40
0.0
  9
$WORLDVIEW
 70
     1
  9
$SHADEDGE
 70
     3
  9
$SHADEDIF
 70
    70
  9
$TILEMODE
 70
     1
  9
$MAXACTVP
 70
    64
  9
$PINSBASE
 10
0.0
 20
0.0
 30
0.0
  9
$PLIMCHECK
 70
     0
  9
$PEXTMIN
 10
1.000000000000000E+20
 20
1.000000000000000E+20
 30
1.000000000000000E+20
  9
$PEXTMAX
 10
-1.000000000000000E+20
 20
-1.000000000000000E+20
 30
-1.000000000000000E+20
  9
$PLIMMIN
 10
0.0
 20
0.0
  9
$PLIMMAX
 10
12.0
 20
9.0
  9
$UNITMODE
 70
     0
  9
$VISRETAIN
 70
     1
  9
$PLINEGEN
 70
     0
  9
$PSLTSCALE
 70
     1
  9
$TREEDEPTH
 70
  3020
  9
$CMLSTYLE
  2
Standard
  9
$CMLJUST
 70
     0
  9
$CMLSCALE
 40
1.0
  9
$PROXYGRAPHICS
 70
     1
  9
$MEASUREMENT
 70
     0
  9
$CELWEIGHT
370
    -1
  9
$ENDCAPS
280
     0
  9
$JOINSTYLE
280
     0
  9
$LWDISPLAY
290
     0
  9
$INSUNITS
 70
     0
  9
$HYPERLINKBASE
  1

  9
$STYLESHEET
  1

  9
$XEDIT
290
     1
  9
$CEPSNTYPE
380
     0
  9
$PSTYLEMODE
290
     1
  9
$FINGERPRINTGUID
  2
{67C86397-15BE-45C7-B331-9A140F4DCC67}
  9
$VERSIONGUID
  2
{A1D5837C-A7F1-401D-8F9A-F030FC269046}
  9
$EXTNAMES
290
     1
  9
$PSVPSCALE
 40
0.0
  9
$OLESTARTUP
290
     0
  0
ENDSEC
  0
SECTION
  2
CLASSES
  0
CLASS
  1
ACDBDICTIONARYWDFLT
  2
AcDbDictionaryWithDefault
  3
ObjectDBX Classes
 90
        0
280
     0
281
     0
  0
CLASS
  1
TABLESTYLE
  2
AcDbTableStyle
  3
ObjectDBX Classes
 90
     4095
280
     0
281
     0
  0
CLASS
  1
SORTENTSTABLE
  2
AcDbSortentsTable
  3
ObjectDBX Classes
 90
    32768
280
     0
281
     0
  0
CLASS
  1
DICTIONARYVAR
  2
AcDbDictionaryVar
  3
ObjectDBX Classes
 90
        0
280
     0
281
     0
  0
CLASS
  1
ACDBPLACEHOLDER
  2
AcDbPlaceHolder
  3
ObjectDBX Classes
 90
        0
280
     0
281
     0
  0
CLASS
  1
LAYOUT
  2
AcDbLayout
  3
ObjectDBX Classes
 90
        0
280
     0
281
     0
  0
CLASS
  1
MATERIAL
  2
AcDbMaterial
  3
ObjectDBX Classes
 90
     1153
280
     0
281
     0
  0
CLASS
  1
VISUALSTYLE
  2
AcDbVisualStyle
  3
ObjectDBX Classes
 90
     4095
280
     0
281
     0
  0
CLASS
  1
SCALE
  2
AcDbScale
  3
ObjectDBX Classes
 90
     1153
280
     0
281
     0
  0
CLASS
  1
MLEADERSTYLE
  2
AcDbMLeaderStyle
  3
ACDB_MLEADERSTYLE_CLASS
 90
     4095
280
     0
281
     0
  0
CLASS
  1
CELLSTYLEMAP
  2
AcDbCellStyleMap
  3
ObjectDBX Classes
 90
     1152
280
     0
281
     0
  0
ENDSEC
  0
SECTION
  2
TABLES
  0
TABLE
  2
VPORT
  5
2EDF
102
{ACAD_XDICTIONARY
360
380C
102
}
330
0
100
AcDbSymbolTable
 70
     1
  0
VPORT
  5
3854
330
2EDF
100
AcDbSymbolTableRecord
100
AcDbViewportTableRecord
  2
*Active
 70
     0
 10
0.0
 20
0.0
 11
1.0
 21
1.0
 12
458.2166472297857
 22
144.1842047618518
 13
0.0
 23
0.0
 14
0.5
 24
0.5
 15
0.0
 25
0.0
 16
0.0
 26
0.0
 36
1.0
 17
0.0
 27
0.0
 37
0.0
 40
273.9380036344415
 41
3.098290598290598
 42
50.0
 43
0.0
 44
0.0
 50
0.0
 51
0.0
 71
     0
 72
   100
 73
     1
 74
     1
 75
     0
 76
     0
 77
     0
 78
     0
281
     0
 65
     1
110
0.0
120
0.0
130
0.0
111
1.0
121
0.0
131
0.0
112
0.0
122
1.0
132
0.0
 79
     0
146
0.0
  0
ENDTAB
  0
TABLE
  2
LTYPE
  5
2EDC
330
0
100
AcDbSymbolTable
 70
    10
  0
LTYPE
  5
2EEA
330
2EDC
100
AcDbSymbolTableRecord
100
AcDbLinetypeTableRecord
  2
ByBlock
 70
     0
  3

 72
    65
 73
     0
 40
0.0
  0
LTYPE
  5
2EEB
330
2EDC
100
AcDbSymbolTableRecord
100
AcDbLinetypeTableRecord
  2
ByLayer
 70
     0
  3

 72
    65
 73
     0
 40
0.0
  0
LTYPE
  5
2EEC
330
2EDC
100
AcDbSymbolTableRecord
100
AcDbLinetypeTableRecord
  2
CONTINUOUS
 70
     0
  3
実線
 72
    65
 73
     0
 40
0.0
  0
LTYPE
  5
2EFF
330
2EDC
100
AcDbSymbolTableRecord
100
AcDbLinetypeTableRecord
  2
DASHED
 70
     0
  3
__ __ __ __ __ __ __ __ __ __ __ __ __ __ __
 72
    65
 73
     2
 40
0.75
 49
0.5
 74
     0
 49
-0.25
 74
     0
  0
LTYPE
  5
2F00
330
2EDC
100
AcDbSymbolTableRecord
100
AcDbLinetypeTableRecord
  2
HIDDEN
 70
     0
  3
_ _ _ _ _ _ _ _ _ _ _ _ _ _ _ _ _ _ _ _ _ _ _
 72
    65
 73
     2
 40
0.375
 49
0.25
 74
     0
 49
-0.125
 74
     0
  0
LTYPE
  5
2F01
330
2EDC
100
AcDbSymbolTableRecord
100
AcDbLinetypeTableRecord
  2
CENTER
 70
     0
  3
____ _ ____ _ ____ _ ____ _ ____ _ ____ _ ____
 72
    65
 73
     4
 40
2.0
 49
1.25
 74
     0
 49
-0.25
 74
     0
 49
0.25
 74
     0
 49
-0.25
 74
     0
  0
LTYPE
  5
2F02
330
2EDC
100
AcDbSymbolTableRecord
100
AcDbLinetypeTableRecord
  2
PHANTOM
 70
     0
  3
_____ _ _ _____ _ _ _____ _ _ _____ _ _ ____
 72
    65
 73
     6
 40
2.5
 49
1.25
 74
     0
 49
-0.25
 74
     0
 49
0.25
 74
     0
 49
-0.25
 74
     0
 49
0.25
 74
     0
 49
-0.25
 74
     0
  0
LTYPE
  5
2F03
330
2EDC
100
AcDbSymbolTableRecord
100
AcDbLinetypeTableRecord
  2
DOT
 70
     0
  3
...............................................
 72
    65
 73
     2
 40
0.25
 49
0.0
 74
     0
 49
-0.25
 74
     0
  0
LTYPE
  5
2F04
330
2EDC
100
AcDbSymbolTableRecord
100
AcDbLinetypeTableRecord
  2
DASHDOT
 70
     0
  3
__ . __ . __ . __ . __ . __ . __ . __ . __ . __
 72
    65
 73
     4
 40
1.0
 49
0.5
 74
     0
 49
-0.25
 74
     0
 49
0.0
 74
     0
 49
-0.25
 74
     0
  0
LTYPE
  5
2F05
330
2EDC
100
AcDbSymbolTableRecord
100
AcDbLinetypeTableRecord
  2
BORDER
 70
     0
  3
__ __ . __ __ . __ __ . __ __ . __ __ . __ __
 72
    65
 73
     6
 40
1.75
 49
0.5
 74
     0
 49
-0.25
 74
     0
 49
0.5
 74
     0
 49
-0.25
 74
     0
 49
0.0
 74
     0
 49
-0.25
 74
     0
  0
LTYPE
  5
2F06
330
2EDC
100
AcDbSymbolTableRecord
100
AcDbLinetypeTableRecord
  2
DIVIDE
 70
     0
  3
__ . . __ . . __ . . __ . . __ . . __ . . __
 72
    65
 73
     6
 40
1.25
 49
0.5
 74
     0
 49
-0.25
 74
     0
 49
0.0
 74
     0
 49
-0.25
 74
     0
 49
0.0
 74
     0
 49
-0.25
 74
     0
  0
LTYPE
  5
2F07
330
2EDC
100
AcDbSymbolTableRecord
100
AcDbLinetypeTableRecord
  2
DASHEDX2
 70
     0
  3
Dashed (2x) ____  ____  ____  ____  ____  ___
 72
    65
 73
     2
 40
1.5
 49
1.0
 74
     0
 49
-0.5
 74
     0
  0
ENDTAB
  0
TABLE
  2
LAYER
  5
2ED9
102
{ACAD_XDICTIONARY
360
3643
102
}
330
0
100
AcDbSymbolTable
 70
     7
  0
LAYER
  5
2EE7
102
{ACAD_XDICTIONARY
360
37FC
102
}
330
2ED9
100
AcDbSymbolTableRecord
100
AcDbLayerTableRecord
  2
0
 70
     0
 62
     7
  6
CONTINUOUS
370
    -3
390
2EE6
  0
LAYER
  5
2F08
330
2ED9
100
AcDbSymbolTableRecord
100
AcDbLayerTableRecord
  2
DEFPOINTS
 70
     0
 62
     7
  6
CONTINUOUS
290
     0
370
    -3
390
2EE6
  0
LAYER
  5
2F09
102
{ACAD_XDICTIONARY
360
37FE
102
}
330
2ED9
100
AcDbSymbolTableRecord
100
AcDbLayerTableRecord
  2
ED
 70
     0
 62
     7
  6
CONTINUOUS
370
    -3
390
2EE6
  0
LAYER
  5
2F0A
102
{ACAD_XDICTIONARY
360
3800
102
}
330
2ED9
100
AcDbSymbolTableRecord
100
AcDbLayerTableRecord
  2
MO
 70
     0
 62
     7
  6
CONTINUOUS
370
    -3
390
2EE6
  0
LAYER
  5
2F0B
102
{ACAD_XDICTIONARY
360
3802
102
}
330
2ED9
100
AcDbSymbolTableRecord
100
AcDbLayerTableRecord
  2
1
 70
     0
 62
     7
  6
CONTINUOUS
370
    -3
390
2EE6
  0
LAYER
  5
2F0C
102
{ACAD_XDICTIONARY
360
3804
102
}
330
2ED9
100
AcDbSymbolTableRecord
100
AcDbLayerTableRecord
  2
SUNPO
 70
     0
 62
     7
  6
CONTINUOUS
370
    -3
390
2EE6
  0
LAYER
  5
2F0D
102
{ACAD_XDICTIONARY
360
3806
102
}
330
2ED9
100
AcDbSymbolTableRecord
100
AcDbLayerTableRecord
  2
WAKU
 70
     0
 62
     7
  6
CONTINUOUS
370
    -3
390
2EE6
  0
ENDTAB
  0
TABLE
  2
STYLE
  5
2EDA
330
0
100
AcDbSymbolTable
 70
     4
  0
STYLE
  5
2EE8
330
2EDA
100
AcDbSymbolTableRecord
100
AcDbTextStyleTableRecord
  2
STANDARD
 70
     0
 40
0.0
 41
0.5
 50
0.0
 71
     0
 42
0.3
  3
txt.shx
  4
bigfont.shx
  0
STYLE
  5
2EFD
330
2EDA
100
AcDbSymbolTableRecord
100
AcDbTextStyleTableRecord
  2
BIGFONT
 70
     0
 40
0.0
 41
1.0
 50
0.0
 71
     0
 42
0.2
  3
MS Gothic.ttf
  4

1001
ACAD
1000
MS Gothic
1071
    32817
  0
STYLE
  5
2F0E
330
2EDA
100
AcDbSymbolTableRecord
100
AcDbTextStyleTableRecord
  2

 70
     1
 40
0.0
 41
1.0
 50
0.0
 71
     0
 42
0.2
  3
ltypeshp.shx
  4

  0
STYLE
  5
37E2
330
2EDA
100
AcDbSymbolTableRecord
100
AcDbTextStyleTableRecord
  2
SIMP
 70
     0
 40
0.0
 41
1.0
 50
0.0
 71
     0
 42
2.5
  3
SIMPLEX.SHX
  4
BIGFONT.SHX
  0
ENDTAB
  0
TABLE
  2
VIEW
  5
2EDD
330
0
100
AcDbSymbolTable
 70
     0
  0
ENDTAB
  0
TABLE
  2
UCS
  5
2EDE
330
0
100
AcDbSymbolTable
 70
     0
  0
ENDTAB
  0
TABLE
  2
APPID
  5
2EE0
330
0
100
AcDbSymbolTable
 70
     4
  0
APPID
  5
2EE9
330
2EE0
100
AcDbSymbolTableRecord
100
AcDbRegAppTableRecord
  2
ACAD
 70
     0
  0
APPID
  5
2F0F
330
2EE0
100
AcDbSymbolTableRecord
100
AcDbRegAppTableRecord
  2
ACAD_DSTYLE_DIMTEXT_FILL
 70
     0
  0
APPID
  5
2F10
330
2EE0
100
AcDbSymbolTableRecord
100
AcDbRegAppTableRecord
  2
ACAD_PSEXT
 70
     0
  0
APPID
  5
37D5
330
2EE0
100
AcDbSymbolTableRecord
100
AcDbRegAppTableRecord
  2
ACAD_MLEADERVER
 70
     0
  0
ENDTAB
  0
TABLE
  2
DIMSTYLE
  5
2EE1
330
0
100
AcDbSymbolTable
 70
     3
100
AcDbDimStyleTable
 71
     2
340
2F11
340
2F12
  0
DIMSTYLE
105
2F11
102
{ACAD_REACTORS
330
3256
330
3257
330
3258
330
325A
330
3265
330
367E
330
367F
330
3680
330
3702
102
}
330
2EE1
100
AcDbSymbolTableRecord
100
AcDbDimStyleTableRecord
  2
STANDARD
 70
     0
 41
3.0
 44
1.0
 73
     0
 74
     0
 77
     1
140
3.5
147
1.0
172
     1
279
     2
340
2EFD
  0
DIMSTYLE
105
2F12
330
2EE1
100
AcDbSymbolTableRecord
100
AcDbDimStyleTableRecord
  2
ISO-25
 70
     0
 41
1.5
 42
0.625
 43
3.75
 44
0.0
 73
     0
 74
     0
 77
     1
 78
     8
140
1.5
141
1.5
143
0.03937007874016
147
0.625
171
     3
172
     1
174
     1
279
     2
340
2EFD
  0
DIMSTYLE
105
37E3
330
2EE1
100
AcDbSymbolTableRecord
100
AcDbDimStyleTableRecord
  2
ASKSTANDARD
 70
     0
 41
2.0
 42
0.0
 43
6.0
 44
1.0
 73
     0
 74
     0
 77
     2
 78
     8
140
2.5
141
0.0
145
1.0
146
0.6
147
0.5
172
     1
173
     1
176
     4
177
     4
178
     7
271
     2
284
     8
289
     1
340
37E2
341
37DC
343
37DC
344
37DC
  0
ENDTAB
  0
TABLE
  2
BLOCK_RECORD
  5
2ED8
330
0
100
AcDbSymbolTable
 70
    16
  0
BLOCK_RECORD
  5
2EF9
330
2ED8
100
AcDbSymbolTableRecord
100
AcDbBlockTableRecord
  2
*Model_Space
340
2EFC
  0
BLOCK_RECORD
  5
2EF5
330
2ED8
100
AcDbSymbolTableRecord
100
AcDbBlockTableRecord
  2
*Paper_Space
340
2EF8
  0
BLOCK_RECORD
  5
2F16
330
2ED8
100
AcDbSymbolTableRecord
100
AcDbBlockTableRecord
  2
$MODEL_SPACE
340
0
  0
BLOCK_RECORD
  5
2F18
330
2ED8
100
AcDbSymbolTableRecord
100
AcDbBlockTableRecord
  2
$PAPER_SPACE
340
0
  0
BLOCK_RECORD
  5
2F1A
330
2ED8
100
AcDbSymbolTableRecord
100
AcDbBlockTableRecord
  2
_OPEN30
340
0
  0
BLOCK_RECORD
  5
2F1C
330
2ED8
100
AcDbSymbolTableRecord
100
AcDbBlockTableRecord
  2
_NONE
340
0
  0
BLOCK_RECORD
  5
2F1E
330
2ED8
100
AcDbSymbolTableRecord
100
AcDbBlockTableRecord
  2
A$C52D45C41
340
0
  0
BLOCK_RECORD
  5
2F34
330
2ED8
100
AcDbSymbolTableRecord
100
AcDbBlockTableRecord
  2
waku
340
0
310
2800000020000000200000000100080000000000000400000000000000000000000000000000000000000000000080000080000000808000800000008000800080800000C0C0C000C0DCC000F0CAA6000020400000206000002080000020A0000020C0000020E00000400000004020000040400000406000004080000040A0
310
000040C0000040E00000600000006020000060400000606000006080000060A0000060C0000060E00000800000008020000080400000806000008080000080A0000080C0000080E00000A0000000A0200000A0400000A0600000A0800000A0A00000A0C00000A0E00000C0000000C0200000C0400000C0600000C0800000C0
310
A00000C0C00000C0E00000E0000000E0200000E0400000E0600000E0800000E0A00000E0C00000E0E00040000000400020004000400040006000400080004000A0004000C0004000E00040200000402020004020400040206000402080004020A0004020C0004020E000404000004040200040404000404060004040800040
310
40A0004040C0004040E00040600000406020004060400040606000406080004060A0004060C0004060E00040800000408020004080400040806000408080004080A0004080C0004080E00040A0000040A0200040A0400040A0600040A0800040A0A00040A0C00040A0E00040C0000040C0200040C0400040C0600040C08000
310
40C0A00040C0C00040C0E00040E0000040E0200040E0400040E0600040E0800040E0A00040E0C00040E0E00080000000800020008000400080006000800080008000A0008000C0008000E00080200000802020008020400080206000802080008020A0008020C0008020E00080400000804020008040400080406000804080
310
008040A0008040C0008040E00080600000806020008060400080606000806080008060A0008060C0008060E00080800000808020008080400080806000808080008080A0008080C0008080E00080A0000080A0200080A0400080A0600080A0800080A0A00080A0C00080A0E00080C0000080C0200080C0400080C0600080C0
310
800080C0A00080C0C00080C0E00080E0000080E0200080E0400080E0600080E0800080E0A00080E0C00080E0E000C0000000C0002000C0004000C0006000C0008000C000A000C000C000C000E000C0200000C0202000C0204000C0206000C0208000C020A000C020C000C020E000C0400000C0402000C0404000C0406000C0
310
408000C040A000C040C000C040E000C0600000C0602000C0604000C0606000C0608000C060A000C060C000C060E000C0800000C0802000C0804000C0806000C0808000C080A000C080C000C080E000C0A00000C0A02000C0A04000C0A06000C0A08000C0A0A000C0A0C000C0A0E000C0C00000C0C02000C0C04000C0C06000
310
C0C08000C0C0A000F0FBFF00A4A0A000808080000000FF0000FF000000FFFF00FF000000FF00FF00FFFF0000FFFFFF00FFFFFFFFFFFFFFFFFFFFFFFFFFFFFFFFFFFFFFFFFFFFFFFFFFFFFFFFFFFFFFFFFFFFFFFFFFFF0000000000000000000000000000000000000000FFFFFFFFFFFFFFFFFFFFFFFF00FFFFFFFFFFFFFFFF
310
FFFFFFFFFFFFFFFFFFFF00FFFFFFFFFFFFFFFFFFFFFFFF00FFFFFFFFFFFFFFFFFFFFFFFFFFFFFFFFFFFF00FFFFFFFFFFFFFFFFFFFFFFFF00FFFFFFFFFFFFFFFFFFFFFFFFFFFFFFFFFFFF00FFFFFFFFFFFFFFFFFFFFFFFF00FFFFFFFFFFFFFFFFFFFFFFFFFFFFFFFFFFFF00FFFFFFFFFFFFFFFFFFFFFFFF00FFFFFFFFFFFFFF
310
FFFFFFFFFFFFFFFFFFFFFF00FFFFFFFFFFFFFFFFFFFFFFFF00FFFFFFFFFFFFFFFFFFFFFFFFFFFFFFFFFFFF00FFFFFFFFFFFFFFFFFFFFFFFF00FFFFFFFFFFFFFFFFFFFFFFFFFFFFFFFFFFFF00FFFFFFFFFFFFFFFFFFFFFFFF00FFFFFFFFFFFFFFFFFFFFFFFFFFFFFFFFFFFF00FFFFFFFFFFFFFFFFFFFFFFFF00FFFFFFFFFFFF
310
FFFFFFFFFFFFFFFFFFFFFFFF00FFFFFFFFFFFFFFFFFFFFFFFF00FFFFFFFFFFFFFFFFFFFFFFFFFFFFFFFFFFFF00FFFFFFFFFFFFFFFFFFFFFFFF00FFFFFFFFFFFFFFFFFFFFFFFFFFFFFFFFFFFF00FFFFFFFFFFFFFFFFFFFFFFFF00FFFFFFFFFFFFFFFFFFFFFFFFFFFFFFFFFFFF00FFFFFFFFFFFFFFFFFFFFFFFF00FFFFFFFFFF
310
FFFFFFFFFFFFFFFFFFFFFFFFFF00FFFFFFFFFFFFFFFFFFFFFFFF00FFFFFFFFFFFFFFFFFFFFFFFFFFFFFFFFFFFF00FFFFFFFFFFFFFFFFFFFFFFFF00FFFFFFFFFFFFFFFFFFFFFFFFFFFFFFFFFFFF00FFFFFFFFFFFFFFFFFFFFFFFF00FFFFFFFFFFFFFFFFFFFFFFFFFFFFFFFFFFFF00FFFFFFFFFFFFFFFFFFFFFFFF00FFFFFFFF
310
FFFFFFFFFFFFFFFFFFFFFFFFFFFF00FFFFFFFFFFFFFFFFFFFFFFFF00FFFFFFFFFFFFFFFFFFFFFFFFFFFFFFFFFFFF00FFFFFFFFFFFFFFFFFFFFFFFF00FFFFFFFFFFFFFFFFFFFFFFFFFFFFFFFFFFFF00FFFFFFFFFFFFFFFFFFFFFFFF00FFFFFFFFFFFFFFFFFFFFFFFFFFFFFFFFFFFF00FFFFFFFFFFFFFFFFFFFFFFFF00FFFFFF
310
FFFFFFFFFFFFFFFFFFFFFFFFFFFFFF00FFFFFFFFFFFFFFFFFFFFFFFF00FFFFFFFFFFFFFFFFFFFFFFFFFFFFFFFFFFFF00FFFFFFFFFFFFFFFFFFFFFFFF00FFFFFFFFFFFFFFFFFFFFFFFFFFFFFFFFFFFF00FFFFFFFFFFFFFFFFFFFFFFFF00FFFFFFFFFFFFFFFFFFFFFFFFFFFFFFFFFFFF00FFFFFFFFFFFFFFFFFFFFFFFF00FFFF
310
FFFFFFFFFFFFFFFFFFFFFFFFFFFFFFFF00FFFFFFFFFFFFFFFFFFFFFFFF00FFFFFFFFFFFFFFFFFFFFFFFFFFFFFFFFFFFF00FFFFFFFFFFFFFFFFFFFFFFFF00FFFFFFFFFFFFFFFFFFFFFFFFFFFFFFFFFFFF00FFFFFFFFFFFFFFFFFFFFFFFF00FFFFFFFFFFFFFFFFFFFFFFFFFFFFFFFFFFFF00FFFFFFFFFFFFFFFFFFFFFFFF0000
310
000000000000000000000000000000000000FFFFFFFFFFFFFFFFFFFFFFFFFFFFFFFFFFFFFFFFFFFFFFFFFFFFFFFFFFFFFFFFFFFFFFFFFFFF
102
{BLKREFS
331
331C
102
}
  0
BLOCK_RECORD
  5
3328
330
2ED8
100
AcDbSymbolTableRecord
100
AcDbBlockTableRecord
  2
*D6
340
0
  0
BLOCK_RECORD
  5
3334
330
2ED8
100
AcDbSymbolTableRecord
100
AcDbBlockTableRecord
  2
*D7
340
0
  0
BLOCK_RECORD
  5
3342
330
2ED8
100
AcDbSymbolTableRecord
100
AcDbBlockTableRecord
  2
*D8
340
0
  0
BLOCK_RECORD
  5
335A
330
2ED8
100
AcDbSymbolTableRecord
100
AcDbBlockTableRecord
  2
*D9
340
0
  0
BLOCK_RECORD
  5
3366
330
2ED8
100
AcDbSymbolTableRecord
100
AcDbBlockTableRecord
  2
*D10
340
0
  0
BLOCK_RECORD
  5
3691
330
2ED8
100
AcDbSymbolTableRecord
100
AcDbBlockTableRecord
  2
*D11
340
0
  0
BLOCK_RECORD
  5
369D
330
2ED8
100
AcDbSymbolTableRecord
100
AcDbBlockTableRecord
  2
*D12
340
0
  0
BLOCK_RECORD
  5
36A9
330
2ED8
100
AcDbSymbolTableRecord
100
AcDbBlockTableRecord
  2
*D13
340
0
  0
BLOCK_RECORD
  5
371E
330
2ED8
100
AcDbSymbolTableRecord
100
AcDbBlockTableRecord
  2
*D14
340
0
  0
BLOCK_RECORD
  5
37DC
330
2ED8
100
AcDbSymbolTableRecord
100
AcDbBlockTableRecord
  2
ARRI
340
0
  0
ENDTAB
  0
ENDSEC
  0
SECTION
  2
BLOCKS
  0
BLOCK
  5
2EFA
330
2EF9
100
AcDbEntity
  8
0
100
AcDbBlockBegin
  2
*Model_Space
 70
     0
 10
0.0
 20
0.0
 30
0.0
  3
*Model_Space
  1

  0
ENDBLK
  5
2EFB
330
2EF9
100
AcDbEntity
  8
0
100
AcDbBlockEnd
  0
BLOCK
  5
2EF6
330
2EF5
100
AcDbEntity
 67
     1
  8
0
100
AcDbBlockBegin
  2
*Paper_Space
 70
     0
 10
0.0
 20
0.0
 30
0.0
  3
*Paper_Space
  1

  0
ENDBLK
  5
2EF7
330
2EF5
100
AcDbEntity
 67
     1
  8
0
100
AcDbBlockEnd
  0
BLOCK
  5
2F17
330
2F16
100
AcDbEntity
  8
0
100
AcDbBlockBegin
  2
$MODEL_SPACE
 70
     0
 10
0.0
 20
0.0
 30
0.0
  3
$MODEL_SPACE
  1

  0
ENDBLK
  5
24AC
330
2F16
100
AcDbEntity
  8
0
100
AcDbBlockEnd
  0
BLOCK
  5
2F19
330
2F18
100
AcDbEntity
  8
0
100
AcDbBlockBegin
  2
$PAPER_SPACE
 70
     0
 10
0.0
 20
0.0
 30
0.0
  3
$PAPER_SPACE
  1

  0
ENDBLK
  5
24A8
330
2F18
100
AcDbEntity
  8
0
100
AcDbBlockEnd
  0
BLOCK
  5
2F1B
330
2F1A
100
AcDbEntity
  8
0
100
AcDbBlockBegin
  2
_OPEN30
 70
     0
 10
0.0
 20
0.0
 30
0.0
  3
_OPEN30
  1

  0
LINE
  5
1FB2
330
2F1A
100
AcDbEntity
  8
0
 62
     0
100
AcDbLine
 10
-1.0
 20
0.26794919
 30
0.0
 11
0.0
 21
0.0
 31
0.0
  0
LINE
  5
1FB3
330
2F1A
100
AcDbEntity
  8
0
 62
     0
100
AcDbLine
 10
0.0
 20
0.0
 30
0.0
 11
-1.0
 21
-0.26794919
 31
0.0
  0
LINE
  5
1FB4
330
2F1A
100
AcDbEntity
  8
0
 62
     0
100
AcDbLine
 10
0.0
 20
0.0
 30
0.0
 11
-1.0
 21
0.0
 31
0.0
  0
ENDBLK
  5
1FB5
330
2F1A
100
AcDbEntity
  8
0
100
AcDbBlockEnd
  0
BLOCK
  5
2F1D
330
2F1C
100
AcDbEntity
  8
0
100
AcDbBlockBegin
  2
_NONE
 70
     0
 10
0.0
 20
0.0
 30
0.0
  3
_NONE
  1

  0
ENDBLK
  5
1FB8
330
2F1C
100
AcDbEntity
  8
0
100
AcDbBlockEnd
  0
BLOCK
  5
2F1F
330
2F1E
100
AcDbEntity
  8
0
100
AcDbBlockBegin
  2
A$C52D45C41
 70
     0
 10
0.0
 20
0.0
 30
0.0
  3
A$C52D45C41
  1

  0
POLYLINE
  5
1FEF
330
2F1E
100
AcDbEntity
  8
0
100
AcDb3dPolyline
 66
     1
 10
0.0
 20
0.0
 30
0.0
 70
     8
  0
VERTEX
  5
1FF0
330
1FEF
100
AcDbEntity
  8
0
100
AcDbVertex
100
AcDb3dPolylineVertex
 10
0.0076359
 20
-0.0065206
 30
0.0
 70
    32
  0
VERTEX
  5
1FF1
330
1FEF
100
AcDbEntity
  8
0
100
AcDbVertex
100
AcDb3dPolylineVertex
 10
-9.15831
 20
7.820639999999998
 30
0.0
 70
    32
  0
VERTEX
  5
1FF2
330
1FEF
100
AcDbEntity
  8
0
100
AcDbVertex
100
AcDb3dPolylineVertex
 10
-28.3108
 20
7.820639999999998
 30
0.0
 70
    32
  0
SEQEND
  5
1FF3
330
1FEF
100
AcDbEntity
  8
0
  0
TEXT
  5
1FF4
330
2F1E
100
AcDbEntity
  8
0
100
AcDbText
 10
-28.9530311972574
 20
13.52066296157018
 30
0.0
 40
3.5
  1
電源入線孔
  7
BIGFONT
100
AcDbText
  0
TEXT
  5
1FF5
330
2F1E
100
AcDbEntity
  8
0
100
AcDbText
 10
-24.56645919324755
 20
8.946072661416309
 30
0.0
 40
3.5
  1
φ30
  7
BIGFONT
100
AcDbText
  0
ENDBLK
  5
1FF6
330
2F1E
100
AcDbEntity
  8
0
100
AcDbBlockEnd
  0
BLOCK
  5
2F35
330
2F34
100
AcDbEntity
  8
0
100
AcDbBlockBegin
  2
waku
 70
     0
 10
0.0
 20
0.0
 30
0.0
  3
waku
  1

  0
LINE
  5
2F36
330
2F34
100
AcDbEntity
  8
0
100
AcDbLine
 10
4.15
 20
8.274999999999998
 30
0.0
 11
189.375
 21
8.274999999999998
 31
0.0
  0
LINE
  5
2F37
330
2F34
100
AcDbEntity
  8
0
100
AcDbLine
 10
189.375
 20
8.274999999999998
 30
0.0
 11
189.375
 21
280.0749999999999
 31
0.0
  0
LINE
  5
2F38
330
2F34
100
AcDbEntity
  8
0
100
AcDbLine
 10
189.375
 20
280.0749999999999
 30
0.0
 11
4.15
 21
280.0749999999999
 31
0.0
  0
LINE
  5
2F39
330
2F34
100
AcDbEntity
  8
0
100
AcDbLine
 10
4.15
 20
280.0749999999999
 30
0.0
 11
4.15
 21
8.274999999999998
 31
0.0
  0
ENDBLK
  5
2F3A
330
2F34
100
AcDbEntity
  8
0
100
AcDbBlockEnd
  0
BLOCK
  5
3332
330
3328
100
AcDbEntity
  8
0
100
AcDbBlockBegin
  2
*D6
 70
     1
 10
0.0
 20
0.0
 30
0.0
  3
*D6
  1

  0
LINE
  5
3733
330
3328
100
AcDbEntity
  8
0
 62
     0
370
    -2
100
AcDbLine
 10
29.39583333333331
 20
258.6249999999997
 30
0.0
 11
18.85392157444643
 21
258.6249999999997
 31
0.0
  0
LINE
  5
3734
330
3328
100
AcDbEntity
  8
0
 62
     0
370
    -2
100
AcDbLine
 10
29.39583333333331
 20
178.6249999999997
 30
0.0
 11
18.85392157444641
 21
178.6249999999997
 31
0.0
  0
LINE
  5
3735
330
3328
100
AcDbEntity
  8
0
 62
     0
370
    -2
100
AcDbLine
 10
19.85392157444643
 20
255.6249999999997
 30
0.0
 11
19.85392157444642
 21
181.6249999999996
 31
0.0
  0
SOLID
  5
3736
330
3328
100
AcDbEntity
  8
0
 62
     0
100
AcDbTrace
 10
19.35392157444643
 20
255.6249999999997
 30
0.0
 11
20.35392157444643
 21
255.6249999999997
 31
0.0
 12
19.85392157444643
 22
258.6249999999997
 32
0.0
 13
19.85392157444643
 23
258.6249999999997
 33
0.0
  0
SOLID
  5
3737
330
3328
100
AcDbEntity
  8
0
 62
     0
100
AcDbTrace
 10
19.35392157444642
 20
181.6249999999996
 30
0.0
 11
20.35392157444642
 21
181.6249999999996
 31
0.0
 12
19.85392157444642
 22
178.6249999999997
 32
0.0
 13
19.85392157444642
 23
178.6249999999997
 33
0.0
  0
MTEXT
  5
3738
330
3328
100
AcDbEntity
  8
0
 62
     0
100
AcDbMText
 10
17.10392157444639
 20
218.6249999999997
 30
0.0
 40
3.5
 41
0.0
 71
     5
 72
     1
  1
\A1;120
  7
BIGFONT
 11
0.0000000000000001
 21
1.0
 31
0.0
 73
     1
 44
1.0
1001
ACAD
1000
MTEXTBEGIN
1070
    73
1070
     1
1070
    44
1040
1.0
1070
    74
1070
     0
1000
MTEXTEND
  0
POINT
  5
3739
330
3328
100
AcDbEntity
  8
DEFPOINTS
 62
     0
100
AcDbPoint
 10
29.45833333333331
 20
258.6249999999997
 30
0.0
  0
POINT
  5
373A
330
3328
100
AcDbEntity
  8
DEFPOINTS
 62
     0
100
AcDbPoint
 10
29.45833333333331
 20
178.6249999999997
 30
0.0
  0
POINT
  5
373B
330
3328
100
AcDbEntity
  8
DEFPOINTS
 62
     0
100
AcDbPoint
 10
19.85392157444642
 20
178.6249999999997
 30
0.0
  0
ENDBLK
  5
3333
330
3328
100
AcDbEntity
  8
0
100
AcDbBlockEnd
  0
BLOCK
  5
3340
330
3334
100
AcDbEntity
  8
0
100
AcDbBlockBegin
  2
*D7
 70
     1
 10
0.0
 20
0.0
 30
0.0
  3
*D7
  1

  0
LINE
  5
3776
330
3334
100
AcDbEntity
  8
0
 62
     0
370
    -2
100
AcDbLine
 10
94.12499999999994
 20
256.020833333333
 30
0.0
 11
94.12499999999994
 21
264.260940522194
 31
0.0
  0
LINE
  5
3777
330
3334
100
AcDbEntity
  8
0
 62
     0
370
    -2
100
AcDbLine
 10
98.125
 20
242.1041666666663
 30
0.0
 11
98.125
 21
264.260940522194
 31
0.0
  0
LINE
  5
3778
330
3334
100
AcDbEntity
  8
0
 62
     0
370
    -2
100
AcDbLine
 10
91.12499999999995
 20
263.260940522194
 30
0.0
 11
88.12499999999994
 21
263.260940522194
 31
0.0
  0
LINE
  5
3779
330
3334
100
AcDbEntity
  8
0
 62
     0
370
    -2
100
AcDbLine
 10
101.125
 20
263.260940522194
 30
0.0
 11
104.125
 21
263.260940522194
 31
0.0
  0
MTEXT
  5
377A
330
3334
100
AcDbEntity
  8
0
 62
     0
100
AcDbMText
 10
95.96706792464738
 20
266.0633264505691
 30
0.0
 40
3.5
 41
0.0
 71
     5
 72
     1
  1
\A1;6
  7
BIGFONT
 73
     1
 44
1.0
1001
ACAD
1000
MTEXTBEGIN
1070
    73
1070
     1
1070
    44
1040
1.0
1070
    74
1070
     0
1000
MTEXTEND
  0
LINE
  5
377B
330
3334
100
AcDbEntity
  8
0
 62
     0
370
    -2
100
AcDbLine
 10
94.12499999999994
 20
263.260940522194
 30
0.0
 11
98.125
 21
263.260940522194
 31
0.0
  0
SOLID
  5
377C
330
3334
100
AcDbEntity
  8
0
 62
     0
100
AcDbTrace
 10
91.12499999999995
 20
263.760940522194
 30
0.0
 11
91.12499999999995
 21
262.760940522194
 31
0.0
 12
94.12499999999994
 22
263.260940522194
 32
0.0
 13
94.12499999999994
 23
263.260940522194
 33
0.0
  0
SOLID
  5
377D
330
3334
100
AcDbEntity
  8
0
 62
     0
100
AcDbTrace
 10
101.125
 20
263.760940522194
 30
0.0
 11
101.125
 21
262.760940522194
 31
0.0
 12
98.125
 22
263.260940522194
 32
0.0
 13
98.125
 23
263.260940522194
 33
0.0
  0
POINT
  5
377E
330
3334
100
AcDbEntity
  8
DEFPOINTS
 62
     0
100
AcDbPoint
 10
94.12499999999994
 20
255.958333333333
 30
0.0
  0
POINT
  5
377F
330
3334
100
AcDbEntity
  8
DEFPOINTS
 62
     0
100
AcDbPoint
 10
98.125
 20
242.0416666666663
 30
0.0
  0
POINT
  5
3780
330
3334
100
AcDbEntity
  8
DEFPOINTS
 62
     0
100
AcDbPoint
 10
98.125
 20
263.260940522194
 30
0.0
  0
ENDBLK
  5
3341
330
3334
100
AcDbEntity
  8
0
100
AcDbBlockEnd
  0
BLOCK
  5
334C
330
3342
100
AcDbEntity
  8
0
100
AcDbBlockBegin
  2
*D8
 70
     1
 10
0.0
 20
0.0
 30
0.0
  3
*D8
  1

  0
LINE
  5
3747
330
3342
100
AcDbEntity
  8
0
 62
     0
370
    -2
100
AcDbLine
 10
98.125
 20
241.6874999999997
 30
0.0
 11
98.125
 21
264.260940522194
 31
0.0
  0
LINE
  5
3748
330
3342
100
AcDbEntity
  8
0
 62
     0
370
    -2
100
AcDbLine
 10
121.4583333333333
 20
241.6874999999997
 30
0.0
 11
121.4583333333333
 21
264.260940522194
 31
0.0
  0
LINE
  5
3749
330
3342
100
AcDbEntity
  8
0
 62
     0
370
    -2
100
AcDbLine
 10
101.125
 20
263.260940522194
 30
0.0
 11
118.4583333333333
 21
263.260940522194
 31
0.0
  0
SOLID
  5
374A
330
3342
100
AcDbEntity
  8
0
 62
     0
100
AcDbTrace
 10
101.125
 20
263.760940522194
 30
0.0
 11
101.125
 21
262.760940522194
 31
0.0
 12
98.125
 22
263.260940522194
 32
0.0
 13
98.125
 23
263.260940522194
 33
0.0
  0
SOLID
  5
374B
330
3342
100
AcDbEntity
  8
0
 62
     0
100
AcDbTrace
 10
118.4583333333333
 20
263.760940522194
 30
0.0
 11
118.4583333333333
 21
262.760940522194
 31
0.0
 12
121.4583333333333
 22
263.260940522194
 32
0.0
 13
121.4583333333333
 23
263.260940522194
 33
0.0
  0
MTEXT
  5
374C
330
3342
100
AcDbEntity
  8
0
 62
     0
100
AcDbMText
 10
109.7916666666666
 20
266.010940522194
 30
0.0
 40
3.5
 41
0.0
 71
     5
 72
     1
  1
\A1;35
  7
BIGFONT
 73
     1
 44
1.0
1001
ACAD
1000
MTEXTBEGIN
1070
    73
1070
     1
1070
    44
1040
1.0
1070
    74
1070
     0
1000
MTEXTEND
  0
POINT
  5
374D
330
3342
100
AcDbEntity
  8
DEFPOINTS
 62
     0
100
AcDbPoint
 10
98.125
 20
241.6249999999997
 30
0.0
  0
POINT
  5
374E
330
3342
100
AcDbEntity
  8
DEFPOINTS
 62
     0
100
AcDbPoint
 10
121.4583333333333
 20
241.6249999999997
 30
0.0
  0
POINT
  5
374F
330
3342
100
AcDbEntity
  8
DEFPOINTS
 62
     0
100
AcDbPoint
 10
121.4583333333333
 20
263.260940522194
 30
0.0
  0
ENDBLK
  5
334D
330
3342
100
AcDbEntity
  8
0
100
AcDbBlockEnd
  0
BLOCK
  5
3364
330
335A
100
AcDbEntity
  8
0
100
AcDbBlockBegin
  2
*D9
 70
     1
 10
0.0
 20
0.0
 30
0.0
  3
*D9
  1

  0
LINE
  5
3750
330
335A
100
AcDbEntity
  8
0
 62
     0
370
    -2
100
AcDbLine
 10
26.79166666666669
 20
256.6874999999997
 30
0.0
 11
26.79166666666669
 21
264.260940522194
 31
0.0
  0
LINE
  5
3751
330
335A
100
AcDbEntity
  8
0
 62
     0
370
    -2
100
AcDbLine
 10
73.45833333333331
 20
256.6874999999997
 30
0.0
 11
73.45833333333331
 21
264.260940522194
 31
0.0
  0
LINE
  5
3752
330
335A
100
AcDbEntity
  8
0
 62
     0
370
    -2
100
AcDbLine
 10
29.79166666666669
 20
263.260940522194
 30
0.0
 11
70.45833333333331
 21
263.260940522194
 31
0.0
  0
SOLID
  5
3753
330
335A
100
AcDbEntity
  8
0
 62
     0
100
AcDbTrace
 10
29.79166666666669
 20
263.760940522194
 30
0.0
 11
29.79166666666669
 21
262.760940522194
 31
0.0
 12
26.79166666666669
 22
263.260940522194
 32
0.0
 13
26.79166666666669
 23
263.260940522194
 33
0.0
  0
SOLID
  5
3754
330
335A
100
AcDbEntity
  8
0
 62
     0
100
AcDbTrace
 10
70.45833333333331
 20
263.760940522194
 30
0.0
 11
70.45833333333331
 21
262.760940522194
 31
0.0
 12
73.45833333333331
 22
263.260940522194
 32
0.0
 13
73.45833333333331
 23
263.260940522194
 33
0.0
  0
MTEXT
  5
3755
330
335A
100
AcDbEntity
  8
0
 62
     0
100
AcDbMText
 10
50.125
 20
266.010940522194
 30
0.0
 40
3.5
 41
0.0
 71
     5
 72
     1
  1
\A1;70
  7
BIGFONT
 73
     1
 44
1.0
1001
ACAD
1000
MTEXTBEGIN
1070
    73
1070
     1
1070
    44
1040
1.0
1070
    74
1070
     0
1000
MTEXTEND
  0
POINT
  5
3756
330
335A
100
AcDbEntity
  8
DEFPOINTS
 62
     0
100
AcDbPoint
 10
26.79166666666669
 20
256.6249999999997
 30
0.0
  0
POINT
  5
3757
330
335A
100
AcDbEntity
  8
DEFPOINTS
 62
     0
100
AcDbPoint
 10
73.45833333333331
 20
256.6249999999997
 30
0.0
  0
POINT
  5
3758
330
335A
100
AcDbEntity
  8
DEFPOINTS
 62
     0
100
AcDbPoint
 10
73.45833333333331
 20
263.260940522194
 30
0.0
  0
ENDBLK
  5
3365
330
335A
100
AcDbEntity
  8
0
100
AcDbBlockEnd
  0
BLOCK
  5
3370
330
3366
100
AcDbEntity
  8
0
100
AcDbBlockBegin
  2
*D10
 70
     1
 10
0.0
 20
0.0
 30
0.0
  3
*D10
  1

  0
LINE
  5
3759
330
3366
100
AcDbEntity
  8
0
 62
     0
370
    -2
100
AcDbLine
 10
34.79166666666661
 20
144.5624999999996
 30
0.0
 11
34.79166666666661
 21
136.5738486300933
 31
0.0
  0
LINE
  5
375A
330
3366
100
AcDbEntity
  8
0
 62
     0
370
    -2
100
AcDbLine
 10
65.45833333333326
 20
144.5624999999996
 30
0.0
 11
65.45833333333326
 21
136.5738486300933
 31
0.0
  0
LINE
  5
375B
330
3366
100
AcDbEntity
  8
0
 62
     0
370
    -2
100
AcDbLine
 10
37.79166666666661
 20
137.5738486300933
 30
0.0
 11
62.45833333333326
 21
137.5738486300933
 31
0.0
  0
SOLID
  5
375C
330
3366
100
AcDbEntity
  8
0
 62
     0
100
AcDbTrace
 10
37.79166666666661
 20
138.0738486300933
 30
0.0
 11
37.79166666666661
 21
137.0738486300933
 31
0.0
 12
34.79166666666661
 22
137.5738486300933
 32
0.0
 13
34.79166666666661
 23
137.5738486300933
 33
0.0
  0
SOLID
  5
375D
330
3366
100
AcDbEntity
  8
0
 62
     0
100
AcDbTrace
 10
62.45833333333326
 20
138.0738486300933
 30
0.0
 11
62.45833333333326
 21
137.0738486300933
 31
0.0
 12
65.45833333333326
 22
137.5738486300933
 32
0.0
 13
65.45833333333326
 23
137.5738486300933
 33
0.0
  0
MTEXT
  5
375E
330
3366
100
AcDbEntity
  8
0
 62
     0
100
AcDbMText
 10
50.12499999999993
 20
140.3238486300933
 30
0.0
 40
3.5
 41
0.0
 71
     5
 72
     1
  1
\A1;46
  7
BIGFONT
 73
     1
 44
1.0
1001
ACAD
1000
MTEXTBEGIN
1070
    73
1070
     1
1070
    44
1040
1.0
1070
    74
1070
     0
1000
MTEXTEND
  0
POINT
  5
375F
330
3366
100
AcDbEntity
  8
DEFPOINTS
 62
     0
100
AcDbPoint
 10
34.79166666666661
 20
144.6249999999996
 30
0.0
  0
POINT
  5
3760
330
3366
100
AcDbEntity
  8
DEFPOINTS
 62
     0
100
AcDbPoint
 10
65.45833333333326
 20
144.6249999999996
 30
0.0
  0
POINT
  5
3761
330
3366
100
AcDbEntity
  8
DEFPOINTS
 62
     0
100
AcDbPoint
 10
65.45833333333326
 20
137.5738486300933
 30
0.0
  0
ENDBLK
  5
3371
330
3366
100
AcDbEntity
  8
0
100
AcDbBlockEnd
  0
BLOCK
  5
369B
330
3691
100
AcDbEntity
  8
0
100
AcDbBlockBegin
  2
*D11
 70
     1
 10
0.0
 20
0.0
 30
0.0
  3
*D11
  1

  0
LINE
  5
36B5
330
3691
100
AcDbEntity
  8
0
  6
Continuous
 62
     0
370
    -2
100
AcDbLine
 10
170.4999999999998
 20
40.56001230676341
 30
0.0
 11
178.4052331327599
 21
40.5600123067634
 31
0.0
  0
LINE
  5
36B6
330
3691
100
AcDbEntity
  8
0
  6
Continuous
 62
     0
370
    -2
100
AcDbLine
 10
170.4999999999998
 20
85.56001230676338
 30
0.0
 11
178.40523313276
 21
85.56001230676338
 31
0.0
  0
LINE
  5
36B7
330
3691
100
AcDbEntity
  8
0
  6
Continuous
 62
     0
370
    -2
100
AcDbLine
 10
177.40523313276
 20
43.5600123067634
 30
0.0
 11
177.40523313276
 21
82.56001230676337
 31
0.0
  0
SOLID
  5
36B8
330
3691
100
AcDbEntity
  8
0
  6
Continuous
 62
     0
100
AcDbTrace
 10
176.90523313276
 20
43.5600123067634
 30
0.0
 11
177.90523313276
 21
43.5600123067634
 31
0.0
 12
177.40523313276
 22
40.5600123067634
 32
0.0
 13
177.40523313276
 23
40.5600123067634
 33
0.0
  0
SOLID
  5
36B9
330
3691
100
AcDbEntity
  8
0
  6
Continuous
 62
     0
100
AcDbTrace
 10
176.90523313276
 20
82.56001230676337
 30
0.0
 11
177.90523313276
 21
82.56001230676337
 31
0.0
 12
177.40523313276
 22
85.56001230676338
 32
0.0
 13
177.40523313276
 23
85.56001230676338
 33
0.0
  0
MTEXT
  5
36BA
330
3691
100
AcDbEntity
  8
0
  6
Continuous
 62
     0
100
AcDbMText
 10
174.6552331327599
 20
63.06001230676343
 30
0.0
 40
3.5
 41
0.0
 71
     5
 72
     1
  1
\A1;90
  7
BIGFONT
 11
0.0000000000000001
 21
1.0
 31
0.0
 73
     1
 44
1.0
1001
ACAD
1000
MTEXTBEGIN
1070
    73
1070
     1
1070
    44
1040
1.0
1070
    74
1070
     0
1000
MTEXTEND
  0
POINT
  5
36BB
330
3691
100
AcDbEntity
  8
DEFPOINTS
  6
Continuous
 62
     0
100
AcDbPoint
 10
170.4374999999998
 20
40.56001230676341
 30
0.0
  0
POINT
  5
36BC
330
3691
100
AcDbEntity
  8
DEFPOINTS
  6
Continuous
 62
     0
100
AcDbPoint
 10
170.4374999999998
 20
85.56001230676338
 30
0.0
  0
POINT
  5
36BD
330
3691
100
AcDbEntity
  8
DEFPOINTS
  6
Continuous
 62
     0
100
AcDbPoint
 10
177.40523313276
 20
85.56001230676338
 30
0.0
  0
ENDBLK
  5
369C
330
3691
100
AcDbEntity
  8
0
100
AcDbBlockEnd
  0
BLOCK
  5
36A7
330
369D
100
AcDbEntity
  8
0
100
AcDbBlockBegin
  2
*D12
 70
     1
 10
0.0
 20
0.0
 30
0.0
  3
*D12
  1

  0
LINE
  5
36BE
330
369D
100
AcDbEntity
  8
0
  6
Continuous
 62
     0
370
    -2
100
AcDbLine
 10
157.9999999999998
 20
42.1850123067634
 30
0.0
 11
167.8324460783191
 21
42.1850123067634
 31
0.0
  0
LINE
  5
36BF
330
369D
100
AcDbEntity
  8
0
  6
Continuous
 62
     0
370
    -2
100
AcDbLine
 10
157.9999999999998
 20
83.9350123067634
 30
0.0
 11
167.8324460783191
 21
83.9350123067634
 31
0.0
  0
LINE
  5
36C0
330
369D
100
AcDbEntity
  8
0
  6
Continuous
 62
     0
370
    -2
100
AcDbLine
 10
166.8324460783191
 20
45.18501230676341
 30
0.0
 11
166.8324460783192
 21
80.9350123067634
 31
0.0
  0
SOLID
  5
36C1
330
369D
100
AcDbEntity
  8
0
  6
Continuous
 62
     0
100
AcDbTrace
 10
166.3324460783191
 20
45.18501230676341
 30
0.0
 11
167.3324460783191
 21
45.18501230676341
 31
0.0
 12
166.8324460783191
 22
42.1850123067634
 32
0.0
 13
166.8324460783191
 23
42.1850123067634
 33
0.0
  0
SOLID
  5
36C2
330
369D
100
AcDbEntity
  8
0
  6
Continuous
 62
     0
100
AcDbTrace
 10
166.3324460783192
 20
80.9350123067634
 30
0.0
 11
167.3324460783192
 21
80.9350123067634
 31
0.0
 12
166.8324460783192
 22
83.9350123067634
 32
0.0
 13
166.8324460783192
 23
83.9350123067634
 33
0.0
  0
MTEXT
  5
36C3
330
369D
100
AcDbEntity
  8
0
  6
Continuous
 62
     0
100
AcDbMText
 10
164.0824460783191
 20
63.06001230676343
 30
0.0
 40
3.5
 41
0.0
 71
     5
 72
     1
  1
\A1;83.5
  7
BIGFONT
 11
0.0000000000000001
 21
1.0
 31
0.0
 73
     1
 44
1.0
1001
ACAD
1000
MTEXTBEGIN
1070
    73
1070
     1
1070
    44
1040
1.0
1070
    74
1070
     0
1000
MTEXTEND
  0
POINT
  5
36C4
330
369D
100
AcDbEntity
  8
DEFPOINTS
  6
Continuous
 62
     0
100
AcDbPoint
 10
157.9374999999998
 20
42.1850123067634
 30
0.0
  0
POINT
  5
36C5
330
369D
100
AcDbEntity
  8
DEFPOINTS
  6
Continuous
 62
     0
100
AcDbPoint
 10
157.9374999999998
 20
83.9350123067634
 30
0.0
  0
POINT
  5
36C6
330
369D
100
AcDbEntity
  8
DEFPOINTS
  6
Continuous
 62
     0
100
AcDbPoint
 10
166.8324460783192
 20
83.9350123067634
 30
0.0
  0
ENDBLK
  5
36A8
330
369D
100
AcDbEntity
  8
0
100
AcDbBlockEnd
  0
BLOCK
  5
36B3
330
36A9
100
AcDbEntity
  8
0
100
AcDbBlockBegin
  2
*D13
 70
     1
 10
0.0
 20
0.0
 30
0.0
  3
*D13
  1

  0
LINE
  5
36C7
330
36A9
100
AcDbEntity
  8
0
  6
Continuous
 62
     0
370
    -2
100
AcDbLine
 10
145.4374999999998
 20
40.49751230676341
 30
0.0
 11
145.4374999999998
 21
34.73362163046046
 31
0.0
  0
LINE
  5
36C8
330
36A9
100
AcDbEntity
  8
0
  6
Continuous
 62
     0
370
    -2
100
AcDbLine
 10
170.4374999999998
 20
40.49751230676341
 30
0.0
 11
170.4374999999998
 21
34.73362163046046
 31
0.0
  0
LINE
  5
36C9
330
36A9
100
AcDbEntity
  8
0
  6
Continuous
 62
     0
370
    -2
100
AcDbLine
 10
148.4374999999998
 20
35.73362163046045
 30
0.0
 11
167.4374999999998
 21
35.73362163046045
 31
0.0
  0
SOLID
  5
36CA
330
36A9
100
AcDbEntity
  8
0
  6
Continuous
 62
     0
100
AcDbTrace
 10
148.4374999999998
 20
36.23362163046046
 30
0.0
 11
148.4374999999998
 21
35.23362163046046
 31
0.0
 12
145.4374999999998
 22
35.73362163046045
 32
0.0
 13
145.4374999999998
 23
35.73362163046045
 33
0.0
  0
SOLID
  5
36CB
330
36A9
100
AcDbEntity
  8
0
  6
Continuous
 62
     0
100
AcDbTrace
 10
167.4374999999998
 20
36.23362163046046
 30
0.0
 11
167.4374999999998
 21
35.23362163046046
 31
0.0
 12
170.4374999999998
 22
35.73362163046045
 32
0.0
 13
170.4374999999998
 23
35.73362163046045
 33
0.0
  0
MTEXT
  5
36CC
330
36A9
100
AcDbEntity
  8
0
  6
Continuous
 62
     0
100
AcDbMText
 10
157.9374999999998
 20
38.48362163046046
 30
0.0
 40
3.5
 41
0.0
 71
     5
 72
     1
  1
\A1;50
  7
BIGFONT
 73
     1
 44
1.0
1001
ACAD
1000
MTEXTBEGIN
1070
    73
1070
     1
1070
    44
1040
1.0
1070
    74
1070
     0
1000
MTEXTEND
  0
POINT
  5
36CD
330
36A9
100
AcDbEntity
  8
DEFPOINTS
  6
Continuous
 62
     0
100
AcDbPoint
 10
145.4374999999998
 20
40.56001230676341
 30
0.0
  0
POINT
  5
36CE
330
36A9
100
AcDbEntity
  8
DEFPOINTS
  6
Continuous
 62
     0
100
AcDbPoint
 10
170.4374999999998
 20
40.56001230676341
 30
0.0
  0
POINT
  5
36CF
330
36A9
100
AcDbEntity
  8
DEFPOINTS
  6
Continuous
 62
     0
100
AcDbPoint
 10
170.4374999999998
 20
35.73362163046045
 30
0.0
  0
ENDBLK
  5
36B4
330
36A9
100
AcDbEntity
  8
0
100
AcDbBlockEnd
  0
BLOCK
  5
3728
330
371E
100
AcDbEntity
  8
0
100
AcDbBlockBegin
  2
*D14
 70
     1
 10
0.0
 20
0.0
 30
0.0
  3
*D14
  1

  0
LINE
  5
3762
330
371E
100
AcDbEntity
  8
0
 62
     0
370
    -2
100
AcDbLine
 10
121.5208333333333
 20
195.6249999999997
 30
0.0
 11
160.6489675651676
 21
195.6249999999997
 31
0.0
  0
LINE
  5
3763
330
371E
100
AcDbEntity
  8
0
 62
     0
370
    -2
100
AcDbLine
 10
121.5208333333333
 20
241.6249999999997
 30
0.0
 11
160.6489675651676
 21
241.6249999999997
 31
0.0
  0
LINE
  5
3764
330
371E
100
AcDbEntity
  8
0
 62
     0
370
    -2
100
AcDbLine
 10
159.6489675651676
 20
198.6249999999997
 30
0.0
 11
159.6489675651676
 21
238.6249999999997
 31
0.0
  0
SOLID
  5
3765
330
371E
100
AcDbEntity
  8
0
 62
     0
100
AcDbTrace
 10
159.1489675651676
 20
198.6249999999997
 30
0.0
 11
160.1489675651676
 21
198.6249999999997
 31
0.0
 12
159.6489675651676
 22
195.6249999999997
 32
0.0
 13
159.6489675651676
 23
195.6249999999997
 33
0.0
  0
SOLID
  5
3766
330
371E
100
AcDbEntity
  8
0
 62
     0
100
AcDbTrace
 10
159.1489675651676
 20
238.6249999999997
 30
0.0
 11
160.1489675651676
 21
238.6249999999997
 31
0.0
 12
159.6489675651676
 22
241.6249999999997
 32
0.0
 13
159.6489675651676
 23
241.6249999999997
 33
0.0
  0
MTEXT
  5
3767
330
371E
100
AcDbEntity
  8
0
 62
     0
100
AcDbMText
 10
156.8989675651675
 20
218.6249999999997
 30
0.0
 40
3.5
 41
0.0
 71
     5
 72
     1
  1
\A1;69
  7
BIGFONT
 11
0.0000000000000001
 21
1.0
 31
0.0
 73
     1
 44
1.0
1001
ACAD
1000
MTEXTBEGIN
1070
    73
1070
     1
1070
    44
1040
1.0
1070
    74
1070
     0
1000
MTEXTEND
  0
POINT
  5
3768
330
371E
100
AcDbEntity
  8
DEFPOINTS
 62
     0
100
AcDbPoint
 10
121.4583333333333
 20
195.6249999999997
 30
0.0
  0
POINT
  5
3769
330
371E
100
AcDbEntity
  8
DEFPOINTS
 62
     0
100
AcDbPoint
 10
121.4583333333333
 20
241.6249999999997
 30
0.0
  0
POINT
  5
376A
330
371E
100
AcDbEntity
  8
DEFPOINTS
 62
     0
100
AcDbPoint
 10
159.6489675651676
 20
241.6249999999997
 30
0.0
  0
ENDBLK
  5
3729
330
371E
100
AcDbEntity
  8
0
100
AcDbBlockEnd
  0
BLOCK
  5
37DD
330
37DC
100
AcDbEntity
  8
0
 62
     7
100
AcDbBlockBegin
  2
ARRI
 70
     0
 10
0.0
 20
0.0
 30
0.0
  3
ARRI
  1

  0
LINE
  5
37DE
330
37DC
100
AcDbEntity
  8
0
  6
ByBlock
 62
     0
100
AcDbLine
 10
-0.9999999999995168
 20
-0.2125565616699987
 30
0.0
 11
0.0000000000005826
 21
0.0000000000000142
 31
0.0
  0
LINE
  5
37DF
330
37DC
100
AcDbEntity
  8
0
  6
ByBlock
 62
     0
100
AcDbLine
 10
0.0000000000004832
 20
0.0
 30
0.0
 11
-0.9999999999995168
 21
0.0000000000000284
 31
0.0
  0
LINE
  5
37E0
330
37DC
100
AcDbEntity
  8
0
  6
ByBlock
 62
     0
100
AcDbLine
 10
0.0000000000005826
 20
0.0000000000000142
 30
0.0
 11
-0.9999999999995168
 21
0.2125565616699276
 31
0.0
  0
ENDBLK
  5
37E1
330
37DC
100
AcDbEntity
  8
0
 62
     7
100
AcDbBlockEnd
  0
ENDSEC
  0
SECTION
  2
ENTITIES
  0
LINE
  5
31CC
330
2EF9
100
AcDbEntity
  8
0
  6
Continuous
100
AcDbLine
 10
68.29968496122877
 20
245.5155814017028
 30
0.0
 11
80.92404983229675
 21
252.4880980669134
 31
0.0
  0
CIRCLE
  5
31CE
330
2EF9
100
AcDbEntity
  8
0
  6
Continuous
100
AcDbCircle
 10
83.1124549254061
 20
253.6967680584551
 30
0.0
 40
2.5
  0
TEXT
  5
31CF
330
2EF9
100
AcDbEntity
  8
0
100
AcDbText
 10
82.17905624180389
 20
252.1225695862415
 30
0.0
 40
3.5
  1
1
  7
BIGFONT
100
AcDbText
  0
LINE
  5
31D1
330
2EF9
100
AcDbEntity
  8
0
100
AcDbLine
 10
26.79166666666666
 20
181.2916666666664
 30
0.0
 11
26.79166666666666
 21
255.958333333333
 31
0.0
  0
LINE
  5
31D2
330
2EF9
100
AcDbEntity
  8
0
100
AcDbLine
 10
29.45833333333331
 20
258.6249999999997
 30
0.0
 11
70.79166666666669
 21
258.6249999999997
 31
0.0
  0
ARC
  5
31D3
330
2EF9
100
AcDbEntity
  8
0
100
AcDbCircle
 10
29.45833333333331
 20
255.958333333333
 30
0.0
 40
2.666666666666666
100
AcDbArc
 50
90.0
 51
180.0
  0
LINE
  5
31D4
330
2EF9
100
AcDbEntity
  8
0
100
AcDbLine
 10
73.45833333333331
 20
255.958333333333
 30
0.0
 11
73.45833333333331
 21
181.2916666666664
 31
0.0
  0
ARC
  5
31D5
330
2EF9
100
AcDbEntity
  8
0
100
AcDbCircle
 10
70.79166666666669
 20
255.958333333333
 30
0.0
 40
2.666666666666666
100
AcDbArc
 50
0.0
 51
90.0
  0
ARC
  5
31D6
330
2EF9
100
AcDbEntity
  8
0
100
AcDbCircle
 10
70.79166666666669
 20
181.2916666666664
 30
0.0
 40
2.666666666666666
100
AcDbArc
 50
270.0
 51
0.0
  0
LINE
  5
31D7
330
2EF9
100
AcDbEntity
  8
0
100
AcDbLine
 10
29.45833333333334
 20
178.6249999999997
 30
0.0
 11
70.79166666666669
 21
178.6249999999997
 31
0.0
  0
ARC
  5
31D8
330
2EF9
100
AcDbEntity
  8
0
100
AcDbCircle
 10
29.45833333333334
 20
181.2916666666664
 30
0.0
 40
2.666666666666666
100
AcDbArc
 50
180.0
 51
270.0
  0
LINE
  5
31D9
330
2EF9
100
AcDbEntity
  8
0
100
AcDbLine
 10
35.79166666666666
 20
242.958333333333
 30
0.0
 11
64.45833333333331
 21
242.958333333333
 31
0.0
  0
LINE
  5
31DA
330
2EF9
100
AcDbEntity
  8
0
100
AcDbLine
 10
35.79166666666666
 20
242.2916666666663
 30
0.0
 11
64.45833333333331
 21
242.2916666666663
 31
0.0
  0
LINE
  5
31DB
330
2EF9
100
AcDbEntity
  8
0
100
AcDbLine
 10
65.45833333333331
 20
241.958333333333
 30
0.0
 11
65.45833333333331
 21
195.2916666666664
 31
0.0
  0
LINE
  5
31DC
330
2EF9
100
AcDbEntity
  8
0
100
AcDbLine
 10
64.79166666666668
 20
241.958333333333
 30
0.0
 11
64.79166666666668
 21
195.2916666666664
 31
0.0
  0
LINE
  5
31DD
330
2EF9
100
AcDbEntity
  8
0
100
AcDbLine
 10
64.45833333333331
 20
194.2916666666663
 30
0.0
 11
35.79166666666666
 21
194.2916666666663
 31
0.0
  0
LINE
  5
31DE
330
2EF9
100
AcDbEntity
  8
0
100
AcDbLine
 10
64.45833333333331
 20
194.958333333333
 30
0.0
 11
35.79166666666666
 21
194.958333333333
 31
0.0
  0
LINE
  5
31DF
330
2EF9
100
AcDbEntity
  8
0
100
AcDbLine
 10
34.79166666666666
 20
195.2916666666664
 30
0.0
 11
34.79166666666666
 21
241.958333333333
 31
0.0
  0
LINE
  5
31E0
330
2EF9
100
AcDbEntity
  8
0
100
AcDbLine
 10
35.45833333333334
 20
195.2916666666664
 30
0.0
 11
35.45833333333334
 21
241.958333333333
 31
0.0
  0
ARC
  5
31E1
330
2EF9
100
AcDbEntity
  8
0
100
AcDbCircle
 10
35.79166666666666
 20
241.958333333333
 30
0.0
 40
1.0
100
AcDbArc
 50
90.0
 51
180.0
  0
ARC
  5
31E2
330
2EF9
100
AcDbEntity
  8
0
100
AcDbCircle
 10
35.79166666666666
 20
241.958333333333
 30
0.0
 40
0.3333333333333333
100
AcDbArc
 50
90.0
 51
180.0
  0
ARC
  5
31E3
330
2EF9
100
AcDbEntity
  8
0
100
AcDbCircle
 10
64.45833333333331
 20
241.958333333333
 30
0.0
 40
1.0
100
AcDbArc
 50
0.0
 51
90.0
  0
ARC
  5
31E4
330
2EF9
100
AcDbEntity
  8
0
100
AcDbCircle
 10
64.45833333333331
 20
241.958333333333
 30
0.0
 40
0.3333333333333333
100
AcDbArc
 50
0.0
 51
90.0
  0
ARC
  5
31E5
330
2EF9
100
AcDbEntity
  8
0
100
AcDbCircle
 10
64.45833333333331
 20
195.2916666666664
 30
0.0
 40
1.0
100
AcDbArc
 50
270.0
 51
0.0
  0
ARC
  5
31E6
330
2EF9
100
AcDbEntity
  8
0
100
AcDbCircle
 10
64.45833333333331
 20
195.2916666666664
 30
0.0
 40
0.3333333333333333
100
AcDbArc
 50
270.0
 51
0.0
  0
ARC
  5
31E7
330
2EF9
100
AcDbEntity
  8
0
100
AcDbCircle
 10
35.79166666666666
 20
195.2916666666664
 30
0.0
 40
1.0
100
AcDbArc
 50
180.0
 51
270.0
  0
ARC
  5
31E8
330
2EF9
100
AcDbEntity
  8
0
100
AcDbCircle
 10
35.79166666666666
 20
195.2916666666664
 30
0.0
 40
0.3333333333333333
100
AcDbArc
 50
180.0
 51
270.0
  0
LINE
  5
31E9
330
2EF9
100
AcDbEntity
  8
0
100
AcDbLine
 10
46.45833333333331
 20
202.208333333333
 30
0.0
 11
46.45833333333331
 21
207.708333333333
 31
0.0
  0
LINE
  5
31EA
330
2EF9
100
AcDbEntity
  8
0
100
AcDbLine
 10
47.37499999999999
 20
208.6249999999997
 30
0.0
 11
52.875
 21
208.6249999999997
 31
0.0
  0
LINE
  5
31EB
330
2EF9
100
AcDbEntity
  8
0
100
AcDbLine
 10
53.79166666666669
 20
207.708333333333
 30
0.0
 11
53.79166666666669
 21
202.208333333333
 31
0.0
  0
LINE
  5
31EC
330
2EF9
100
AcDbEntity
  8
0
100
AcDbLine
 10
52.875
 20
201.2916666666664
 30
0.0
 11
47.37499999999999
 21
201.2916666666664
 31
0.0
  0
ARC
  5
31ED
330
2EF9
100
AcDbEntity
  8
0
100
AcDbCircle
 10
47.37499999999999
 20
207.708333333333
 30
0.0
 40
0.9166666666666666
100
AcDbArc
 50
90.0
 51
180.0
  0
ARC
  5
31EE
330
2EF9
100
AcDbEntity
  8
0
100
AcDbCircle
 10
52.875
 20
207.708333333333
 30
0.0
 40
0.9166666666666666
100
AcDbArc
 50
0.0
 51
90.0
  0
ARC
  5
31EF
330
2EF9
100
AcDbEntity
  8
0
100
AcDbCircle
 10
52.875
 20
202.208333333333
 30
0.0
 40
0.9166666666666666
100
AcDbArc
 50
270.0
 51
0.0
  0
ARC
  5
31F0
330
2EF9
100
AcDbEntity
  8
0
100
AcDbCircle
 10
47.37499999999999
 20
202.208333333333
 30
0.0
 40
0.9166666666666666
100
AcDbArc
 50
180.0
 51
270.0
  0
ARC
  5
31F1
330
2EF9
100
AcDbEntity
  8
0
100
AcDbCircle
 10
44.20833333333331
 20
202.208333333333
 30
0.0
 40
0.9166666666666666
100
AcDbArc
 50
270.0
 51
0.0
  0
ARC
  5
31F2
330
2EF9
100
AcDbEntity
  8
0
100
AcDbCircle
 10
44.20833333333331
 20
207.708333333333
 30
0.0
 40
0.9166666666666666
100
AcDbArc
 50
0.0
 51
90.0
  0
LINE
  5
31F3
330
2EF9
100
AcDbEntity
  8
0
100
AcDbLine
 10
37.79166666666663
 20
202.208333333333
 30
0.0
 11
37.79166666666666
 21
207.708333333333
 31
0.0
  0
LINE
  5
31F4
330
2EF9
100
AcDbEntity
  8
0
100
AcDbLine
 10
45.125
 20
207.708333333333
 30
0.0
 11
45.125
 21
202.208333333333
 31
0.0
  0
LINE
  5
31F5
330
2EF9
100
AcDbEntity
  8
0
100
AcDbLine
 10
44.20833333333331
 20
201.2916666666664
 30
0.0
 11
38.70833333333332
 21
201.2916666666664
 31
0.0
  0
ARC
  5
31F6
330
2EF9
100
AcDbEntity
  8
0
100
AcDbCircle
 10
38.70833333333332
 20
202.208333333333
 30
0.0
 40
0.9166666666666666
100
AcDbArc
 50
180.0
 51
270.0
  0
LINE
  5
31F7
330
2EF9
100
AcDbEntity
  8
0
100
AcDbLine
 10
38.70833333333332
 20
208.6249999999997
 30
0.0
 11
44.20833333333331
 21
208.6249999999997
 31
0.0
  0
ARC
  5
31F8
330
2EF9
100
AcDbEntity
  8
0
100
AcDbCircle
 10
38.70833333333332
 20
207.708333333333
 30
0.0
 40
0.9166666666666666
100
AcDbArc
 50
90.0
 51
180.0
  0
ARC
  5
31F9
330
2EF9
100
AcDbEntity
  8
0
100
AcDbCircle
 10
56.04166666666668
 20
202.208333333333
 30
0.0
 40
0.9166666666666666
100
AcDbArc
 50
180.0
 51
270.0
  0
ARC
  5
31FA
330
2EF9
100
AcDbEntity
  8
0
100
AcDbCircle
 10
56.04166666666668
 20
207.708333333333
 30
0.0
 40
0.9166666666666666
100
AcDbArc
 50
90.0
 51
180.0
  0
LINE
  5
31FB
330
2EF9
100
AcDbEntity
  8
0
100
AcDbLine
 10
62.45833333333331
 20
202.208333333333
 30
0.0
 11
62.45833333333331
 21
207.708333333333
 31
0.0
  0
LINE
  5
31FC
330
2EF9
100
AcDbEntity
  8
0
100
AcDbLine
 10
56.04166666666668
 20
201.2916666666664
 30
0.0
 11
61.54166666666663
 21
201.2916666666664
 31
0.0
  0
ARC
  5
31FD
330
2EF9
100
AcDbEntity
  8
0
100
AcDbCircle
 10
61.54166666666663
 20
202.208333333333
 30
0.0
 40
0.9166666666666666
100
AcDbArc
 50
270.0
 51
0.0
  0
LINE
  5
31FE
330
2EF9
100
AcDbEntity
  8
0
100
AcDbLine
 10
61.54166666666663
 20
208.6249999999997
 30
0.0
 11
56.04166666666668
 21
208.6249999999997
 31
0.0
  0
ARC
  5
31FF
330
2EF9
100
AcDbEntity
  8
0
100
AcDbCircle
 10
61.54166666666663
 20
207.708333333333
 30
0.0
 40
0.9166666666666666
100
AcDbArc
 50
0.0
 51
90.0
  0
LINE
  5
3200
330
2EF9
100
AcDbEntity
  8
0
100
AcDbLine
 10
55.125
 20
207.708333333333
 30
0.0
 11
55.125
 21
202.208333333333
 31
0.0
  0
ARC
  5
3201
330
2EF9
100
AcDbEntity
  8
0
100
AcDbCircle
 10
52.875
 20
210.8749999999997
 30
0.0
 40
0.9166666666666666
100
AcDbArc
 50
270.0
 51
0.0
  0
ARC
  5
3202
330
2EF9
100
AcDbEntity
  8
0
100
AcDbCircle
 10
52.875
 20
216.3749999999997
 30
0.0
 40
0.9166666666666666
100
AcDbArc
 50
0.0
 51
90.0
  0
ARC
  5
3203
330
2EF9
100
AcDbEntity
  8
0
100
AcDbCircle
 10
44.20833333333331
 20
210.8749999999997
 30
0.0
 40
0.9166666666666666
100
AcDbArc
 50
270.0
 51
0.0
  0
ARC
  5
3204
330
2EF9
100
AcDbEntity
  8
0
100
AcDbCircle
 10
44.20833333333331
 20
216.3749999999997
 30
0.0
 40
0.9166666666666666
100
AcDbArc
 50
0.0
 51
90.0
  0
LINE
  5
3205
330
2EF9
100
AcDbEntity
  8
0
100
AcDbLine
 10
37.7916666666666
 20
210.8749999999997
 30
0.0
 11
37.79166666666663
 21
216.3749999999997
 31
0.0
  0
LINE
  5
3206
330
2EF9
100
AcDbEntity
  8
0
100
AcDbLine
 10
44.20833333333331
 20
209.958333333333
 30
0.0
 11
38.70833333333332
 21
209.958333333333
 31
0.0
  0
ARC
  5
3207
330
2EF9
100
AcDbEntity
  8
0
100
AcDbCircle
 10
38.70833333333332
 20
210.8749999999997
 30
0.0
 40
0.9166666666666666
100
AcDbArc
 50
180.0
 51
270.0
  0
LINE
  5
3208
330
2EF9
100
AcDbEntity
  8
0
100
AcDbLine
 10
38.70833333333332
 20
217.2916666666663
 30
0.0
 11
44.20833333333331
 21
217.2916666666663
 31
0.0
  0
ARC
  5
3209
330
2EF9
100
AcDbEntity
  8
0
100
AcDbCircle
 10
38.70833333333332
 20
216.3749999999997
 30
0.0
 40
0.9166666666666666
100
AcDbArc
 50
90.0
 51
180.0
  0
LINE
  5
320A
330
2EF9
100
AcDbEntity
  8
0
100
AcDbLine
 10
45.12499999999994
 20
216.3749999999997
 30
0.0
 11
45.12499999999994
 21
210.8749999999997
 31
0.0
  0
LINE
  5
320B
330
2EF9
100
AcDbEntity
  8
0
100
AcDbLine
 10
46.45833333333331
 20
210.8749999999997
 30
0.0
 11
46.45833333333331
 21
216.3749999999997
 31
0.0
  0
LINE
  5
320C
330
2EF9
100
AcDbEntity
  8
0
100
AcDbLine
 10
53.79166666666669
 20
216.3749999999997
 30
0.0
 11
53.79166666666669
 21
210.8749999999997
 31
0.0
  0
LINE
  5
320D
330
2EF9
100
AcDbEntity
  8
0
100
AcDbLine
 10
52.875
 20
209.958333333333
 30
0.0
 11
47.37499999999994
 21
209.958333333333
 31
0.0
  0
ARC
  5
320E
330
2EF9
100
AcDbEntity
  8
0
100
AcDbCircle
 10
47.37499999999994
 20
210.8749999999997
 30
0.0
 40
0.9166666666666666
100
AcDbArc
 50
180.0
 51
270.0
  0
LINE
  5
320F
330
2EF9
100
AcDbEntity
  8
0
100
AcDbLine
 10
47.37499999999999
 20
217.2916666666663
 30
0.0
 11
52.875
 21
217.2916666666663
 31
0.0
  0
ARC
  5
3210
330
2EF9
100
AcDbEntity
  8
0
100
AcDbCircle
 10
47.37499999999999
 20
216.3749999999997
 30
0.0
 40
0.9166666666666666
100
AcDbArc
 50
90.0
 51
180.0
  0
LINE
  5
3211
330
2EF9
100
AcDbEntity
  8
0
100
AcDbLine
 10
55.125
 20
216.3749999999997
 30
0.0
 11
55.125
 21
210.8749999999997
 31
0.0
  0
LINE
  5
3212
330
2EF9
100
AcDbEntity
  8
0
100
AcDbLine
 10
62.45833333333326
 20
210.8749999999997
 30
0.0
 11
62.45833333333326
 21
216.3749999999997
 31
0.0
  0
LINE
  5
3213
330
2EF9
100
AcDbEntity
  8
0
100
AcDbLine
 10
56.04166666666668
 20
209.958333333333
 30
0.0
 11
61.54166666666657
 21
209.958333333333
 31
0.0
  0
ARC
  5
3214
330
2EF9
100
AcDbEntity
  8
0
100
AcDbCircle
 10
56.04166666666668
 20
210.8749999999997
 30
0.0
 40
0.9166666666666666
100
AcDbArc
 50
180.0
 51
270.0
  0
ARC
  5
3215
330
2EF9
100
AcDbEntity
  8
0
100
AcDbCircle
 10
61.54166666666657
 20
210.8749999999997
 30
0.0
 40
0.9166666666666666
100
AcDbArc
 50
270.0
 51
0.0
  0
LINE
  5
3216
330
2EF9
100
AcDbEntity
  8
0
100
AcDbLine
 10
61.54166666666657
 20
217.2916666666663
 30
0.0
 11
56.04166666666668
 21
217.2916666666663
 31
0.0
  0
ARC
  5
3217
330
2EF9
100
AcDbEntity
  8
0
100
AcDbCircle
 10
56.04166666666668
 20
216.3749999999997
 30
0.0
 40
0.9166666666666666
100
AcDbArc
 50
90.0
 51
180.0
  0
ARC
  5
3218
330
2EF9
100
AcDbEntity
  8
0
100
AcDbCircle
 10
61.54166666666657
 20
216.3749999999997
 30
0.0
 40
0.9166666666666666
100
AcDbArc
 50
0.0
 51
90.0
  0
ARC
  5
3219
330
2EF9
100
AcDbEntity
  8
0
100
AcDbCircle
 10
52.875
 20
219.5416666666663
 30
0.0
 40
0.9166666666666666
100
AcDbArc
 50
270.0
 51
0.0
  0
ARC
  5
321A
330
2EF9
100
AcDbEntity
  8
0
100
AcDbCircle
 10
52.875
 20
225.0416666666664
 30
0.0
 40
0.9166666666666666
100
AcDbArc
 50
0.0
 51
90.0
  0
ARC
  5
321B
330
2EF9
100
AcDbEntity
  8
0
100
AcDbCircle
 10
44.20833333333331
 20
219.5416666666663
 30
0.0
 40
0.9166666666666666
100
AcDbArc
 50
270.0
 51
0.0
  0
ARC
  5
321C
330
2EF9
100
AcDbEntity
  8
0
100
AcDbCircle
 10
44.20833333333331
 20
225.0416666666664
 30
0.0
 40
0.9166666666666666
100
AcDbArc
 50
0.0
 51
90.0
  0
LINE
  5
321D
330
2EF9
100
AcDbEntity
  8
0
100
AcDbLine
 10
37.79166666666666
 20
219.5416666666663
 30
0.0
 11
37.79166666666666
 21
225.0416666666664
 31
0.0
  0
LINE
  5
321E
330
2EF9
100
AcDbEntity
  8
0
100
AcDbLine
 10
44.20833333333331
 20
218.6249999999997
 30
0.0
 11
38.70833333333332
 21
218.6249999999997
 31
0.0
  0
ARC
  5
321F
330
2EF9
100
AcDbEntity
  8
0
100
AcDbCircle
 10
38.70833333333332
 20
219.5416666666663
 30
0.0
 40
0.9166666666666666
100
AcDbArc
 50
180.0
 51
270.0
  0
LINE
  5
3220
330
2EF9
100
AcDbEntity
  8
0
100
AcDbLine
 10
38.70833333333332
 20
225.958333333333
 30
0.0
 11
44.20833333333331
 21
225.958333333333
 31
0.0
  0
ARC
  5
3221
330
2EF9
100
AcDbEntity
  8
0
100
AcDbCircle
 10
38.70833333333332
 20
225.0416666666664
 30
0.0
 40
0.9166666666666666
100
AcDbArc
 50
90.0
 51
180.0
  0
LINE
  5
3222
330
2EF9
100
AcDbEntity
  8
0
100
AcDbLine
 10
45.125
 20
225.0416666666664
 30
0.0
 11
45.125
 21
219.5416666666663
 31
0.0
  0
LINE
  5
3223
330
2EF9
100
AcDbEntity
  8
0
100
AcDbLine
 10
46.45833333333331
 20
219.5416666666663
 30
0.0
 11
46.45833333333331
 21
225.0416666666664
 31
0.0
  0
LINE
  5
3224
330
2EF9
100
AcDbEntity
  8
0
100
AcDbLine
 10
53.79166666666669
 20
225.0416666666664
 30
0.0
 11
53.79166666666669
 21
219.5416666666663
 31
0.0
  0
LINE
  5
3225
330
2EF9
100
AcDbEntity
  8
0
100
AcDbLine
 10
52.875
 20
218.6249999999997
 30
0.0
 11
47.37499999999999
 21
218.6249999999997
 31
0.0
  0
ARC
  5
3226
330
2EF9
100
AcDbEntity
  8
0
100
AcDbCircle
 10
47.37499999999999
 20
219.5416666666663
 30
0.0
 40
0.9166666666666666
100
AcDbArc
 50
180.0
 51
270.0
  0
LINE
  5
3227
330
2EF9
100
AcDbEntity
  8
0
100
AcDbLine
 10
47.37499999999999
 20
225.958333333333
 30
0.0
 11
52.875
 21
225.958333333333
 31
0.0
  0
ARC
  5
3228
330
2EF9
100
AcDbEntity
  8
0
100
AcDbCircle
 10
47.37499999999999
 20
225.0416666666664
 30
0.0
 40
0.9166666666666666
100
AcDbArc
 50
90.0
 51
180.0
  0
LINE
  5
3229
330
2EF9
100
AcDbEntity
  8
0
100
AcDbLine
 10
55.125
 20
225.0416666666664
 30
0.0
 11
55.125
 21
219.5416666666663
 31
0.0
  0
LINE
  5
322A
330
2EF9
100
AcDbEntity
  8
0
100
AcDbLine
 10
62.45833333333331
 20
219.5416666666663
 30
0.0
 11
62.45833333333331
 21
225.0416666666664
 31
0.0
  0
LINE
  5
322B
330
2EF9
100
AcDbEntity
  8
0
100
AcDbLine
 10
56.04166666666668
 20
218.6249999999997
 30
0.0
 11
61.54166666666668
 21
218.6249999999997
 31
0.0
  0
ARC
  5
322C
330
2EF9
100
AcDbEntity
  8
0
100
AcDbCircle
 10
56.04166666666668
 20
219.5416666666663
 30
0.0
 40
0.9166666666666666
100
AcDbArc
 50
180.0
 51
270.0
  0
ARC
  5
322D
330
2EF9
100
AcDbEntity
  8
0
100
AcDbCircle
 10
61.54166666666668
 20
219.5416666666663
 30
0.0
 40
0.9166666666666666
100
AcDbArc
 50
270.0
 51
0.0
  0
LINE
  5
322E
330
2EF9
100
AcDbEntity
  8
0
100
AcDbLine
 10
61.54166666666668
 20
225.958333333333
 30
0.0
 11
56.04166666666668
 21
225.958333333333
 31
0.0
  0
ARC
  5
322F
330
2EF9
100
AcDbEntity
  8
0
100
AcDbCircle
 10
56.04166666666668
 20
225.0416666666664
 30
0.0
 40
0.9166666666666666
100
AcDbArc
 50
90.0
 51
180.0
  0
ARC
  5
3230
330
2EF9
100
AcDbEntity
  8
0
100
AcDbCircle
 10
61.54166666666668
 20
225.0416666666664
 30
0.0
 40
0.9166666666666666
100
AcDbArc
 50
0.0
 51
90.0
  0
ARC
  5
3231
330
2EF9
100
AcDbEntity
  8
0
100
AcDbCircle
 10
52.875
 20
233.708333333333
 30
0.0
 40
0.9166666666666666
100
AcDbArc
 50
0.0
 51
90.0
  0
ARC
  5
3232
330
2EF9
100
AcDbEntity
  8
0
100
AcDbCircle
 10
52.875
 20
228.208333333333
 30
0.0
 40
0.9166666666666666
100
AcDbArc
 50
270.0
 51
0.0
  0
ARC
  5
3233
330
2EF9
100
AcDbEntity
  8
0
100
AcDbCircle
 10
44.20833333333331
 20
233.708333333333
 30
0.0
 40
0.9166666666666666
100
AcDbArc
 50
0.0
 51
90.0
  0
ARC
  5
3234
330
2EF9
100
AcDbEntity
  8
0
100
AcDbCircle
 10
44.20833333333331
 20
228.208333333333
 30
0.0
 40
0.9166666666666666
100
AcDbArc
 50
270.0
 51
0.0
  0
ARC
  5
3235
330
2EF9
100
AcDbEntity
  8
0
100
AcDbCircle
 10
38.70833333333332
 20
233.708333333333
 30
0.0
 40
0.9166666666666666
100
AcDbArc
 50
90.0
 51
180.0
  0
LINE
  5
3236
330
2EF9
100
AcDbEntity
  8
0
100
AcDbLine
 10
44.20833333333331
 20
227.2916666666663
 30
0.0
 11
38.70833333333332
 21
227.2916666666663
 31
0.0
  0
LINE
  5
3237
330
2EF9
100
AcDbEntity
  8
0
100
AcDbLine
 10
37.79166666666666
 20
228.208333333333
 30
0.0
 11
37.79166666666666
 21
233.708333333333
 31
0.0
  0
ARC
  5
3238
330
2EF9
100
AcDbEntity
  8
0
100
AcDbCircle
 10
38.70833333333332
 20
228.208333333333
 30
0.0
 40
0.9166666666666666
100
AcDbArc
 50
180.0
 51
270.0
  0
LINE
  5
3239
330
2EF9
100
AcDbEntity
  8
0
100
AcDbLine
 10
38.70833333333332
 20
234.6249999999997
 30
0.0
 11
44.20833333333331
 21
234.6249999999997
 31
0.0
  0
ARC
  5
323A
330
2EF9
100
AcDbEntity
  8
0
100
AcDbCircle
 10
47.37499999999999
 20
233.708333333333
 30
0.0
 40
0.9166666666666666
100
AcDbArc
 50
90.0
 51
180.0
  0
LINE
  5
323B
330
2EF9
100
AcDbEntity
  8
0
100
AcDbLine
 10
52.875
 20
227.2916666666663
 30
0.0
 11
47.37499999999999
 21
227.2916666666663
 31
0.0
  0
LINE
  5
323C
330
2EF9
100
AcDbEntity
  8
0
100
AcDbLine
 10
46.45833333333331
 20
228.208333333333
 30
0.0
 11
46.45833333333331
 21
233.708333333333
 31
0.0
  0
LINE
  5
323D
330
2EF9
100
AcDbEntity
  8
0
100
AcDbLine
 10
45.125
 20
233.708333333333
 30
0.0
 11
45.125
 21
228.208333333333
 31
0.0
  0
ARC
  5
323E
330
2EF9
100
AcDbEntity
  8
0
100
AcDbCircle
 10
47.37499999999999
 20
228.208333333333
 30
0.0
 40
0.9166666666666666
100
AcDbArc
 50
180.0
 51
270.0
  0
LINE
  5
323F
330
2EF9
100
AcDbEntity
  8
0
100
AcDbLine
 10
53.79166666666669
 20
233.708333333333
 30
0.0
 11
53.79166666666669
 21
228.208333333333
 31
0.0
  0
LINE
  5
3240
330
2EF9
100
AcDbEntity
  8
0
100
AcDbLine
 10
47.37499999999999
 20
234.6249999999997
 30
0.0
 11
52.875
 21
234.6249999999997
 31
0.0
  0
ARC
  5
3241
330
2EF9
100
AcDbEntity
  8
0
100
AcDbCircle
 10
61.54166666666668
 20
233.708333333333
 30
0.0
 40
0.9166666666666666
100
AcDbArc
 50
0.0
 51
90.0
  0
ARC
  5
3242
330
2EF9
100
AcDbEntity
  8
0
100
AcDbCircle
 10
56.04166666666668
 20
233.708333333333
 30
0.0
 40
0.9166666666666666
100
AcDbArc
 50
90.0
 51
180.0
  0
LINE
  5
3243
330
2EF9
100
AcDbEntity
  8
0
100
AcDbLine
 10
56.04166666666668
 20
227.2916666666663
 30
0.0
 11
61.54166666666668
 21
227.2916666666663
 31
0.0
  0
LINE
  5
3244
330
2EF9
100
AcDbEntity
  8
0
100
AcDbLine
 10
55.125
 20
233.708333333333
 30
0.0
 11
55.125
 21
228.208333333333
 31
0.0
  0
ARC
  5
3245
330
2EF9
100
AcDbEntity
  8
0
100
AcDbCircle
 10
56.04166666666668
 20
228.208333333333
 30
0.0
 40
0.9166666666666666
100
AcDbArc
 50
180.0
 51
270.0
  0
LINE
  5
3246
330
2EF9
100
AcDbEntity
  8
0
100
AcDbLine
 10
62.45833333333331
 20
228.208333333333
 30
0.0
 11
62.45833333333331
 21
233.708333333333
 31
0.0
  0
ARC
  5
3247
330
2EF9
100
AcDbEntity
  8
0
100
AcDbCircle
 10
61.54166666666668
 20
228.208333333333
 30
0.0
 40
0.9166666666666666
100
AcDbArc
 50
270.0
 51
0.0
  0
LINE
  5
3248
330
2EF9
100
AcDbEntity
  8
0
100
AcDbLine
 10
61.54166666666668
 20
234.6249999999997
 30
0.0
 11
56.04166666666668
 21
234.6249999999997
 31
0.0
  0
LINE
  5
3249
330
2EF9
100
AcDbEntity
  8
0
100
AcDbLine
 10
35.45833333333334
 20
236.6249999999997
 30
0.0
 11
64.79166666666668
 21
236.6249999999997
 31
0.0
  0
CIRCLE
  5
324A
330
2EF9
100
AcDbEntity
  8
0
100
AcDbCircle
 10
50.125
 20
238.2916666666663
 30
0.0
 40
1.0
  0
CIRCLE
  5
324B
330
2EF9
100
AcDbEntity
  8
0
100
AcDbCircle
 10
41.45833333333331
 20
238.2916666666663
 30
0.0
 40
1.0
  0
CIRCLE
  5
324C
330
2EF9
100
AcDbEntity
  8
0
100
AcDbCircle
 10
58.79166666666669
 20
238.2916666666663
 30
0.0
 40
1.0
  0
LINE
  5
324D
330
2EF9
100
AcDbEntity
  8
0
100
AcDbLine
 10
96.79166666666652
 20
258.6249999999997
 30
0.0
 11
98.125
 21
258.6249999999997
 31
0.0
  0
ARC
  5
324E
330
2EF9
100
AcDbEntity
  8
0
100
AcDbCircle
 10
96.79166666666652
 20
255.958333333333
 30
0.0
 40
2.666666666666666
100
AcDbArc
 50
90.0
 51
180.0
  0
LINE
  5
324F
330
2EF9
100
AcDbEntity
  8
0
100
AcDbLine
 10
98.125
 20
258.6249999999997
 30
0.0
 11
98.125
 21
178.6249999999997
 31
0.0
  0
LINE
  5
3250
330
2EF9
100
AcDbEntity
  8
0
100
AcDbLine
 10
98.125
 20
178.6249999999997
 30
0.0
 11
96.7916666666666
 21
178.6249999999997
 31
0.0
  0
ARC
  5
3251
330
2EF9
100
AcDbEntity
  8
0
100
AcDbCircle
 10
96.7916666666666
 20
181.2916666666664
 30
0.0
 40
2.666666666666666
100
AcDbArc
 50
180.0
 51
270.0
  0
LINE
  5
3252
330
2EF9
100
AcDbEntity
  8
0
100
AcDbLine
 10
94.12499999999999
 20
181.2916666666664
 30
0.0
 11
94.12499999999994
 21
255.958333333333
 31
0.0
  0
LINE
  5
3253
330
2EF9
100
AcDbEntity
  8
0
100
AcDbLine
 10
121.4583333333333
 20
241.6249999999997
 30
0.0
 11
121.4583333333333
 21
195.6249999999997
 31
0.0
  0
LINE
  5
3254
330
2EF9
100
AcDbEntity
  8
0
100
AcDbLine
 10
121.4583333333333
 20
195.6249999999997
 30
0.0
 11
98.125
 21
195.6249999999997
 31
0.0
  0
LINE
  5
3255
330
2EF9
100
AcDbEntity
  8
0
100
AcDbLine
 10
121.4583333333333
 20
241.6249999999997
 30
0.0
 11
98.125
 21
241.6249999999997
 31
0.0
  0
DIMENSION
  5
3256
330
2EF9
100
AcDbEntity
  8
0
100
AcDbDimension
  2
*D6
 10
19.85392157444642
 20
178.6249999999997
 30
0.0
 11
17.10392157444639
 21
218.6249999999997
 31
0.0
 70
    32
  1
120
 71
     5
 42
80.00000000000003
  3
STANDARD
100
AcDbAlignedDimension
 13
29.45833333333331
 23
258.6249999999997
 33
0.0
 14
29.45833333333331
 24
178.6249999999997
 34
0.0
 50
90.0
100
AcDbRotatedDimension
1001
ACAD
1000
DSTYLE
1002
{
1070
   271
1070
     0
1002
}
  0
DIMENSION
  5
3257
330
2EF9
100
AcDbEntity
  8
0
100
AcDbDimension
  2
*D7
 10
98.125
 20
263.260940522194
 30
0.0
 11
95.96706792464738
 21
266.0633264505691
 31
0.0
 70
   160
  1
6
 71
     5
 42
4.000000000000056
  3
STANDARD
100
AcDbAlignedDimension
 13
94.12499999999994
 23
255.958333333333
 33
0.0
 14
98.125
 24
242.0416666666663
 34
0.0
100
AcDbRotatedDimension
1001
ACAD
1000
DSTYLE
1002
{
1070
   271
1070
     0
1002
}
  0
DIMENSION
  5
3258
330
2EF9
100
AcDbEntity
  8
0
100
AcDbDimension
  2
*D8
 10
121.4583333333333
 20
263.260940522194
 30
0.0
 11
109.7916666666666
 21
266.010940522194
 31
0.0
 70
    32
  1
35
 71
     5
 42
23.3333333333333
  3
STANDARD
100
AcDbAlignedDimension
 13
98.125
 23
241.6249999999997
 33
0.0
 14
121.4583333333333
 24
241.6249999999997
 34
0.0
100
AcDbRotatedDimension
1001
ACAD
1000
DSTYLE
1002
{
1070
   271
1070
     0
1002
}
  0
DIMENSION
  5
325A
330
2EF9
100
AcDbEntity
  8
0
100
AcDbDimension
  2
*D9
 10
73.45833333333331
 20
263.260940522194
 30
0.0
 11
50.125
 21
266.010940522194
 31
0.0
 70
    32
  1
70
 71
     5
 42
46.66666666666663
  3
STANDARD
100
AcDbAlignedDimension
 13
26.79166666666669
 23
256.6249999999997
 33
0.0
 14
73.45833333333331
 24
256.6249999999997
 34
0.0
100
AcDbRotatedDimension
1001
ACAD
1000
DSTYLE
1002
{
1070
   271
1070
     0
1002
}
  0
LINE
  5
325B
330
2EF9
100
AcDbEntity
  8
0
100
AcDbLine
 10
96.7916666666666
 20
258.6249999999997
 30
0.0
 11
96.7916666666666
 21
178.6249999999997
 31
0.0
  0
LINE
  5
325C
330
2EF9
100
AcDbEntity
  8
0
100
AcDbLine
 10
73.45833333333331
 20
169.2916666666663
 30
0.0
 11
73.45833333333326
 21
167.958333333333
 31
0.0
  0
ARC
  5
325D
330
2EF9
100
AcDbEntity
  8
0
100
AcDbCircle
 10
70.79166666666669
 20
169.2916666666663
 30
0.0
 40
2.666666666666666
100
AcDbArc
 50
0.0
 51
90.0
  0
LINE
  5
325E
330
2EF9
100
AcDbEntity
  8
0
100
AcDbLine
 10
73.45833333333326
 20
167.958333333333
 30
0.0
 11
26.7916666666666
 21
167.958333333333
 31
0.0
  0
LINE
  5
325F
330
2EF9
100
AcDbEntity
  8
0
100
AcDbLine
 10
26.7916666666666
 20
167.958333333333
 30
0.0
 11
26.7916666666666
 21
169.2916666666663
 31
0.0
  0
ARC
  5
3260
330
2EF9
100
AcDbEntity
  8
0
100
AcDbCircle
 10
29.45833333333329
 20
169.2916666666663
 30
0.0
 40
2.666666666666666
100
AcDbArc
 50
90.0
 51
180.0
  0
LINE
  5
3261
330
2EF9
100
AcDbEntity
  8
0
100
AcDbLine
 10
29.45833333333329
 20
171.958333333333
 30
0.0
 11
70.79166666666669
 21
171.958333333333
 31
0.0
  0
LINE
  5
3262
330
2EF9
100
AcDbEntity
  8
0
100
AcDbLine
 10
65.45833333333326
 20
144.6249999999996
 30
0.0
 11
34.7916666666666
 21
144.6249999999996
 31
0.0
  0
LINE
  5
3263
330
2EF9
100
AcDbEntity
  8
0
100
AcDbLine
 10
34.7916666666666
 20
144.6249999999996
 30
0.0
 11
34.7916666666666
 21
167.958333333333
 31
0.0
  0
LINE
  5
3264
330
2EF9
100
AcDbEntity
  8
0
100
AcDbLine
 10
65.45833333333326
 20
144.6249999999996
 30
0.0
 11
65.45833333333326
 21
167.958333333333
 31
0.0
  0
DIMENSION
  5
3265
330
2EF9
100
AcDbEntity
  8
0
100
AcDbDimension
  2
*D10
 10
65.45833333333326
 20
137.5738486300933
 30
0.0
 11
50.12499999999993
 21
140.3238486300933
 31
0.0
 70
    32
  1
46
 71
     5
 42
30.66666666666665
  3
STANDARD
100
AcDbAlignedDimension
 13
34.79166666666661
 23
144.6249999999996
 33
0.0
 14
65.45833333333326
 24
144.6249999999996
 34
0.0
100
AcDbRotatedDimension
1001
ACAD
1000
DSTYLE
1002
{
1070
   271
1070
     0
1002
}
  0
LINE
  5
3266
330
2EF9
100
AcDbEntity
  8
0
100
AcDbLine
 10
73.45833333333326
 20
169.2916666666663
 30
0.0
 11
26.7916666666666
 21
169.2916666666663
 31
0.0
  0
TEXT
  5
3267
330
2EF9
100
AcDbEntity
  8
0
100
AcDbText
 10
135.2800277669817
 20
174.575
 30
0.0
 40
3.5
  1
番号
  7
BIGFONT
100
AcDbText
  0
TEXT
  5
3268
330
2EF9
100
AcDbEntity
  8
0
100
AcDbText
 10
42.55502776698185
 20
54.57500000000002
 30
0.0
 40
3.5
  1
暗証番号自在設定（8桁 MAX）
  7
BIGFONT
100
AcDbText
  0
TEXT
  5
3269
330
2EF9
100
AcDbEntity
  8
0
100
AcDbText
 10
138.318855960559
 20
120.5268047378633
 30
0.0
 40
3.5
  1
8
  7
BIGFONT
100
AcDbText
  0
CIRCLE
  5
326A
330
2EF9
100
AcDbEntity
  8
0
  6
Continuous
100
AcDbCircle
 10
139.1249999999999
 20
122.2750000000001
 30
0.0
 40
2.5
  0
LINE
  5
326B
330
2EF9
100
AcDbEntity
  8
0
100
AcDbLine
 10
133.1249999999999
 20
137.275
 30
0.0
 11
184.7499999999998
 21
137.275
 31
0.0
  0
LINE
  5
326C
330
2EF9
100
AcDbEntity
  8
0
100
AcDbLine
 10
133.1249999999999
 20
131.2750000000001
 30
0.0
 11
184.7499999999998
 21
131.2750000000001
 31
0.0
  0
LINE
  5
326D
330
2EF9
100
AcDbEntity
  8
0
100
AcDbLine
 10
133.1249999999999
 20
161.275
 30
0.0
 11
184.7499999999998
 21
161.2749999999999
 31
0.0
  0
LINE
  5
326E
330
2EF9
100
AcDbEntity
  8
0
100
AcDbLine
 10
133.1249999999999
 20
167.275
 30
0.0
 11
184.7499999999998
 21
167.2749999999998
 31
0.0
  0
LINE
  5
326F
330
2EF9
100
AcDbEntity
  8
0
100
AcDbLine
 10
133.1249999999999
 20
179.2749999999999
 30
0.0
 11
184.7499999999998
 21
179.2749999999999
 31
0.0
  0
LINE
  5
3270
330
2EF9
100
AcDbEntity
  8
0
100
AcDbLine
 10
133.1249999999999
 20
173.275
 30
0.0
 11
184.7499999999998
 21
173.275
 31
0.0
  0
LINE
  5
3271
330
2EF9
100
AcDbEntity
  8
0
100
AcDbLine
 10
133.1249999999999
 20
155.275
 30
0.0
 11
184.7499999999998
 21
155.275
 31
0.0
  0
LINE
  5
3272
330
2EF9
100
AcDbEntity
  8
0
100
AcDbLine
 10
133.1249999999999
 20
143.275
 30
0.0
 11
184.7499999999998
 21
143.275
 31
0.0
  0
LINE
  5
3273
330
2EF9
100
AcDbEntity
  8
0
100
AcDbLine
 10
133.1249999999999
 20
113.2750000000001
 30
0.0
 11
184.7499999999998
 21
113.2750000000001
 31
0.0
  0
TEXT
  5
3274
330
2EF9
100
AcDbEntity
  8
0
100
AcDbText
 10
42.55502776698185
 20
60.57500000000004
 30
0.0
 40
3.5
  1
タクトスイッチ耐久性　100万回以上
  7
BIGFONT
100
AcDbText
  0
LINE
  5
3275
330
2EF9
100
AcDbEntity
  8
0
100
AcDbLine
 10
10.65
 20
71.27500000000003
 30
0.0
 11
125.1249999999998
 21
71.27499999999995
 31
0.0
  0
LINE
  5
3276
330
2EF9
100
AcDbEntity
  8
0
100
AcDbLine
 10
10.65
 20
41.27500000000003
 30
0.0
 11
125.1249999999998
 21
41.27500000000003
 31
0.0
  0
LINE
  5
3277
330
2EF9
100
AcDbEntity
  8
0
100
AcDbLine
 10
40.65
 20
65.27500000000005
 30
0.0
 11
125.1249999999998
 21
65.275
 31
0.0
  0
LINE
  5
3278
330
2EF9
100
AcDbEntity
  8
0
100
AcDbLine
 10
40.65
 20
59.27500000000005
 30
0.0
 11
125.1249999999998
 21
59.27500000000001
 31
0.0
  0
LINE
  5
3279
330
2EF9
100
AcDbEntity
  8
0
100
AcDbLine
 10
10.65
 20
53.27500000000005
 30
0.0
 11
125.1249999999998
 21
53.27500000000002
 31
0.0
  0
LINE
  5
327A
330
2EF9
100
AcDbEntity
  8
0
100
AcDbLine
 10
40.65
 20
47.27500000000001
 30
0.0
 11
125.1249999999998
 21
47.27500000000001
 31
0.0
  0
LINE
  5
327B
330
2EF9
100
AcDbEntity
  8
0
100
AcDbLine
 10
10.65
 20
29.27500000000005
 30
0.0
 11
125.1249999999998
 21
29.27500000000001
 31
0.0
  0
TEXT
  5
327C
330
2EF9
100
AcDbEntity
  8
0
100
AcDbText
 10
13.45502776698185
 20
66.85000000000005
 30
0.0
 40
3.5
  1
仕　　　様
  7
BIGFONT
100
AcDbText
  0
TEXT
  5
327D
330
2EF9
100
AcDbEntity
  8
0
100
AcDbText
 10
13.55502776698185
 20
48.57500000000007
 30
0.0
 40
3.5
  1
機　　　能
  7
BIGFONT
100
AcDbText
  0
TEXT
  5
327E
330
2EF9
100
AcDbEntity
  8
0
100
AcDbText
 10
13.55502776698185
 20
36.57500000000001
 30
0.0
 40
3.5
  1
表 示 灯
  7
BIGFONT
100
AcDbText
  0
LINE
  5
327F
330
2EF9
100
AcDbEntity
  8
0
100
AcDbLine
 10
10.65
 20
71.27500000000008
 30
0.0
 11
10.65
 21
29.27500000000005
 31
0.0
  0
TEXT
  5
3280
330
2EF9
100
AcDbEntity
  8
0
100
AcDbText
 10
13.45502776698185
 20
72.85000000000005
 30
0.0
 40
3.5
  1
テンキー
  7
BIGFONT
100
AcDbText
  0
LINE
  5
3281
330
2EF9
100
AcDbEntity
  8
0
100
AcDbLine
 10
40.65
 20
71.27500000000003
 30
0.0
 11
40.65
 21
29.27500000000005
 31
0.0
  0
TEXT
  5
3283
330
2EF9
100
AcDbEntity
  8
0
100
AcDbText
 10
42.55502776698185
 20
36.57500000000004
 30
0.0
 40
3.5
  1
電源（赤）　OK（緑）　NG（赤点滅）　エラー音有り
 41
0.8
  7
BIGFONT
100
AcDbText
  0
TEXT
  5
3285
330
2EF9
100
AcDbEntity
  8
0
100
AcDbText
 10
42.55502776698185
 20
66.57500000000002
 30
0.0
 40
3.5
  1
樹脂フイルム式、12キー
  7
BIGFONT
100
AcDbText
  0
CIRCLE
  5
3286
330
2EF9
100
AcDbEntity
  8
0
  6
Continuous
100
AcDbCircle
 10
139.1249999999999
 20
158.275
 30
0.0
 40
2.5
  0
TEXT
  5
3287
330
2EF9
100
AcDbEntity
  8
0
100
AcDbText
 10
138.318855960559
 20
156.5268047378631
 30
0.0
 40
3.5
  1
3
  7
BIGFONT
100
AcDbText
  0
LINE
  5
3288
330
2EF9
100
AcDbEntity
  8
0
100
AcDbLine
 10
133.1249999999999
 20
179.2749999999999
 30
0.0
 11
133.1249999999999
 21
113.2750000000001
 31
0.0
  0
TEXT
  5
3289
330
2EF9
100
AcDbEntity
  8
0
100
AcDbText
 10
138.318855960559
 20
126.5268047378633
 30
0.0
 40
3.5
  1
7
  7
BIGFONT
100
AcDbText
  0
CIRCLE
  5
328A
330
2EF9
100
AcDbEntity
  8
0
  6
Continuous
100
AcDbCircle
 10
139.1249999999999
 20
128.2750000000001
 30
0.0
 40
2.5
  0
TEXT
  5
328B
330
2EF9
100
AcDbEntity
  8
0
100
AcDbText
 10
138.318855960559
 20
138.5268047378631
 30
0.0
 40
3.5
  1
5
  7
BIGFONT
100
AcDbText
  0
CIRCLE
  5
328C
330
2EF9
100
AcDbEntity
  8
0
  6
Continuous
100
AcDbCircle
 10
139.1249999999999
 20
140.275
 30
0.0
 40
2.5
  0
CIRCLE
  5
328D
330
2EF9
100
AcDbEntity
  8
0
  6
Continuous
100
AcDbCircle
 10
139.1249999999999
 20
134.2750000000001
 30
0.0
 40
2.5
  0
TEXT
  5
328E
330
2EF9
100
AcDbEntity
  8
0
100
AcDbText
 10
138.318855960559
 20
132.5268047378631
 30
0.0
 40
3.5
  1
6
  7
BIGFONT
100
AcDbText
  0
CIRCLE
  5
328F
330
2EF9
100
AcDbEntity
  8
0
  6
Continuous
100
AcDbCircle
 10
139.1249999999999
 20
152.275
 30
0.0
 40
2.5
  0
TEXT
  5
3290
330
2EF9
100
AcDbEntity
  8
0
100
AcDbText
 10
138.318855960559
 20
150.5268047378632
 30
0.0
 40
3.5
  1
4
  7
BIGFONT
100
AcDbText
  0
TEXT
  5
3291
330
2EF9
100
AcDbEntity
  8
0
100
AcDbText
 10
138.0459865979082
 20
168.5268047378631
 30
0.0
 40
3.5
  1
1
  7
BIGFONT
100
AcDbText
  0
CIRCLE
  5
3292
330
2EF9
100
AcDbEntity
  8
0
  6
Continuous
100
AcDbCircle
 10
139.1249999999999
 20
170.275
 30
0.0
 40
2.5
  0
CIRCLE
  5
3293
330
2EF9
100
AcDbEntity
  8
0
  6
Continuous
100
AcDbCircle
 10
139.1249999999999
 20
164.275
 30
0.0
 40
2.5
  0
TEXT
  5
3294
330
2EF9
100
AcDbEntity
  8
0
100
AcDbText
 10
138.318855960559
 20
162.5268047378631
 30
0.0
 40
3.5
  1
2
  7
BIGFONT
100
AcDbText
  0
TEXT
  5
3295
330
2EF9
100
AcDbEntity
  8
0
100
AcDbText
 10
147.0300277669817
 20
162.5749999999999
 30
0.0
 40
3.5
  1
電源表示ランプ（赤色）
 41
0.75
  7
BIGFONT
100
AcDbText
  0
TEXT
  5
3296
330
2EF9
100
AcDbEntity
  8
0
100
AcDbText
 10
147.0300277669817
 20
156.575
 30
0.0
 40
3.5
  1
OK表示ランプ（緑色）
 41
0.8
  7
BIGFONT
100
AcDbText
  0
TEXT
  5
3297
330
2EF9
100
AcDbEntity
  8
0
100
AcDbText
 10
42.55502776698167
 20
30.57500000000007
 30
0.0
 40
3.5
  1
DC24V　100mA以下
  7
BIGFONT
100
AcDbText
  0
TEXT
  5
3298
330
2EF9
100
AcDbEntity
  8
0
100
AcDbText
 10
13.55502776698186
 20
30.57500000000007
 30
0.0
 40
3.5
  1
定　　　格
  7
BIGFONT
100
AcDbText
  0
TEXT
  5
3299
330
2EF9
100
AcDbEntity
  8
0
100
AcDbText
 10
147.0300277669817
 20
168.5749999999999
 30
0.0
 40
3.5
  1
カバープレート
  7
BIGFONT
100
AcDbText
  0
TEXT
  5
329A
330
2EF9
100
AcDbEntity
  8
0
100
AcDbText
 10
157.0300277669816
 20
174.575
 30
0.0
 40
3.5
  1
　名　称
  7
BIGFONT
100
AcDbText
  0
TEXT
  5
329B
330
2EF9
100
AcDbEntity
  8
0
100
AcDbText
 10
147.0300277669817
 20
132.5750000000001
 30
0.0
 40
3.5
  1
YVS入力ポート
  7
BIGFONT
100
AcDbText
  0
TEXT
  5
329C
330
2EF9
100
AcDbEntity
  8
0
100
AcDbText
 10
147.0300277669817
 20
138.5750000000001
 30
0.0
 40
3.5
  1
カード検知部
  7
BIGFONT
100
AcDbText
  0
TEXT
  5
329D
330
2EF9
100
AcDbEntity
  8
0
100
AcDbText
 10
147.0300277669817
 20
126.575
 30
0.0
 40
3.5
  1
設定スイッチ1
  7
BIGFONT
100
AcDbText
  0
TEXT
  5
329E
330
2EF9
100
AcDbEntity
  8
0
100
AcDbText
 10
147.0300277669817
 20
150.075
 30
0.0
 40
3.5
  1
NG表示ランプ
  7
BIGFONT
100
AcDbText
  0
LINE
  5
329F
330
2EF9
100
AcDbEntity
  8
0
100
AcDbLine
 10
145.1249999999998
 20
179.2749999999999
 30
0.0
 11
145.1249999999998
 21
113.2750000000001
 31
0.0
  0
LINE
  5
32A0
330
2EF9
100
AcDbEntity
  8
0
100
AcDbLine
 10
125.1249999999998
 20
71.27499999999995
 30
0.0
 11
125.1249999999998
 21
29.27500000000002
 31
0.0
  0
LINE
  5
32A1
330
2EF9
100
AcDbEntity
  8
0
100
AcDbLine
 10
184.7499999999998
 20
179.2749999999999
 30
0.0
 11
184.7499999999998
 21
113.2750000000001
 31
0.0
  0
LINE
  5
32A2
330
2EF9
100
AcDbEntity
  8
0
100
AcDbLine
 10
48.79166666666662
 20
152.6249999999996
 30
0.0
 11
40.79166666666657
 21
152.6249999999996
 31
0.0
  0
LINE
  5
32A3
330
2EF9
100
AcDbEntity
  8
0
100
AcDbLine
 10
48.79166666666662
 20
147.2916666666663
 30
0.0
 11
40.79166666666657
 21
147.2916666666663
 31
0.0
  0
LINE
  5
32A4
330
2EF9
100
AcDbEntity
  8
0
100
AcDbLine
 10
40.79166666666657
 20
147.2916666666663
 30
0.0
 11
40.79166666666657
 21
152.6249999999996
 31
0.0
  0
LINE
  5
32A5
330
2EF9
100
AcDbEntity
  8
0
100
AcDbLine
 10
60.79166666666657
 20
147.2916666666663
 30
0.0
 11
60.79166666666657
 21
152.6249999999996
 31
0.0
  0
LINE
  5
32A6
330
2EF9
100
AcDbEntity
  8
0
100
AcDbLine
 10
48.79166666666657
 20
147.2916666666663
 30
0.0
 11
48.79166666666657
 21
152.6249999999996
 31
0.0
  0
LINE
  5
32A7
330
2EF9
100
AcDbEntity
  8
0
100
AcDbLine
 10
51.45833333333325
 20
147.2916666666663
 30
0.0
 11
51.45833333333325
 21
152.6249999999996
 31
0.0
  0
LINE
  5
32A8
330
2EF9
100
AcDbEntity
  8
0
100
AcDbLine
 10
60.79166666666657
 20
147.2916666666663
 30
0.0
 11
51.45833333333332
 21
147.2916666666663
 31
0.0
  0
LINE
  5
32A9
330
2EF9
100
AcDbEntity
  8
0
100
AcDbLine
 10
60.79166666666657
 20
152.6249999999996
 30
0.0
 11
51.45833333333332
 21
152.6249999999996
 31
0.0
  0
LINE
  5
32AA
330
2EF9
100
AcDbEntity
  8
0
100
AcDbLine
 10
113.4583333333333
 20
221.6249999999997
 30
0.0
 11
113.4583333333333
 21
206.958333333333
 31
0.0
  0
LINE
  5
32AB
330
2EF9
100
AcDbEntity
  8
0
100
AcDbLine
 10
118.7916666666666
 20
221.6249999999997
 30
0.0
 11
118.7916666666666
 21
206.958333333333
 31
0.0
  0
LINE
  5
32AC
330
2EF9
100
AcDbEntity
  8
0
100
AcDbLine
 10
118.7916666666666
 20
206.958333333333
 30
0.0
 11
113.4583333333333
 21
206.958333333333
 31
0.0
  0
LINE
  5
32AD
330
2EF9
100
AcDbEntity
  8
0
100
AcDbLine
 10
118.7916666666666
 20
221.6249999999997
 30
0.0
 11
113.4583333333333
 21
221.6249999999997
 31
0.0
  0
LINE
  5
32AE
330
2EF9
100
AcDbEntity
  8
0
100
AcDbLine
 10
113.4583333333333
 20
237.6249999999997
 30
0.0
 11
113.4583333333333
 21
224.2916666666664
 31
0.0
  0
LINE
  5
32AF
330
2EF9
100
AcDbEntity
  8
0
100
AcDbLine
 10
118.7916666666666
 20
237.6249999999997
 30
0.0
 11
118.7916666666666
 21
224.2916666666664
 31
0.0
  0
LINE
  5
32B0
330
2EF9
100
AcDbEntity
  8
0
100
AcDbLine
 10
118.7916666666666
 20
224.2916666666663
 30
0.0
 11
113.4583333333333
 21
224.2916666666664
 31
0.0
  0
LINE
  5
32B1
330
2EF9
100
AcDbEntity
  8
0
100
AcDbLine
 10
118.7916666666666
 20
237.6249999999997
 30
0.0
 11
113.4583333333333
 21
237.6249999999997
 31
0.0
  0
LINE
  5
32B4
330
2EF9
100
AcDbEntity
  8
0
  6
Continuous
100
AcDbLine
 10
41.90537178304873
 20
239.1861814091251
 30
0.0
 11
47.4806439082935
 21
250.3421862503759
 31
0.0
  0
CIRCLE
  5
32B5
330
2EF9
100
AcDbEntity
  8
0
  6
Continuous
100
AcDbCircle
 10
48.59824003258208
 20
252.5784731065227
 30
0.0
 40
2.5
  0
TEXT
  5
32B6
330
2EF9
100
AcDbEntity
  8
SUNPO
100
AcDbText
 10
39.29634346416617
 20
239.9252112700203
 30
0.0
 40
1.5
  1
電源
  7
BIGFONT
100
AcDbText
  0
TEXT
  5
32B7
330
2EF9
100
AcDbEntity
  8
SUNPO
100
AcDbText
 10
48.58119510644025
 20
239.9252112700203
 30
0.0
 40
1.5
  1
OK
  7
BIGFONT
100
AcDbText
  0
TEXT
  5
32B8
330
2EF9
100
AcDbEntity
  8
SUNPO
100
AcDbText
 10
57.24786177310694
 20
239.9252112700203
 30
0.0
 40
1.5
  1
NG
  7
BIGFONT
100
AcDbText
  0
TEXT
  5
32B9
330
2EF9
100
AcDbEntity
  8
SUNPO
100
AcDbText
 10
37.60852141146813
 20
198.8774585416927
 30
0.0
 40
1.5
  1
CB-K10RF
  7
BIGFONT
100
AcDbText
  0
CIRCLE
  5
32BA
330
2EF9
100
AcDbEntity
  8
0
  6
Continuous
100
AcDbCircle
 10
57.26490669924877
 20
252.5784731065227
 30
0.0
 40
2.5
  0
LINE
  5
32BB
330
2EF9
100
AcDbEntity
  8
0
  6
Continuous
100
AcDbLine
 10
50.57203844971545
 20
239.1861814091251
 30
0.0
 11
56.14731057496019
 21
250.3421862503759
 31
0.0
  0
CIRCLE
  5
32BC
330
2EF9
100
AcDbEntity
  8
0
  6
Continuous
100
AcDbCircle
 10
65.93157336591545
 20
252.5784731065227
 30
0.0
 40
2.5
  0
LINE
  5
32BD
330
2EF9
100
AcDbEntity
  8
0
  6
Continuous
100
AcDbLine
 10
59.2387051163821
 20
239.1861814091251
 30
0.0
 11
64.81397724162684
 21
250.3421862503759
 31
0.0
  0
LINE
  5
32BE
330
2EF9
100
AcDbEntity
  8
0
  6
Continuous
100
AcDbLine
 10
60.83396846226531
 20
232.3607355614077
 30
0.0
 11
80.92404983229675
 21
243.4566147274961
 31
0.0
  0
CIRCLE
  5
32BF
330
2EF9
100
AcDbEntity
  8
0
  6
Continuous
100
AcDbCircle
 10
83.1124549254061
 20
244.6652847190377
 30
0.0
 40
2.5
  0
CIRCLE
  5
32C0
330
2EF9
100
AcDbEntity
  8
0
  6
Continuous
100
AcDbCircle
 10
62.1686762546276
 20
163.4798354789048
 30
0.0
 40
2.5
  0
CIRCLE
  5
32C1
330
2EF9
100
AcDbEntity
  8
0
  6
Continuous
100
AcDbCircle
 10
51.48453491619995
 20
163.4798354789048
 30
0.0
 40
2.5
  0
LINE
  5
32C2
330
2EF9
100
AcDbEntity
  8
0
  6
Continuous
100
AcDbLine
 10
55.47580800509425
 20
150.0875437815072
 30
0.0
 11
61.05108013033902
 21
161.243548622758
 31
0.0
  0
LINE
  5
32C3
330
2EF9
100
AcDbEntity
  8
0
  6
Continuous
100
AcDbLine
 10
44.79166666666659
 20
150.0875437815072
 30
0.0
 11
50.36693879191137
 21
161.243548622758
 31
0.0
  0
LINE
  5
32C4
330
2EF9
100
AcDbEntity
  8
0
100
AcDbLine
 10
133.1249999999999
 20
125.2750000000001
 30
0.0
 11
184.7499999999998
 21
125.2750000000001
 31
0.0
  0
TEXT
  5
32C5
330
2EF9
100
AcDbEntity
  8
0
100
AcDbText
 10
147.0300277669817
 20
120.5750000000001
 30
0.0
 40
3.5
  1
設定スイッチ2
  7
BIGFONT
100
AcDbText
  0
LINE
  5
32C6
330
2EF9
100
AcDbEntity
  8
0
100
AcDbLine
 10
133.1249999999999
 20
119.2750000000001
 30
0.0
 11
184.7499999999998
 21
119.2750000000001
 31
0.0
  0
TEXT
  5
32C7
330
2EF9
100
AcDbEntity
  8
0
100
AcDbText
 10
147.0300277669817
 20
114.5750000000001
 30
0.0
 40
3.5
  1
接続コネクタ
  7
BIGFONT
100
AcDbText
  0
CIRCLE
  5
32C8
330
2EF9
100
AcDbEntity
  8
0
  6
Continuous
100
AcDbCircle
 10
139.1249999999999
 20
116.2750000000001
 30
0.0
 40
2.5
  0
TEXT
  5
32C9
330
2EF9
100
AcDbEntity
  8
0
100
AcDbText
 10
138.318855960559
 20
114.5268047378633
 30
0.0
 40
3.5
  1
9
  7
BIGFONT
100
AcDbText
  0
TEXT
  5
32CA
330
2EF9
100
AcDbEntity
  8
0
100
AcDbText
 10
47.7920959931412
 20
250.8302778443858
 30
0.0
 40
3.5
  1
2
  7
BIGFONT
100
AcDbText
  0
TEXT
  5
32CB
330
2EF9
100
AcDbEntity
  8
0
100
AcDbText
 10
56.45876265980788
 20
250.8302778443859
 30
0.0
 40
3.5
  1
3
  7
BIGFONT
100
AcDbText
  0
TEXT
  5
32CC
330
2EF9
100
AcDbEntity
  8
0
100
AcDbText
 10
65.12542932647457
 20
250.8302778443859
 30
0.0
 40
3.5
  1
4
  7
BIGFONT
100
AcDbText
  0
TEXT
  5
32CD
330
2EF9
100
AcDbEntity
  8
0
100
AcDbText
 10
82.30631088596522
 20
242.9170894569008
 30
0.0
 40
3.5
  1
5
  7
BIGFONT
100
AcDbText
  0
TEXT
  5
32D0
330
2EF9
100
AcDbEntity
  8
0
100
AcDbText
 10
50.67839087675906
 20
161.731640216768
 30
0.0
 40
3.5
  1
8
  7
BIGFONT
100
AcDbText
  0
TEXT
  5
32D1
330
2EF9
100
AcDbEntity
  8
0
100
AcDbText
 10
61.36253221518671
 20
161.731640216768
 30
0.0
 40
3.5
  1
9
  7
BIGFONT
100
AcDbText
  0
LINE
  5
32D2
330
2EF9
100
AcDbEntity
  8
0
100
AcDbLine
 10
10.65
 20
35.27500000000006
 30
0.0
 11
125.1249999999998
 21
35.27500000000004
 31
0.0
  0
LINE
  5
32D3
330
2EF9
100
AcDbEntity
  8
0
100
AcDbLine
 10
10.65
 20
113.2749999999999
 30
0.0
 11
125.1249999999998
 21
113.2749999999998
 31
0.0
  0
LINE
  5
32D4
330
2EF9
100
AcDbEntity
  8
0
100
AcDbLine
 10
40.65
 20
107.2749999999998
 30
0.0
 11
125.1249999999998
 21
107.2749999999998
 31
0.0
  0
LINE
  5
32D5
330
2EF9
100
AcDbEntity
  8
0
100
AcDbLine
 10
10.65
 20
101.2749999999999
 30
0.0
 11
125.1249999999998
 21
101.2749999999998
 31
0.0
  0
LINE
  5
32D6
330
2EF9
100
AcDbEntity
  8
0
100
AcDbLine
 10
40.65
 20
95.27499999999987
 30
0.0
 11
125.1249999999998
 21
95.27499999999987
 31
0.0
  0
LINE
  5
32D7
330
2EF9
100
AcDbEntity
  8
0
100
AcDbLine
 10
40.65
 20
89.27499999999986
 30
0.0
 11
125.1249999999998
 21
89.27499999999986
 31
0.0
  0
LINE
  5
32D8
330
2EF9
100
AcDbEntity
  8
0
100
AcDbLine
 10
40.65
 20
83.27499999999989
 30
0.0
 11
125.1249999999998
 21
83.27499999999986
 31
0.0
  0
LINE
  5
32D9
330
2EF9
100
AcDbEntity
  8
0
100
AcDbLine
 10
10.65
 20
77.27499999999992
 30
0.0
 11
125.1249999999998
 21
77.27499999999989
 31
0.0
  0
LINE
  5
32DA
330
2EF9
100
AcDbEntity
  8
0
100
AcDbLine
 10
10.65
 20
113.2749999999999
 30
0.0
 11
10.65
 21
77.27499999999992
 31
0.0
  0
LINE
  5
32DB
330
2EF9
100
AcDbEntity
  8
0
100
AcDbLine
 10
40.65
 20
113.2749999999998
 30
0.0
 11
40.65
 21
77.27499999999989
 31
0.0
  0
LINE
  5
32DC
330
2EF9
100
AcDbEntity
  8
0
100
AcDbLine
 10
125.1249999999998
 20
113.2749999999997
 30
0.0
 11
125.1249999999998
 21
77.27499999999989
 31
0.0
  0
TEXT
  5
32DD
330
2EF9
100
AcDbEntity
  8
0
100
AcDbText
 10
147.0300277669817
 20
145.075
 30
0.0
 40
3.5
  1
（赤色・入退室管理のみ）
 41
0.7
  7
BIGFONT
100
AcDbText
  0
TEXT
  5
32DE
330
2EF9
100
AcDbEntity
  8
0
100
AcDbText
 10
13.45502776698185
 20
114.8499999999998
 30
0.0
 40
3.5
  1
非接触カードリーダ
  7
BIGFONT
100
AcDbText
  0
TEXT
  5
32DF
330
2EF9
100
AcDbEntity
  8
0
100
AcDbText
 10
13.45502776698185
 20
108.8499999999998
 30
0.0
 40
3.5
  1
仕　　　様
  7
BIGFONT
100
AcDbText
  0
TEXT
  5
32E0
330
2EF9
100
AcDbEntity
  8
0
100
AcDbText
 10
13.55502776698185
 20
96.57499999999991
 30
0.0
 40
3.5
  1
動作環境条件
  7
BIGFONT
100
AcDbText
  0
TEXT
  5
32E1
330
2EF9
100
AcDbEntity
  8
0
100
AcDbText
 10
42.55502776698185
 20
96.57499999999991
 30
0.0
 40
3.5
  1
温度　-10～+50℃（動作温度）
  7
BIGFONT
100
AcDbText
  0
TEXT
  5
32E2
330
2EF9
100
AcDbEntity
  8
0
100
AcDbText
 10
42.55502776698185
 20
90.57499999999988
 30
0.0
 40
3.5
  1
　　　　-35～+50℃（保存温度）
  7
BIGFONT
100
AcDbText
  0
TEXT
  5
32E3
330
2EF9
100
AcDbEntity
  8
0
100
AcDbText
 10
42.55502776698185
 20
108.5749999999998
 30
0.0
 40
3.5
  1
電磁誘導方式、ﾊﾞｯﾃﾘﾚｽ、ﾒﾓﾘ容量 ID10桁（80ﾋﾞｯﾄ）
 41
0.75
  7
BIGFONT
100
AcDbText
  0
TEXT
  5
32E4
330
2EF9
100
AcDbEntity
  8
0
100
AcDbText
 10
42.55502776698185
 20
102.5749999999998
 30
0.0
 40
3.5
  1
ﾘｰﾄﾞｵﾝﾘｰ  塩化ﾋﾞﾆｰﾙ樹脂製
  7
BIGFONT
100
AcDbText
  0
TEXT
  5
32E5
330
2EF9
100
AcDbEntity
  8
0
100
AcDbText
 10
42.55502776698185
 20
84.57499999999987
 30
0.0
 40
3.5
  1
※非接触識別部分は保存温度にて動作可能
 41
0.85
  7
BIGFONT
100
AcDbText
  0
TEXT
  5
32E6
330
2EF9
100
AcDbEntity
  8
0
100
AcDbText
 10
42.55502776698185
 20
78.57499999999991
 30
0.0
 40
3.5
  1
湿気　5～95％相対温度
  7
BIGFONT
100
AcDbText
  0
LINE
  5
32E8
330
2EF9
100
AcDbEntity
  8
0
100
AcDbLine
 10
184.7499999999998
 20
107.2750000000002
 30
0.0
 11
184.7499999999998
 21
29.27500000000046
 31
0.0
  0
TEXT
  5
3300
330
2EF9
100
AcDbEntity
  8
0
100
AcDbText
 10
40.30709381988759
 20
229.1127625593314
 30
0.0
 40
4.0
  1
1
  7
BIGFONT
100
AcDbText
  0
TEXT
  5
3301
330
2EF9
100
AcDbEntity
  8
0
100
AcDbText
 10
49.24662984920513
 20
229.1127625593314
 30
0.0
 40
4.0
  1
2
  7
BIGFONT
100
AcDbText
  0
TEXT
  5
3302
330
2EF9
100
AcDbEntity
  8
0
100
AcDbText
 10
57.91329651587182
 20
229.1127625593315
 30
0.0
 40
4.0
  1
3
  7
BIGFONT
100
AcDbText
  0
TEXT
  5
3303
330
2EF9
100
AcDbEntity
  8
0
100
AcDbText
 10
40.57996318253844
 20
220.4460958926648
 30
0.0
 40
4.0
  1
4
  7
BIGFONT
100
AcDbText
  0
TEXT
  5
3304
330
2EF9
100
AcDbEntity
  8
0
100
AcDbText
 10
49.24662984920513
 20
220.4460958926648
 30
0.0
 40
4.0
  1
5
  7
BIGFONT
100
AcDbText
  0
TEXT
  5
3305
330
2EF9
100
AcDbEntity
  8
0
100
AcDbText
 10
57.91329651587182
 20
220.4460958926648
 30
0.0
 40
4.0
  1
6
  7
BIGFONT
100
AcDbText
  0
TEXT
  5
3306
330
2EF9
100
AcDbEntity
  8
0
100
AcDbText
 10
57.91329651587176
 20
211.7794292259982
 30
0.0
 40
4.0
  1
9
  7
BIGFONT
100
AcDbText
  0
TEXT
  5
3307
330
2EF9
100
AcDbEntity
  8
0
100
AcDbText
 10
49.24662984920513
 20
211.7794292259982
 30
0.0
 40
4.0
  1
8
  7
BIGFONT
100
AcDbText
  0
TEXT
  5
3308
330
2EF9
100
AcDbEntity
  8
0
100
AcDbText
 10
40.57996318253842
 20
211.7794292259982
 30
0.0
 40
4.0
  1
7
  7
BIGFONT
100
AcDbText
  0
TEXT
  5
3309
330
2EF9
100
AcDbEntity
  8
0
100
AcDbText
 10
40.57996318253844
 20
203.1127625593315
 30
0.0
 40
4.0
  1
R
  7
BIGFONT
100
AcDbText
  0
TEXT
  5
330A
330
2EF9
100
AcDbEntity
  8
0
100
AcDbText
 10
49.24662984920513
 20
203.1127625593315
 30
0.0
 40
4.0
  1
0
  7
BIGFONT
100
AcDbText
  0
TEXT
  5
330B
330
2EF9
100
AcDbEntity
  8
0
100
AcDbText
 10
57.91329651587179
 20
203.1127625593315
 30
0.0
 40
4.0
  1
C
  7
BIGFONT
100
AcDbText
  0
LINE
  5
3317
330
2EF9
100
AcDbEntity
  8
0
100
AcDbLine
 10
4.199999999999965
 20
16.27499999999997
 30
0.0
 11
189.4249999999999
 21
16.27499999999997
 31
0.0
  0
LINE
  5
3318
330
2EF9
100
AcDbEntity
  8
0
100
AcDbLine
 10
4.974999999999971
 20
24.27499999999998
 30
0.0
 11
189.4249999999999
 21
24.27499999999998
 31
0.0
  0
LINE
  5
3319
330
2EF9
100
AcDbEntity
  8
0
100
AcDbLine
 10
104.4749999999998
 20
24.27499999999998
 30
0.0
 11
104.4749999999998
 21
8.274999999999977
 31
0.0
  0
LINE
  5
331A
330
2EF9
100
AcDbEntity
  8
0
100
AcDbLine
 10
94.44999999999996
 20
24.27499999999998
 30
0.0
 11
94.44999999999996
 21
8.274999999999977
 31
0.0
  0
LINE
  5
331B
330
2EF9
100
AcDbEntity
  8
0
100
AcDbLine
 10
14.82499999999996
 20
24.27499999999998
 30
0.0
 11
14.82499999999996
 21
8.274999999999977
 31
0.0
  0
INSERT
  5
331C
330
2EF9
100
AcDbEntity
  8
0
  6
Continuous
100
AcDbBlockReference
  2
waku
 10
0.0499999999999599
 20
0.0
 30
0.0
  0
LINE
  5
331D
330
2EF9
100
AcDbEntity
  8
0
100
AcDbLine
 10
4.199999999999965
 20
24.27499999999998
 30
0.0
 11
189.4249999999999
 21
24.27499999999998
 31
0.0
  0
TEXT
  5
331E
330
2EF9
100
AcDbEntity
  8
0
100
AcDbText
 10
31.82499999999997
 20
18.74999999999997
 30
0.0
 40
3.674999999999998
  1
単位 mm
  7
BIGFONT
100
AcDbText
  0
TEXT
  5
331F
330
2EF9
100
AcDbEntity
  8
0
100
AcDbText
 10
46.09999999999994
 20
18.74999999999997
 30
0.0
 40
3.674999999999998
  1
　
  7
BIGFONT
100
AcDbText
  0
TEXT
  5
3320
330
2EF9
100
AcDbEntity
  8
0
100
AcDbText
 10
114.6249999999999
 20
9.474999999999965
 30
0.0
 40
3.524999999999999
  1
　
  7
BIGFONT
100
AcDbText
  0
TEXT
  5
3321
330
2EF9
100
AcDbEntity
  8
0
100
AcDbText
 10
121.425
 20
10.47499999999996
 30
0.0
 40
3.674999999999999
  1
　日本電子工業株式会社
  7
BIGFONT
100
AcDbText
  0
LINE
  5
3322
330
2EF9
100
AcDbEntity
  8
0
100
AcDbLine
 10
4.199999999999965
 20
270.025
 30
0.0
 11
189.4249999999999
 21
270.025
 31
0.0
  0
TEXT
  5
3323
330
2EF9
100
AcDbEntity
  8
0
100
AcDbText
 10
31.82499999999997
 20
10.47499999999996
 30
0.0
 40
3.674999999999998
  1
尺度　　　２／３
  7
BIGFONT
100
AcDbText
  0
LINE
  5
3324
330
2EF9
100
AcDbEntity
  8
0
100
AcDbLine
 10
159.4999999999998
 20
24.27499999999998
 30
0.0
 11
159.4999999999998
 21
16.27499999999997
 31
0.0
  0
LINE
  5
3325
330
2EF9
100
AcDbEntity
  8
0
100
AcDbLine
 10
144.4749999999999
 20
24.27499999999998
 30
0.0
 11
144.4749999999999
 21
16.27499999999997
 31
0.0
  0
TEXT
  5
3327
330
2EF9
100
AcDbEntity
  8
0
100
AcDbText
 10
147.0324564216774
 20
18.74999999999997
 30
0.0
 40
3.674999999999998
  1
図番
  7
BIGFONT
100
AcDbText
  0
TEXT
  5
343D
330
2EF9
100
AcDbEntity
  8
0
100
AcDbText
 10
163.3467056960535
 20
18.74999999999997
 30
0.0
 40
3.674999999999998
  1
RF-002
  7
BIGFONT
100
AcDbText
  0
TEXT
  5
3445
330
2EF9
100
AcDbEntity
  8
0
100
AcDbText
 10
42.55502776698185
 20
48.57500000000002
 30
0.0
 40
3.5
  1
マイコン通信型マルチドロップ配線
  7
BIGFONT
100
AcDbText
  0
TEXT
  5
3446
330
2EF9
100
AcDbEntity
  8
0
100
AcDbText
 10
42.55502776698185
 20
42.57500000000005
 30
0.0
 40
3.5
  1
RS485　準拠
  7
BIGFONT
100
AcDbText
  0
LINE
  5
366E
330
2EF9
100
AcDbEntity
  8
0
100
AcDbLine
 10
131.1249999999998
 20
107.2749999999997
 30
0.0
 11
131.1249999999998
 21
29.27500000000046
 31
0.0
  0
LINE
  5
3670
330
2EF9
100
AcDbEntity
  8
0
100
AcDbLine
 10
131.1249999999998
 20
107.2750000000002
 30
0.0
 11
184.7499999999998
 21
107.2750000000002
 31
0.0
  0
LINE
  5
3671
330
2EF9
100
AcDbEntity
  8
0
100
AcDbLine
 10
131.1249999999998
 20
29.27500000000046
 30
0.0
 11
184.7499999999998
 21
29.27500000000046
 31
0.0
  0
LINE
  5
3672
330
2EF9
100
AcDbEntity
  8
0
  6
Continuous
100
AcDbLine
 10
145.4374999999998
 20
85.56001230676338
 30
0.0
 11
145.4374999999998
 21
40.56001230676341
 31
0.0
  0
LINE
  5
3673
330
2EF9
100
AcDbEntity
  8
0
  6
Continuous
100
AcDbLine
 10
170.4374999999998
 20
40.56001230676341
 30
0.0
 11
170.4374999999998
 21
85.56001230676338
 31
0.0
  0
LINE
  5
3674
330
2EF9
100
AcDbEntity
  8
0
  6
Continuous
100
AcDbLine
 10
145.4374999999998
 20
40.56001230676341
 30
0.0
 11
170.4374999999998
 21
40.56001230676341
 31
0.0
  0
ARC
  5
3675
330
2EF9
100
AcDbEntity
  8
0
  6
Continuous
100
AcDbCircle
 10
157.9374999999998
 20
42.1850123067634
 30
0.0
 40
1.625
100
AcDbArc
 50
0.0
 51
180.0
  0
CIRCLE
  5
3676
330
2EF9
100
AcDbEntity
  8
0
  6
Continuous
100
AcDbCircle
 10
157.9374999999998
 20
42.1850123067634
 30
0.0
 40
0.75
  0
LINE
  5
3677
330
2EF9
100
AcDbEntity
  8
0
  6
Continuous
100
AcDbLine
 10
156.3124999999998
 20
42.1850123067634
 30
0.0
 11
156.3124999999998
 21
40.56001230676341
 31
0.0
  0
LINE
  5
3678
330
2EF9
100
AcDbEntity
  8
0
  6
Continuous
100
AcDbLine
 10
159.5624999999998
 20
42.1850123067634
 30
0.0
 11
159.5624999999998
 21
40.56001230676341
 31
0.0
  0
LINE
  5
3679
330
2EF9
100
AcDbEntity
  8
0
  6
Continuous
100
AcDbLine
 10
170.4374999999998
 20
85.56001230676338
 30
0.0
 11
145.4374999999998
 21
85.56001230676338
 31
0.0
  0
CIRCLE
  5
367A
330
2EF9
100
AcDbEntity
  8
0
  6
Continuous
100
AcDbCircle
 10
157.9374999999998
 20
83.9350123067634
 30
0.0
 40
0.75
  0
ARC
  5
367B
330
2EF9
100
AcDbEntity
  8
0
  6
Continuous
100
AcDbCircle
 10
157.9374999999998
 20
83.9350123067634
 30
0.0
 40
1.625
100
AcDbArc
 50
180.0
 51
0.0
  0
LINE
  5
367C
330
2EF9
100
AcDbEntity
  8
0
  6
Continuous
100
AcDbLine
 10
156.3124999999998
 20
83.9350123067634
 30
0.0
 11
156.3124999999998
 21
85.56001230676338
 31
0.0
  0
LINE
  5
367D
330
2EF9
100
AcDbEntity
  8
0
  6
Continuous
100
AcDbLine
 10
159.5624999999998
 20
83.9350123067634
 30
0.0
 11
159.5624999999998
 21
85.56001230676338
 31
0.0
  0
DIMENSION
  5
367E
330
2EF9
100
AcDbEntity
  8
0
  6
Continuous
100
AcDbDimension
  2
*D11
 10
177.40523313276
 20
85.56001230676338
 30
0.0
 11
174.6552331327599
 21
63.06001230676343
 31
0.0
 70
    32
  1
90
 71
     5
 42
44.99999999999998
  3
STANDARD
100
AcDbAlignedDimension
 13
170.4374999999998
 23
40.56001230676341
 33
0.0
 14
170.4374999999998
 24
85.56001230676338
 34
0.0
 50
90.0
100
AcDbRotatedDimension
  0
DIMENSION
  5
367F
330
2EF9
100
AcDbEntity
  8
0
  6
Continuous
100
AcDbDimension
  2
*D12
 10
166.8324460783192
 20
83.9350123067634
 30
0.0
 11
164.0824460783191
 21
63.06001230676343
 31
0.0
 70
    32
  1
83.5
 71
     5
 42
41.74999999999999
  3
STANDARD
100
AcDbAlignedDimension
 13
157.9374999999998
 23
42.1850123067634
 33
0.0
 14
157.9374999999998
 24
83.9350123067634
 34
0.0
 50
90.0
100
AcDbRotatedDimension
  0
DIMENSION
  5
3680
330
2EF9
100
AcDbEntity
  8
0
  6
Continuous
100
AcDbDimension
  2
*D13
 10
170.4374999999998
 20
35.73362163046045
 30
0.0
 11
157.9374999999998
 21
38.48362163046046
 31
0.0
 70
    32
  1
50
 71
     5
 42
25.0
  3
STANDARD
100
AcDbAlignedDimension
 13
145.4374999999998
 23
40.56001230676341
 33
0.0
 14
170.4374999999998
 24
40.56001230676341
 34
0.0
100
AcDbRotatedDimension
  0
TEXT
  5
3681
330
2EF9
100
AcDbEntity
  8
0
100
AcDbText
 10
132.7541119033489
 20
101.8622351105829
 30
0.0
 40
3.5
  1
機器取付用開口部寸法
  7
BIGFONT
100
AcDbText
  0
TEXT
  5
3682
330
2EF9
100
AcDbEntity
  8
0
100
AcDbText
 10
149.5771966880626
 20
96.9695949051513
 30
0.0
 40
3.0
  1
1個用深型ｽｲｯﾁﾎﾞｯｸｽ
 41
0.8
  7
BIGFONT
100
AcDbText
  0
TEXT
  5
3683
330
2EF9
100
AcDbEntity
  8
0
100
AcDbText
 10
149.5771966880626
 20
93.10666351017838
 30
0.0
 40
3.0
  1
JIS C8336
 41
0.8
  7
BIGFONT
100
AcDbText
  0
TEXT
  5
3684
330
2EF9
100
AcDbEntity
  8
0
100
AcDbText
 10
134.1364174296007
 20
52.23292960030283
 30
0.0
 40
3.0
  1
M4
  7
BIGFONT
100
AcDbText
  0
TEXT
  5
3685
330
2EF9
100
AcDbEntity
  8
0
100
AcDbText
 10
149.5771966880626
 20
88.9793709122163
 30
0.0
 40
3.0
  1
DS4911（松下電工）
 41
0.8
  7
BIGFONT
100
AcDbText
  0
TEXT
  5
3686
330
2EF9
100
AcDbEntity
  8
0
100
AcDbText
 10
146.6938524331871
 20
30.75767512498207
 30
0.0
 40
3.0
  1
(尺度　１／2)
  7
BIGFONT
100
AcDbText
  0
POLYLINE
  5
3687
330
2EF9
100
AcDbEntity
  8
0
100
AcDb3dPolyline
 66
     1
 10
0.0
 20
0.0
 30
0.0
 70
     8
  0
VERTEX
  5
3688
330
3687
100
AcDbEntity
  8
0
100
AcDbVertex
100
AcDb3dPolylineVertex
 10
156.312
 20
83.93500000000001
 30
0.0
 70
    32
  0
VERTEX
  5
3689
330
3687
100
AcDbEntity
  8
0
100
AcDbVertex
100
AcDb3dPolylineVertex
 10
135.737
 20
97.18200000000003
 30
0.0
 70
    32
  0
VERTEX
  5
368A
330
3687
100
AcDbEntity
  8
0
100
AcDbVertex
100
AcDb3dPolylineVertex
 10
148.087
 20
97.18200000000003
 30
0.0
 70
    32
  0
SEQEND
  5
368B
330
3687
100
AcDbEntity
  8
0
  0
POLYLINE
  5
368C
330
2EF9
100
AcDbEntity
  8
0
100
AcDb3dPolyline
 66
     1
 10
0.0
 20
0.0
 30
0.0
 70
     8
  0
VERTEX
  5
368D
330
368C
100
AcDbEntity
  8
0
100
AcDbVertex
100
AcDb3dPolylineVertex
 10
156.312
 20
42.185
 30
0.0
 70
    32
  0
VERTEX
  5
368E
330
368C
100
AcDbEntity
  8
0
100
AcDbVertex
100
AcDb3dPolylineVertex
 10
143.969
 20
53.62049999999999
 30
0.0
 70
    32
  0
VERTEX
  5
368F
330
368C
100
AcDbEntity
  8
0
100
AcDbVertex
100
AcDb3dPolylineVertex
 10
140.956
 20
53.62049999999999
 30
0.0
 70
    32
  0
SEQEND
  5
3690
330
368C
100
AcDbEntity
  8
0
  0
LINE
  5
3700
330
2EF9
100
AcDbEntity
  8
0
  6
Continuous
100
AcDbLine
 10
116.1249999999999
 20
230.958333333333
 30
0.0
 11
150.3663216134886
 21
248.8652795463791
 31
0.0
  0
CIRCLE
  5
3701
330
2EF9
100
AcDbEntity
  8
0
  6
Continuous
100
AcDbCircle
 10
152.5816707384657
 20
250.0238252962152
 30
0.0
 40
2.5
  0
DIMENSION
  5
3702
330
2EF9
100
AcDbEntity
  8
0
100
AcDbDimension
  2
*D14
 10
159.6489675651676
 20
241.6249999999997
 30
0.0
 11
156.8989675651675
 21
218.6249999999997
 31
0.0
 70
    32
  1
69
 71
     5
 42
46.0
  3
STANDARD
100
AcDbAlignedDimension
 13
121.4583333333333
 23
195.6249999999997
 33
0.0
 14
121.4583333333333
 24
241.6249999999997
 34
0.0
 50
90.0
100
AcDbRotatedDimension
1001
ACAD
1000
DSTYLE
1002
{
1070
   271
1070
     0
1002
}
  0
LINE
  5
3703
330
2EF9
100
AcDbEntity
  8
0
  6
Continuous
100
AcDbLine
 10
116.1249999999999
 20
217.6894873090097
 30
0.0
 11
150.3663216134886
 21
235.5964335220559
 31
0.0
  0
CIRCLE
  5
3704
330
2EF9
100
AcDbEntity
  8
0
  6
Continuous
100
AcDbCircle
 10
152.5816707384657
 20
236.754979271892
 30
0.0
 40
2.5
  0
TEXT
  5
3705
330
2EF9
100
AcDbEntity
  8
0
100
AcDbText
 10
151.7755266990248
 20
248.2756300340783
 30
0.0
 40
3.5
  1
6
  7
BIGFONT
100
AcDbText
  0
TEXT
  5
3706
330
2EF9
100
AcDbEntity
  8
0
100
AcDbText
 10
151.7755266990248
 20
235.0067840097552
 30
0.0
 40
3.5
  1
7
  7
BIGFONT
100
AcDbText
  0
TEXT
  5
3707
330
2EF9
100
AcDbEntity
  8
0
100
AcDbText
 10
124.4896220628243
 20
262.6111246404971
 30
0.0
 40
3.0
  1
4×4用アウトレットBOX深型対応
  7
BIGFONT
100
AcDbText
  0
POLYLINE
  5
3708
330
2EF9
100
AcDbEntity
  8
0
100
AcDb3dPolyline
 66
     1
 10
0.0
 20
0.0
 30
0.0
 70
     8
  0
VERTEX
  5
3709
330
3708
100
AcDbEntity
  8
0
100
AcDbVertex
100
AcDb3dPolylineVertex
 10
129.1665384113688
 20
254.6249993198594
 30
0.0
 70
    32
  0
VERTEX
  5
370A
330
3708
100
AcDbEntity
  8
0
100
AcDbVertex
100
AcDb3dPolylineVertex
 10
124.8083788744574
 20
261.2206449255384
 30
0.0
 70
    32
  0
VERTEX
  5
370B
330
3708
100
AcDbEntity
  8
0
100
AcDbVertex
100
AcDb3dPolylineVertex
 10
182.9219740773458
 20
261.2206449255384
 30
0.0
 70
    32
  0
SEQEND
  5
370C
330
3708
100
AcDbEntity
  8
0
  0
TEXT
  5
370D
330
2EF9
100
AcDbEntity
  8
0
100
AcDbText
 10
133.5831963174048
 20
256.8222208987192
 30
0.0
 40
3.0
  1
(1ヶ用塗りしろ)
  7
BIGFONT
100
AcDbText
  0
LINE
  5
370E
330
2EF9
100
AcDbEntity
  8
0
  6
DASHED
100
AcDbLine
 10
106.4583333333333
 20
254.6249993198602
 30
0.0
 11
139.1250000000002
 21
254.6249993198586
 31
0.0
  0
LINE
  5
370F
330
2EF9
100
AcDbEntity
  8
0
  6
DASHED
100
AcDbLine
 10
106.4583333333333
 20
182.6249993198602
 30
0.0
 11
139.1249999999997
 21
182.6249993198586
 31
0.0
  0
LINE
  5
3710
330
2EF9
100
AcDbEntity
  8
0
  6
DASHED
100
AcDbLine
 10
142.4583333333333
 20
251.2916659865253
 30
0.0
 11
142.4583333333333
 21
185.9583326531919
 31
0.0
  0
ARC
  5
3711
330
2EF9
100
AcDbEntity
  8
0
  6
DASHED
100
AcDbCircle
 10
139.125
 20
185.9583326531919
 30
0.0
 40
3.333333333333333
100
AcDbArc
 50
269.9999999999951
 51
0.0
  0
ARC
  5
3712
330
2EF9
100
AcDbEntity
  8
0
  6
DASHED
100
AcDbCircle
 10
139.125
 20
251.2916659865253
 30
0.0
 40
3.333333333333333
100
AcDbArc
 50
0.0
 51
89.99999999999674
  0
LINE
  5
3713
330
2EF9
100
AcDbEntity
  8
0
  6
DASHED
 48
1.5
100
AcDbLine
 10
103.1250000475115
 20
250.6250000950228
 30
0.0
 11
99.79166661915511
 21
250.6249999999997
 31
0.0
  0
ARC
  5
3714
330
2EF9
100
AcDbEntity
  8
0
  6
DASHED
 48
1.5
100
AcDbCircle
 10
99.79166666666666
 20
248.9583333333331
 30
0.0
 40
1.666666666666666
100
AcDbArc
 50
90.00000163332769
 51
180.0
  0
LINE
  5
3715
330
2EF9
100
AcDbEntity
  8
0
  6
DASHED
 48
1.5
100
AcDbLine
 10
99.79166671417823
 20
186.6249999999997
 30
0.0
 11
103.1249999524884
 21
186.6250000950228
 31
0.0
  0
ARC
  5
3716
330
2EF9
100
AcDbEntity
  8
0
  6
DASHED
 48
1.5
100
AcDbCircle
 10
99.79166666666666
 20
188.2916666666664
 30
0.0
 40
1.666666666666666
100
AcDbArc
 50
180.0
 51
270.0000016333277
  0
LINE
  5
3717
330
2EF9
100
AcDbEntity
  8
0
  6
DASHED
100
AcDbLine
 10
106.4583333333333
 20
255.2916666666664
 30
0.0
 11
106.4583333333333
 21
181.958333333333
 31
0.0
  0
ARC
  5
3718
330
2EF9
100
AcDbEntity
  8
0
  6
DASHED
100
AcDbCircle
 10
103.125
 20
184.9583334283562
 30
0.0
 40
1.666666666666666
100
AcDbArc
 50
0.0
 51
90.00000163332769
  0
ARC
  5
3719
330
2EF9
100
AcDbEntity
  8
0
  6
DASHED
100
AcDbCircle
 10
103.125
 20
252.2916667616895
 30
0.0
 40
1.666666666666666
100
AcDbArc
 50
270.0000016333277
 51
0.0
  0
LINE
  5
371A
330
2EF9
100
AcDbEntity
  8
0
  6
DASHED
100
AcDbLine
 10
98.125
 20
248.9583333333331
 30
0.0
 11
98.125
 21
188.2916666666664
 31
0.0
  0
LINE
  5
371B
330
2EF9
100
AcDbEntity
  8
0
  6
Continuous
100
AcDbLine
 10
104.7916666666666
 20
255.2916666666664
 30
0.0
 11
106.4583333333333
 21
255.2916666666663
 31
0.0
  0
LINE
  5
371C
330
2EF9
100
AcDbEntity
  8
0
  6
Continuous
100
AcDbLine
 10
104.7916666666666
 20
181.958333333333
 30
0.0
 11
106.4583333333333
 21
181.958333333333
 31
0.0
  0
LINE
  5
371D
330
2EF9
100
AcDbEntity
  8
0
  6
DASHED
100
AcDbLine
 10
104.7916666666666
 20
255.2916666666664
 30
0.0
 11
104.7916666666666
 21
181.958333333333
 31
0.0
  0
HATCH
  5
37F2
330
2EF9
100
AcDbEntity
  8
0
  6
Continuous
100
AcDbHatch
 10
0.0
 20
0.0
 30
0.0
210
0.0
220
0.0
230
1.0
  2
SOLID
 70
     1
 71
     0
 91
        1
 92
        7
 72
     0
 73
     1
 93
        8
 10
117.6253710061619
 20
9.981736790489151
 10
121.253496006162
 20
10.88173679048924
 10
122.5753710061618
 20
13.21611179048915
 10
119.8191210061617
 20
13.58173679048906
 10
119.847246006162
 20
13.24423679048919
 10
122.097246006162
 20
12.96298679048919
 10
120.9159960061618
 20
11.10673679048915
 10
117.6253710061619
 20
10.3754867904891
 97
        1
330
37F3
 75
     0
 76
     1
 47
0.651316
 98
        1
 10
75.04412100616187
 20
-161.1026382095108
  0
LWPOLYLINE
  5
37F3
330
2EF9
100
AcDbEntity
  8
0
  6
Continuous
100
AcDbPolyline
 90
        8
 70
     0
 43
0.1
 10
117.6253710061619
 20
9.981736790489151
 10
121.253496006162
 20
10.88173679048924
 10
122.5753710061618
 20
13.21611179048915
 10
119.8191210061617
 20
13.58173679048906
 10
119.847246006162
 20
13.24423679048919
 10
122.097246006162
 20
12.96298679048919
 10
120.9159960061618
 20
11.10673679048915
 10
117.6253710061619
 20
10.3754867904891
  0
HATCH
  5
37F4
330
2EF9
100
AcDbEntity
  8
0
  6
Continuous
100
AcDbHatch
 10
0.0
 20
0.0
 30
0.0
210
0.0
220
0.0
230
1.0
  2
SOLID
 70
     1
 71
     0
 91
        1
 92
        7
 72
     0
 73
     1
 93
       13
 10
117.175371006162
 20
13.8911117904891
 10
117.175371006162
 20
11.24736179048915
 10
118.6659960061618
 20
11.24736179048915
 10
118.6659960061618
 20
11.72548679048924
 10
117.6816210061618
 20
11.72548679048924
 10
117.6816210061618
 20
12.28798679048924
 10
118.6659960061618
 20
12.28798679048924
 10
118.6659960061618
 20
12.85048679048924
 10
117.6816210061618
 20
12.85048679048924
 10
117.6816210061618
 20
13.38486179048919
 10
118.6659960061618
 20
13.38486179048919
 10
118.6659960061618
 20
13.8911117904891
 10
117.1472460061617
 20
13.8911117904891
 97
        1
330
37F5
 75
     0
 76
     1
 47
0.651316
 98
        1
 10
75.04412100616187
 20
-161.1026382095108
  0
LWPOLYLINE
  5
37F5
330
2EF9
100
AcDbEntity
  8
0
  6
Continuous
100
AcDbPolyline
 90
       13
 70
     0
 43
0.1
 10
117.175371006162
 20
13.8911117904891
 10
117.175371006162
 20
11.24736179048915
 10
118.6659960061618
 20
11.24736179048915
 10
118.6659960061618
 20
11.72548679048924
 10
117.6816210061618
 20
11.72548679048924
 10
117.6816210061618
 20
12.28798679048924
 10
118.6659960061618
 20
12.28798679048924
 10
118.6659960061618
 20
12.85048679048924
 10
117.6816210061618
 20
12.85048679048924
 10
117.6816210061618
 20
13.38486179048919
 10
118.6659960061618
 20
13.38486179048919
 10
118.6659960061618
 20
13.8911117904891
 10
117.1472460061617
 20
13.8911117904891
  0
HATCH
  5
37F6
330
2EF9
100
AcDbEntity
  8
0
  6
Continuous
100
AcDbHatch
 10
0.0
 20
0.0
 30
0.0
210
0.0
220
0.0
230
1.0
  2
SOLID
 70
     1
 71
     0
 91
        1
 92
        7
 72
     0
 73
     1
 93
        8
 10
117.6253710061619
 20
9.981736790489151
 10
113.9972460061619
 20
10.88173679048924
 10
112.6472460061617
 20
13.21611179048915
 10
115.4034960061618
 20
13.58173679048906
 10
115.4034960061618
 20
13.24423679048919
 10
113.1534960061618
 20
12.96298679048919
 10
114.3347460061617
 20
11.10673679048915
 10
117.6253710061619
 20
10.3754867904891
 97
        1
330
37F7
 75
     0
 76
     1
 47
0.651316
 98
        1
 10
75.04412100616187
 20
-161.1026382095108
  0
LWPOLYLINE
  5
37F7
330
2EF9
100
AcDbEntity
  8
0
  6
Continuous
100
AcDbPolyline
 90
        8
 70
     0
 43
0.1
 10
117.6253710061619
 20
9.981736790489151
 10
113.9972460061619
 20
10.88173679048924
 10
112.6472460061617
 20
13.21611179048915
 10
115.4034960061618
 20
13.58173679048906
 10
115.4034960061618
 20
13.24423679048919
 10
113.1534960061618
 20
12.96298679048919
 10
114.3347460061617
 20
11.10673679048915
 10
117.6253710061619
 20
10.3754867904891
  0
HATCH
  5
37F8
330
2EF9
100
AcDbEntity
  8
0
  6
Continuous
100
AcDbHatch
 10
0.0
 20
0.0
 30
0.0
210
0.0
220
0.0
230
1.0
  2
SOLID
 70
     1
 71
     0
 91
        1
 92
        7
 72
     0
 73
     1
 93
       47
 10
115.5441210061618
 20
13.8911117904891
 10
116.753496006162
 20
13.8911117904891
 10
116.753496006162
 20
11.86611179048924
 10
116.753496006162
 20
11.75361179048906
 10
116.7253710061617
 20
11.66923679048915
 10
116.6691210061618
 20
11.58486179048924
 10
116.6409960061619
 20
11.47236179048906
 10
116.5847460061617
 20
11.41611179048919
 10
116.5003710061619
 20
11.33173679048906
 10
116.4159960061618
 20
11.27548679048919
 10
116.3034960061617
 20
11.24736179048915
 10
116.2191210061619
 20
11.2192367904891
 10
116.1066210061618
 20
11.2192367904891
 10
115.9941210061618
 20
11.2192367904891
 10
115.8816210061617
 20
11.24736179048915
 10
115.7972460061619
 20
11.27548679048919
 10
115.7128710061618
 20
11.33173679048906
 10
115.628496006162
 20
11.41611179048919
 10
115.5722460061618
 20
11.47236179048906
 10
115.5159960061619
 20
11.58486179048924
 10
115.487871006162
 20
11.66923679048915
 10
115.4597460061617
 20
11.75361179048906
 10
115.4316210061618
 20
11.86611179048924
 10
115.4316210061618
 20
12.09111179048915
 10
115.6847460061618
 20
11.9223617904891
 10
115.7128710061618
 20
11.89423679048906
 10
115.7128710061618
 20
11.86611179048924
 10
115.7128710061618
 20
11.83798679048919
 10
115.7409960061617
 20
11.80986179048915
 10
115.769121006162
 20
11.7817367904891
 10
115.7972460061619
 20
11.75361179048906
 10
115.8253710061619
 20
11.72548679048924
 10
115.8816210061617
 20
11.6973617904892
 10
115.9378710061619
 20
11.6973617904892
 10
115.9941210061618
 20
11.6973617904892
 10
116.050371006162
 20
11.6973617904892
 10
116.0784960061619
 20
11.6973617904892
 10
116.1347460061618
 20
11.72548679048924
 10
116.1628710061617
 20
11.75361179048906
 10
116.2191210061619
 20
11.7817367904891
 10
116.2472460061618
 20
11.7817367904891
 10
116.2472460061618
 20
11.80986179048915
 10
116.2753710061618
 20
11.83798679048919
 10
116.3034960061617
 20
11.89423679048906
 10
116.3034960061617
 20
11.9223617904891
 10
116.3034960061617
 20
13.6098617904891
 10
115.5441210061618
 20
13.6098617904891
 97
        1
330
37F9
 75
     0
 76
     1
 47
0.651316
 98
        1
 10
75.04412100616187
 20
-161.1026382095108
  0
LWPOLYLINE
  5
37F9
330
2EF9
100
AcDbEntity
  8
0
  6
Continuous
100
AcDbPolyline
 90
       47
 70
     1
 43
0.1
 10
115.5441210061618
 20
13.8911117904891
 10
116.753496006162
 20
13.8911117904891
 10
116.753496006162
 20
11.86611179048924
 10
116.753496006162
 20
11.75361179048906
 10
116.7253710061617
 20
11.66923679048915
 10
116.6691210061618
 20
11.58486179048924
 10
116.6409960061619
 20
11.47236179048906
 10
116.5847460061617
 20
11.41611179048919
 10
116.5003710061619
 20
11.33173679048906
 10
116.4159960061618
 20
11.27548679048919
 10
116.3034960061617
 20
11.24736179048915
 10
116.2191210061619
 20
11.2192367904891
 10
116.1066210061618
 20
11.2192367904891
 10
115.9941210061618
 20
11.2192367904891
 10
115.8816210061617
 20
11.24736179048915
 10
115.7972460061619
 20
11.27548679048919
 10
115.7128710061618
 20
11.33173679048906
 10
115.628496006162
 20
11.41611179048919
 10
115.5722460061618
 20
11.47236179048906
 10
115.5159960061619
 20
11.58486179048924
 10
115.487871006162
 20
11.66923679048915
 10
115.4597460061617
 20
11.75361179048906
 10
115.4316210061618
 20
11.86611179048924
 10
115.4316210061618
 20
12.09111179048915
 10
115.6847460061618
 20
11.9223617904891
 10
115.7128710061618
 20
11.89423679048906
 10
115.7128710061618
 20
11.86611179048924
 10
115.7128710061618
 20
11.83798679048919
 10
115.7409960061617
 20
11.80986179048915
 10
115.769121006162
 20
11.7817367904891
 10
115.7972460061619
 20
11.75361179048906
 10
115.8253710061619
 20
11.72548679048924
 10
115.8816210061617
 20
11.6973617904892
 10
115.9378710061619
 20
11.6973617904892
 10
115.9941210061618
 20
11.6973617904892
 10
116.050371006162
 20
11.6973617904892
 10
116.0784960061619
 20
11.6973617904892
 10
116.1347460061618
 20
11.72548679048924
 10
116.1628710061617
 20
11.75361179048906
 10
116.2191210061619
 20
11.7817367904891
 10
116.2472460061618
 20
11.7817367904891
 10
116.2472460061618
 20
11.80986179048915
 10
116.2753710061618
 20
11.83798679048919
 10
116.3034960061617
 20
11.89423679048906
 10
116.3034960061617
 20
11.9223617904891
 10
116.3034960061617
 20
13.6098617904891
 10
115.5441210061618
 20
13.6098617904891
  0
HATCH
  5
37FA
330
2EF9
100
AcDbEntity
  8
0
  6
Continuous
100
AcDbHatch
 10
0.0
 20
0.0
 30
0.0
210
0.0
220
0.0
230
1.0
  2
SOLID
 70
     1
 71
     0
 91
        1
 92
        7
 72
     0
 73
     1
 93
        5
 10
119.1159960061617
 20
13.8911117904891
 10
119.1159960061617
 20
11.24736179048915
 10
119.6222460061618
 20
11.24736179048915
 10
119.6222460061618
 20
13.86298679048906
 10
119.1159960061617
 20
13.86298679048906
 97
        1
330
37FB
 75
     0
 76
     1
 47
0.651316
 98
        1
 10
75.04412100616187
 20
-161.1026382095108
  0
LWPOLYLINE
  5
37FB
330
2EF9
100
AcDbEntity
  8
0
  6
Continuous
100
AcDbPolyline
 90
        5
 70
     0
 43
0.1
 10
119.1159960061617
 20
13.8911117904891
 10
119.1159960061617
 20
11.24736179048915
 10
119.6222460061618
 20
11.24736179048915
 10
119.6222460061618
 20
13.86298679048906
 10
119.1159960061617
 20
13.86298679048906
  0
TEXT
  5
3853
330
2EF9
100
AcDbEntity
  8
0
100
AcDbText
 10
13.31751031953636
 20
122.3172662961761
 30
0.0
 40
3.5
  1
●CB-K10RFA(10RF)はエアゲートシステム対応タイプ。
  7
BIGFONT
100
AcDbText
  0
MTEXT
  5
385D
330
2EF9
100
AcDbEntity
  8
0
  6
Continuous
100
AcDbMText
 10
96.81249999999998
 20
275.05
 30
0.0
 40
3.5
 41
100.0
 71
     5
 72
     5
  1
{\fMS PMincho|b0|i0|c128|p18;１０キー付非接触カードリーダ}
  7
BIGFONT
 73
     1
 44
1.0
1001
ACAD
1000
MTEXTBEGIN
1070
    73
1070
     1
1070
    44
1040
1.0
1070
    74
1070
     0
1000
MTEXTEND
  0
MTEXT
  5
385F
330
2EF9
100
AcDbEntity
  8
0
  6
Continuous
100
AcDbMText
 10
184.4249999999999
 20
275.05
 30
0.0
 40
3.5
 41
50.0
 71
     6
 72
     5
  1
{\fMS PMincho|b0|i0|c128|p18;WP0240-03}
  7
BIGFONT
 73
     1
 44
1.0
1001
ACAD
1000
MTEXTBEGIN
1070
    73
1070
     1
1070
    44
1040
1.0
1070
    74
1070
     0
1000
MTEXTEND
  0
ENDSEC
  0
SECTION
  2
OBJECTS
  0
DICTIONARY
  5
2EE3
330
0
100
AcDbDictionary
281
     1
  3
ACAD_COLOR
350
2EF2
  3
ACAD_GROUP
350
2EE4
  3
ACAD_LAYOUT
350
2EF0
  3
ACAD_MATERIAL
350
2EF1
  3
ACAD_MLEADERSTYLE
350
37D3
  3
ACAD_MLINESTYLE
350
2EED
  3
ACAD_PLOTSETTINGS
350
2EEF
  3
ACAD_PLOTSTYLENAME
350
2EE5
  3
ACAD_SCALELIST
350
37B1
  3
ACAD_TABLESTYLE
350
2EF3
  3
ACAD_VISUALSTYLE
350
37A0
  3
ACDB_RECOMPOSE_DATA
350
380A
  3
AcDbVariableDictionary
350
2F69
  3
DWGPROPS
350
386D
  0
DICTIONARY
  5
380C
330
2EDF
100
AcDbDictionary
280
     1
281
     1
  0
DICTIONARY
  5
3643
330
2ED9
100
AcDbDictionary
280
     1
281
     1
  3
ACAD_LAYERSTATES
360
3644
  0
DICTIONARY
  5
37FC
330
2EE7
100
AcDbDictionary
280
     1
281
     1
  3
ADSK_XREC_LAYER_RECONCILED
360
37FD
  0
DICTIONARY
  5
37FE
330
2F09
100
AcDbDictionary
280
     1
281
     1
  3
ADSK_XREC_LAYER_RECONCILED
360
37FF
  0
DICTIONARY
  5
3800
330
2F0A
100
AcDbDictionary
280
     1
281
     1
  3
ADSK_XREC_LAYER_RECONCILED
360
3801
  0
DICTIONARY
  5
3802
330
2F0B
100
AcDbDictionary
280
     1
281
     1
  3
ADSK_XREC_LAYER_RECONCILED
360
3803
  0
DICTIONARY
  5
3804
330
2F0C
100
AcDbDictionary
280
     1
281
     1
  3
ADSK_XREC_LAYER_RECONCILED
360
3805
  0
DICTIONARY
  5
3806
330
2F0D
100
AcDbDictionary
280
     1
281
     1
  3
ADSK_XREC_LAYER_RECONCILED
360
3807
  0
DICTIONARY
  5
2EF2
102
{ACAD_REACTORS
330
2EE3
102
}
330
2EE3
100
AcDbDictionary
281
     1
  0
DICTIONARY
  5
2EE4
102
{ACAD_REACTORS
330
2EE3
102
}
330
2EE3
100
AcDbDictionary
281
     1
  0
DICTIONARY
  5
2EF0
102
{ACAD_REACTORS
330
2EE3
102
}
330
2EE3
100
AcDbDictionary
281
     1
  3
Model
350
2EFC
  3
レイアウト1
350
2EF8
  0
DICTIONARY
  5
2EF1
102
{ACAD_REACTORS
330
2EE3
102
}
330
2EE3
100
AcDbDictionary
281
     1
  3
ByBlock
350
3790
  3
ByLayer
350
3788
  3
Global
350
3798
  0
DICTIONARY
  5
37D3
102
{ACAD_REACTORS
330
2EE3
102
}
330
2EE3
100
AcDbDictionary
281
     1
  3
Standard
350
37D4
  0
DICTIONARY
  5
2EED
102
{ACAD_REACTORS
330
2EE3
102
}
330
2EE3
100
AcDbDictionary
281
     1
  3
Standard
350
2EEE
  0
DICTIONARY
  5
2EEF
102
{ACAD_REACTORS
330
2EE3
102
}
330
2EE3
100
AcDbDictionary
281
     1
  0
ACDBDICTIONARYWDFLT
  5
2EE5
102
{ACAD_REACTORS
330
2EE3
102
}
330
2EE3
100
AcDbDictionary
281
     1
  3
Normal
350
2EE6
100
AcDbDictionaryWithDefault
340
2EE6
  0
DICTIONARY
  5
37B1
102
{ACAD_REACTORS
330
2EE3
102
}
330
2EE3
100
AcDbDictionary
281
     1
  3
A0
350
37B2
  3
A1
350
37B3
  3
A2
350
37B4
  3
A3
350
37B5
  3
A4
350
37B6
  3
A5
350
37B7
  3
A6
350
37B8
  3
A7
350
37B9
  3
A8
350
37BA
  3
A9
350
37BB
  3
B0
350
37BC
  3
B1
350
37BD
  3
B2
350
37BE
  3
B3
350
37BF
  3
B4
350
37C0
  3
B5
350
37C1
  3
B6
350
37C2
  3
B7
350
37C3
  3
B8
350
37C4
  3
B9
350
37C5
  3
C0
350
37C6
  3
C1
350
37C7
  3
C2
350
37C8
  3
C3
350
37C9
  3
C4
350
37CA
  3
C5
350
37CB
  3
C6
350
37CC
  3
C7
350
37CD
  3
C8
350
37CE
  3
C9
350
37CF
  3
D0
350
37D0
  3
D1
350
37D1
  3
D2
350
37D2
  0
DICTIONARY
  5
2EF3
102
{ACAD_REACTORS
330
2EE3
102
}
330
2EE3
100
AcDbDictionary
281
     1
  3
Standard
350
2EF4
  0
DICTIONARY
  5
37A0
102
{ACAD_REACTORS
330
2EE3
102
}
330
2EE3
100
AcDbDictionary
281
     1
  3
2dWireframe
350
37A6
  3
3D Hidden
350
37A8
  3
3dWireframe
350
37A7
  3
Basic
350
37A5
  3
Brighten
350
37AC
  3
ColorChange
350
37B0
  3
Conceptual
350
37A9
  3
Dim
350
37AB
  3
Facepattern
350
37AF
  3
Flat
350
37A1
  3
FlatWithEdges
350
37A2
  3
Gouraud
350
37A3
  3
GouraudWithEdges
350
37A4
  3
Linepattern
350
37AE
  3
Realistic
350
37AA
  3
Thicken
350
37AD
  0
XRECORD
  5
380A
102
{ACAD_REACTORS
330
2EE3
102
}
330
2EE3
100
AcDbXrecord
280
     1
 90
        1
330
2EF4
  0
DICTIONARY
  5
2F69
102
{ACAD_REACTORS
330
2EE3
102
}
330
2EE3
100
AcDbDictionary
281
     1
  3
CANNOSCALE
350
381F
  3
CMLEADERSTYLE
350
381E
  3
CTABLESTYLE
350
2F6A
  3
DIMASSOC
350
2F6B
  3
INDEXCTL
350
3821
  3
LIGHTINGUNITS
350
3862
  3
MSLTSCALE
350
3861
  3
PROJECTNAME
350
2F6C
  3
SORTENTS
350
3820
  0
XRECORD
  5
386D
102
{ACAD_REACTORS
330
2EE3
102
}
330
2EE3
100
AcDbXrecord
280
     1
  1
DWGPROPS COOKIE
  2

  3

  4

  6

  7

  8
Takeshi_Nakagawa
  9

300
=
301
=
302
=
303
=
304
=
305
=
306
=
307
=
308
=
309
=
 40
0.9343336805555555
 41
2453573.411721273
 42
2456553.583550405
  1

 90
        0
  0
DICTIONARY
  5
3644
102
{ACAD_REACTORS
330
3643
102
}
330
3643
100
AcDbDictionary
281
     1
  0
XRECORD
  5
37FD
102
{ACAD_REACTORS
330
37FC
102
}
330
37FC
100
AcDbXrecord
280
     1
290
     1
  0
XRECORD
  5
37FF
102
{ACAD_REACTORS
330
37FE
102
}
330
37FE
100
AcDbXrecord
280
     1
290
     1
  0
XRECORD
  5
3801
102
{ACAD_REACTORS
330
3800
102
}
330
3800
100
AcDbXrecord
280
     1
290
     1
  0
XRECORD
  5
3803
102
{ACAD_REACTORS
330
3802
102
}
330
3802
100
AcDbXrecord
280
     1
290
     1
  0
XRECORD
  5
3805
102
{ACAD_REACTORS
330
3804
102
}
330
3804
100
AcDbXrecord
280
     1
290
     1
  0
XRECORD
  5
3807
102
{ACAD_REACTORS
330
3806
102
}
330
3806
100
AcDbXrecord
280
     1
290
     1
  0
LAYOUT
  5
2EFC
102
{ACAD_XDICTIONARY
360
3871
102
}
102
{ACAD_REACTORS
330
2EF0
102
}
330
2EF0
100
AcDbPlotSettings
  1

  2
RICOH imagio Color 3100P-V
  4

  6

 40
0.0
 41
0.0
 42
0.0
 43
0.0
 44
0.0
 45
0.0
 46
0.0
 47
0.0
 48
0.0
 49
0.0
140
0.0
141
0.0
142
1.0
143
1.0
 70
  1712
 72
     0
 73
     0
 74
     0
  7

 75
     0
147
1.0
148
0.0
149
0.0
100
AcDbLayout
  1
Model
 70
     1
 71
     0
 10
0.0
 20
0.0
 11
12.0
 21
9.0
 12
0.0
 22
0.0
 32
0.0
 14
0.0
 24
0.0
 34
0.0
 15
0.0
 25
0.0
 35
0.0
146
0.0
 13
0.0
 23
0.0
 33
0.0
 16
1.0
 26
0.0
 36
0.0
 17
0.0
 27
1.0
 37
0.0
 76
     0
330
2EF9
331
3854
  0
LAYOUT
  5
2EF8
102
{ACAD_XDICTIONARY
360
386F
102
}
102
{ACAD_REACTORS
330
2EF0
102
}
330
2EF0
100
AcDbPlotSettings
  1

  2
RICOH imagio Color 3100P-V
  4

  6

 40
0.0
 41
0.0
 42
0.0
 43
0.0
 44
0.0
 45
0.0
 46
0.0
 47
0.0
 48
0.0
 49
0.0
140
0.0
141
0.0
142
1.0
143
1.0
 70
   688
 72
     0
 73
     0
 74
     5
  7

 75
    16
147
1.0
148
0.0
149
0.0
100
AcDbLayout
  1
レイアウト1
 70
     1
 71
     1
 10
0.0
 20
0.0
 11
12.0
 21
9.0
 12
0.0
 22
0.0
 32
0.0
 14
1.000000000000000E+20
 24
1.000000000000000E+20
 34
1.000000000000000E+20
 15
-1.000000000000000E+20
 25
-1.000000000000000E+20
 35
-1.000000000000000E+20
146
0.0
 13
0.0
 23
0.0
 33
0.0
 16
1.0
 26
0.0
 36
0.0
 17
0.0
 27
1.0
 37
0.0
 76
     0
330
2EF5
  0
MATERIAL
  5
3790
102
{ACAD_XDICTIONARY
360
3791
102
}
102
{ACAD_REACTORS
330
2EF1
102
}
330
2EF1
100
AcDbMaterial
  1
ByBlock
 72
     0
 43
0.0208333333333333
 43
0.0
 43
0.0
 43
0.0
 43
0.0
 43
0.0208333333333333
 43
0.0
 43
0.0
 43
0.0
 43
0.0
 43
1.0
 43
0.0
 43
0.0
 43
0.0
 43
0.0
 43
1.0
 77
     0
 47
0.0208333333333333
 47
0.0
 47
0.0
 47
0.0
 47
0.0
 47
0.0208333333333333
 47
0.0
 47
0.0
 47
0.0
 47
0.0
 47
1.0
 47
0.0
 47
0.0
 47
0.0
 47
0.0
 47
1.0
171
     0
 49
0.0208333333333333
 49
0.0
 49
0.0
 49
0.0
 49
0.0
 49
0.0208333333333333
 49
0.0
 49
0.0
 49
0.0
 49
0.0
 49
1.0
 49
0.0
 49
0.0
 49
0.0
 49
0.0
 49
1.0
175
     0
142
0.0208333333333333
142
0.0
142
0.0
142
0.0
142
0.0
142
0.0208333333333333
142
0.0
142
0.0
142
0.0
142
0.0
142
1.0
142
0.0
142
0.0
142
0.0
142
0.0
142
1.0
179
     0
144
0.0208333333333333
144
0.0
144
0.0
144
0.0
144
0.0
144
0.0208333333333333
144
0.0
144
0.0
144
0.0
144
0.0
144
1.0
144
0.0
144
0.0
144
0.0
144
0.0
144
1.0
147
0.0208333333333333
147
0.0
147
0.0
147
0.0
147
0.0
147
0.0208333333333333
147
0.0
147
0.0
147
0.0
147
0.0
147
1.0
147
0.0
147
0.0
147
0.0
147
0.0
147
1.0
  0
MATERIAL
  5
3788
102
{ACAD_XDICTIONARY
360
3789
102
}
102
{ACAD_REACTORS
330
2EF1
102
}
330
2EF1
100
AcDbMaterial
  1
ByLayer
 72
     0
 43
0.0208333333333333
 43
0.0
 43
0.0
 43
0.0
 43
0.0
 43
0.0208333333333333
 43
0.0
 43
0.0
 43
0.0
 43
0.0
 43
1.0
 43
0.0
 43
0.0
 43
0.0
 43
0.0
 43
1.0
 77
     0
 47
0.0208333333333333
 47
0.0
 47
0.0
 47
0.0
 47
0.0
 47
0.0208333333333333
 47
0.0
 47
0.0
 47
0.0
 47
0.0
 47
1.0
 47
0.0
 47
0.0
 47
0.0
 47
0.0
 47
1.0
171
     0
 49
0.0208333333333333
 49
0.0
 49
0.0
 49
0.0
 49
0.0
 49
0.0208333333333333
 49
0.0
 49
0.0
 49
0.0
 49
0.0
 49
1.0
 49
0.0
 49
0.0
 49
0.0
 49
0.0
 49
1.0
175
     0
142
0.0208333333333333
142
0.0
142
0.0
142
0.0
142
0.0
142
0.0208333333333333
142
0.0
142
0.0
142
0.0
142
0.0
142
1.0
142
0.0
142
0.0
142
0.0
142
0.0
142
1.0
179
     0
144
0.0208333333333333
144
0.0
144
0.0
144
0.0
144
0.0
144
0.0208333333333333
144
0.0
144
0.0
144
0.0
144
0.0
144
1.0
144
0.0
144
0.0
144
0.0
144
0.0
144
1.0
147
0.0208333333333333
147
0.0
147
0.0
147
0.0
147
0.0
147
0.0208333333333333
147
0.0
147
0.0
147
0.0
147
0.0
147
1.0
147
0.0
147
0.0
147
0.0
147
0.0
147
1.0
  0
MATERIAL
  5
3798
102
{ACAD_XDICTIONARY
360
3799
102
}
102
{ACAD_REACTORS
330
2EF1
102
}
330
2EF1
100
AcDbMaterial
  1
Global
 72
     0
 43
0.0208333333333333
 43
0.0
 43
0.0
 43
0.0
 43
0.0
 43
0.0208333333333333
 43
0.0
 43
0.0
 43
0.0
 43
0.0
 43
1.0
 43
0.0
 43
0.0
 43
0.0
 43
0.0
 43
1.0
 77
     0
 47
0.0208333333333333
 47
0.0
 47
0.0
 47
0.0
 47
0.0
 47
0.0208333333333333
 47
0.0
 47
0.0
 47
0.0
 47
0.0
 47
1.0
 47
0.0
 47
0.0
 47
0.0
 47
0.0
 47
1.0
171
     0
 49
0.0208333333333333
 49
0.0
 49
0.0
 49
0.0
 49
0.0
 49
0.0208333333333333
 49
0.0
 49
0.0
 49
0.0
 49
0.0
 49
1.0
 49
0.0
 49
0.0
 49
0.0
 49
0.0
 49
1.0
175
     0
142
0.0208333333333333
142
0.0
142
0.0
142
0.0
142
0.0
142
0.0208333333333333
142
0.0
142
0.0
142
0.0
142
0.0
142
1.0
142
0.0
142
0.0
142
0.0
142
0.0
142
1.0
179
     0
144
0.0208333333333333
144
0.0
144
0.0
144
0.0
144
0.0
144
0.0208333333333333
144
0.0
144
0.0
144
0.0
144
0.0
144
1.0
144
0.0
144
0.0
144
0.0
144
0.0
144
1.0
147
0.0208333333333333
147
0.0
147
0.0
147
0.0
147
0.0
147
0.0208333333333333
147
0.0
147
0.0
147
0.0
147
0.0
147
1.0
147
0.0
147
0.0
147
0.0
147
0.0
147
1.0
  0
MLEADERSTYLE
  5
37D4
102
{ACAD_REACTORS
330
37D3
102
}
330
37D3
100
AcDbMLeaderStyle
170
     2
171
     1
172
     0
 90
        2
 40
0.0
 41
0.0
173
     1
 91
-1056964608
340
2EEA
 92
       -2
290
     1
 42
0.09
291
     1
 43
0.36
  3
Standard
 44
0.18
300

342
2EE8
174
     1
178
     6
175
     1
176
     0
 93
-1056964608
 45
0.18
292
     0
297
     0
 46
0.18
 94
-1056964608
 47
1.0
 49
1.0
140
1.0
293
     1
141
0.0
294
     1
177
     0
142
1.0
295
     0
296
     0
143
0.125
1001
ACAD_MLEADERVER
1070
     2
  0
MLINESTYLE
  5
2EEE
102
{ACAD_REACTORS
330
2EED
102
}
330
2EED
100
AcDbMlineStyle
  2
STANDARD
 70
     0
  3

 62
   256
 51
90.0
 52
90.0
 71
     2
 49
0.5
 62
   256
  6
BYLAYER
 49
-0.5
 62
   256
  6
BYLAYER
  0
ACDBPLACEHOLDER
  5
2EE6
102
{ACAD_REACTORS
330
2EE5
102
}
330
2EE5
  0
SCALE
  5
37B2
102
{ACAD_REACTORS
330
37B1
102
}
330
37B1
100
AcDbScale
 70
     0
300
1:1
140
1.0
141
1.0
290
     1
  0
SCALE
  5
37B3
102
{ACAD_REACTORS
330
37B1
102
}
330
37B1
100
AcDbScale
 70
     0
300
1:2
140
1.0
141
2.0
290
     0
  0
SCALE
  5
37B4
102
{ACAD_REACTORS
330
37B1
102
}
330
37B1
100
AcDbScale
 70
     0
300
1:4
140
1.0
141
4.0
290
     0
  0
SCALE
  5
37B5
102
{ACAD_REACTORS
330
37B1
102
}
330
37B1
100
AcDbScale
 70
     0
300
1:5
140
1.0
141
5.0
290
     0
  0
SCALE
  5
37B6
102
{ACAD_REACTORS
330
37B1
102
}
330
37B1
100
AcDbScale
 70
     0
300
1:8
140
1.0
141
8.0
290
     0
  0
SCALE
  5
37B7
102
{ACAD_REACTORS
330
37B1
102
}
330
37B1
100
AcDbScale
 70
     0
300
1:10
140
1.0
141
10.0
290
     0
  0
SCALE
  5
37B8
102
{ACAD_REACTORS
330
37B1
102
}
330
37B1
100
AcDbScale
 70
     0
300
1:16
140
1.0
141
16.0
290
     0
  0
SCALE
  5
37B9
102
{ACAD_REACTORS
330
37B1
102
}
330
37B1
100
AcDbScale
 70
     0
300
1:20
140
1.0
141
20.0
290
     0
  0
SCALE
  5
37BA
102
{ACAD_REACTORS
330
37B1
102
}
330
37B1
100
AcDbScale
 70
     0
300
1:30
140
1.0
141
30.0
290
     0
  0
SCALE
  5
37BB
102
{ACAD_REACTORS
330
37B1
102
}
330
37B1
100
AcDbScale
 70
     0
300
1:40
140
1.0
141
40.0
290
     0
  0
SCALE
  5
37BC
102
{ACAD_REACTORS
330
37B1
102
}
330
37B1
100
AcDbScale
 70
     0
300
1:50
140
1.0
141
50.0
290
     0
  0
SCALE
  5
37BD
102
{ACAD_REACTORS
330
37B1
102
}
330
37B1
100
AcDbScale
 70
     0
300
1:100
140
1.0
141
100.0
290
     0
  0
SCALE
  5
37BE
102
{ACAD_REACTORS
330
37B1
102
}
330
37B1
100
AcDbScale
 70
     0
300
2:1
140
2.0
141
1.0
290
     0
  0
SCALE
  5
37BF
102
{ACAD_REACTORS
330
37B1
102
}
330
37B1
100
AcDbScale
 70
     0
300
4:1
140
4.0
141
1.0
290
     0
  0
SCALE
  5
37C0
102
{ACAD_REACTORS
330
37B1
102
}
330
37B1
100
AcDbScale
 70
     0
300
8:1
140
8.0
141
1.0
290
     0
  0
SCALE
  5
37C1
102
{ACAD_REACTORS
330
37B1
102
}
330
37B1
100
AcDbScale
 70
     0
300
10:1
140
10.0
141
1.0
290
     0
  0
SCALE
  5
37C2
102
{ACAD_REACTORS
330
37B1
102
}
330
37B1
100
AcDbScale
 70
     0
300
100:1
140
100.0
141
1.0
290
     0
  0
SCALE
  5
37C3
102
{ACAD_REACTORS
330
37B1
102
}
330
37B1
100
AcDbScale
 70
     0
300
1/128" = 1'-0"
140
0.0078125
141
12.0
290
     0
  0
SCALE
  5
37C4
102
{ACAD_REACTORS
330
37B1
102
}
330
37B1
100
AcDbScale
 70
     0
300
1/64" = 1'-0"
140
0.015625
141
12.0
290
     0
  0
SCALE
  5
37C5
102
{ACAD_REACTORS
330
37B1
102
}
330
37B1
100
AcDbScale
 70
     0
300
1/32" = 1'-0"
140
0.03125
141
12.0
290
     0
  0
SCALE
  5
37C6
102
{ACAD_REACTORS
330
37B1
102
}
330
37B1
100
AcDbScale
 70
     0
300
1/16" = 1'-0"
140
0.0625
141
12.0
290
     0
  0
SCALE
  5
37C7
102
{ACAD_REACTORS
330
37B1
102
}
330
37B1
100
AcDbScale
 70
     0
300
3/32" = 1'-0"
140
0.09375
141
12.0
290
     0
  0
SCALE
  5
37C8
102
{ACAD_REACTORS
330
37B1
102
}
330
37B1
100
AcDbScale
 70
     0
300
1/8" = 1'-0"
140
0.125
141
12.0
290
     0
  0
SCALE
  5
37C9
102
{ACAD_REACTORS
330
37B1
102
}
330
37B1
100
AcDbScale
 70
     0
300
3/16" = 1'-0"
140
0.1875
141
12.0
290
     0
  0
SCALE
  5
37CA
102
{ACAD_REACTORS
330
37B1
102
}
330
37B1
100
AcDbScale
 70
     0
300
1/4" = 1'-0"
140
0.25
141
12.0
290
     0
  0
SCALE
  5
37CB
102
{ACAD_REACTORS
330
37B1
102
}
330
37B1
100
AcDbScale
 70
     0
300
3/8" = 1'-0"
140
0.375
141
12.0
290
     0
  0
SCALE
  5
37CC
102
{ACAD_REACTORS
330
37B1
102
}
330
37B1
100
AcDbScale
 70
     0
300
1/2" = 1'-0"
140
0.5
141
12.0
290
     0
  0
SCALE
  5
37CD
102
{ACAD_REACTORS
330
37B1
102
}
330
37B1
100
AcDbScale
 70
     0
300
3/4" = 1'-0"
140
0.75
141
12.0
290
     0
  0
SCALE
  5
37CE
102
{ACAD_REACTORS
330
37B1
102
}
330
37B1
100
AcDbScale
 70
     0
300
1" = 1'-0"
140
1.0
141
12.0
290
     0
  0
SCALE
  5
37CF
102
{ACAD_REACTORS
330
37B1
102
}
330
37B1
100
AcDbScale
 70
     0
300
1-1/2" = 1'-0"
140
1.5
141
12.0
290
     0
  0
SCALE
  5
37D0
102
{ACAD_REACTORS
330
37B1
102
}
330
37B1
100
AcDbScale
 70
     0
300
3" = 1'-0"
140
3.0
141
12.0
290
     0
  0
SCALE
  5
37D1
102
{ACAD_REACTORS
330
37B1
102
}
330
37B1
100
AcDbScale
 70
     0
300
6" = 1'-0"
140
6.0
141
12.0
290
     0
  0
SCALE
  5
37D2
102
{ACAD_REACTORS
330
37B1
102
}
330
37B1
100
AcDbScale
 70
     0
300
1'-0" = 1'-0"
140
12.0
141
12.0
290
     0
  0
TABLESTYLE
  5
2EF4
102
{ACAD_XDICTIONARY
360
3808
102
}
102
{ACAD_REACTORS
330
2EF3
102
}
330
2EF3
100
AcDbTableStyle
  3
Standard
 70
     0
 71
     0
 40
0.06
 41
0.06
280
     0
281
     0
  7
STANDARD
140
0.18
170
     2
 62
     0
 63
     7
283
     0
274
    -2
284
     1
 64
     0
275
    -2
285
     1
 65
     0
276
    -2
286
     1
 66
     0
277
    -2
287
     1
 67
     0
278
    -2
288
     1
 68
     0
279
    -2
289
     1
 69
     0
  7
STANDARD
140
0.25
170
     5
 62
     0
 63
     7
283
     0
274
    -2
284
     1
 64
     0
275
    -2
285
     1
 65
     0
276
    -2
286
     1
 66
     0
277
    -2
287
     1
 67
     0
278
    -2
288
     1
 68
     0
279
    -2
289
     1
 69
     0
  7
STANDARD
140
0.18
170
     5
 62
     0
 63
     7
283
     0
274
    -2
284
     1
 64
     0
275
    -2
285
     1
 65
     0
276
    -2
286
     1
 66
     0
277
    -2
287
     1
 67
     0
278
    -2
288
     1
 68
     0
279
    -2
289
     1
 69
     0
  0
VISUALSTYLE
  5
37A6
102
{ACAD_REACTORS
330
37A0
102
}
330
37A0
100
AcDbVisualStyle
  2
2dWireframe
 70
     4
 71
     0
 72
     2
 73
     0
 90
        0
 40
-0.6
 41
-30.0
 62
     5
 63
     7
 74
     1
 91
        4
 64
     7
 65
   257
 75
     1
175
     1
 42
1.0
 92
        0
 66
   257
 43
1.0
 76
     1
 77
     6
 78
     2
 67
     7
 79
     5
170
     0
171
     0
290
     0
174
     0
 93
        1
 44
0.0
173
     0
291
     0
 45
0.0
1001
ACAD
1000
AcDbSavedByObjectVersion
1070
     0
  0
VISUALSTYLE
  5
37A8
102
{ACAD_REACTORS
330
37A0
102
}
330
37A0
100
AcDbVisualStyle
  2
3D Hidden
 70
     6
 71
     1
 72
     2
 73
     2
 90
        0
 40
-0.6
 41
-30.0
 62
     5
 63
     7
 74
     2
 91
        2
 64
     7
 65
   257
 75
     2
175
     1
 42
40.0
 92
        0
 66
   257
 43
1.0
 76
     1
 77
     6
 78
     2
 67
     7
 79
     3
170
     0
171
     0
290
     0
174
     0
 93
        1
 44
0.0
173
     0
291
     0
 45
0.0
1001
ACAD
1000
AcDbSavedByObjectVersion
1070
     0
  0
VISUALSTYLE
  5
37A7
102
{ACAD_REACTORS
330
37A0
102
}
330
37A0
100
AcDbVisualStyle
  2
3dWireframe
 70
     5
 71
     0
 72
     2
 73
     0
 90
        0
 40
-0.6
 41
-30.0
 62
     5
 63
     7
 74
     1
 91
        4
 64
     7
 65
   257
 75
     1
175
     1
 42
1.0
 92
        0
 66
   257
 43
1.0
 76
     1
 77
     6
 78
     2
 67
     7
 79
     5
170
     0
171
     0
290
     0
174
     0
 93
        1
 44
0.0
173
     0
291
     0
 45
0.0
1001
ACAD
1000
AcDbSavedByObjectVersion
1070
     0
  0
VISUALSTYLE
  5
37A5
102
{ACAD_REACTORS
330
37A0
102
}
330
37A0
100
AcDbVisualStyle
  2
Basic
 70
     7
 71
     1
 72
     0
 73
     1
 90
        0
 40
-0.6
 41
-30.0
 62
     5
 63
     7
 74
     0
 91
        4
 64
     7
 65
   257
 75
     1
175
     1
 42
1.0
 92
        8
 66
     7
 43
1.0
 76
     1
 77
     6
 78
     2
 67
     7
 79
     5
170
     0
171
     0
290
     0
174
     0
 93
        1
 44
0.0
173
     0
291
     1
 45
0.0
1001
ACAD
1000
AcDbSavedByObjectVersion
1070
     0
  0
VISUALSTYLE
  5
37AC
102
{ACAD_REACTORS
330
37A0
102
}
330
37A0
100
AcDbVisualStyle
  2
Brighten
 70
    12
 71
     2
 72
     2
 73
     0
 90
        0
 40
-0.6
 41
-30.0
 62
     5
 63
     7
 74
     1
 91
        4
 64
     7
 65
   257
 75
     1
175
     1
 42
1.0
 92
        8
 66
     7
 43
1.0
 76
     1
 77
     6
 78
     2
 67
     7
 79
     5
170
     0
171
     0
290
     0
174
     0
 93
        1
 44
50.0
173
     0
291
     1
 45
0.0
1001
ACAD
1000
AcDbSavedByObjectVersion
1070
     0
  0
VISUALSTYLE
  5
37B0
102
{ACAD_REACTORS
330
37A0
102
}
330
37A0
100
AcDbVisualStyle
  2
ColorChange
 70
    16
 71
     2
 72
     2
 73
     3
 90
        0
 40
-0.6
 41
-30.0
 62
     5
 63
     8
 74
     1
 91
        4
 64
     7
 65
   257
 75
     1
175
     1
 42
1.0
 92
        8
 66
     8
 43
1.0
 76
     1
 77
     6
 78
     2
 67
     7
 79
     5
170
     0
171
     0
290
     0
174
     0
 93
        1
 44
0.0
173
     0
291
     1
 45
0.0
1001
ACAD
1000
AcDbSavedByObjectVersion
1070
     0
  0
VISUALSTYLE
  5
37A9
102
{ACAD_REACTORS
330
37A0
102
}
330
37A0
100
AcDbVisualStyle
  2
Conceptual
 70
     9
 71
     3
 72
     2
 73
     0
 90
        0
 40
-0.6
 41
-30.0
 62
     5
 63
     7
 74
     2
 91
        2
 64
     7
 65
   257
 75
     1
175
     1
 42
40.0
 92
        8
 66
     7
 43
1.0
 76
     1
 77
     6
 78
     2
 67
     7
 79
     3
170
     0
171
     0
290
     0
174
     0
 93
        1
 44
0.0
173
     0
291
     0
 45
0.0
1001
ACAD
1000
AcDbSavedByObjectVersion
1070
     0
  0
VISUALSTYLE
  5
37AB
102
{ACAD_REACTORS
330
37A0
102
}
330
37A0
100
AcDbVisualStyle
  2
Dim
 70
    11
 71
     2
 72
     2
 73
     0
 90
        0
 40
-0.6
 41
-30.0
 62
     5
 63
     7
 74
     1
 91
        4
 64
     7
 65
   257
 75
     1
175
     1
 42
1.0
 92
        8
 66
     7
 43
1.0
 76
     1
 77
     6
 78
     2
 67
     7
 79
     5
170
     0
171
     0
290
     0
174
     0
 93
        1
 44
-50.0
173
     0
291
     1
 45
0.0
1001
ACAD
1000
AcDbSavedByObjectVersion
1070
     0
  0
VISUALSTYLE
  5
37AF
102
{ACAD_REACTORS
330
37A0
102
}
330
37A0
100
AcDbVisualStyle
  2
Facepattern
 70
    15
 71
     2
 72
     2
 73
     0
 90
        0
 40
-0.6
 41
-30.0
 62
     5
 63
     7
 74
     1
 91
        4
 64
     7
 65
   257
 75
     1
175
     1
 42
1.0
 92
        8
 66
     7
 43
1.0
 76
     1
 77
     6
 78
     2
 67
     7
 79
     5
170
     0
171
     0
290
     0
174
     0
 93
        1
 44
0.0
173
     0
291
     1
 45
0.0
1001
ACAD
1000
AcDbSavedByObjectVersion
1070
     0
  0
VISUALSTYLE
  5
37A1
102
{ACAD_REACTORS
330
37A0
102
}
330
37A0
100
AcDbVisualStyle
  2
Flat
 70
     0
 71
     2
 72
     1
 73
     1
 90
        2
 40
-0.6
 41
30.0
 62
     5
 63
     7
 74
     0
 91
        4
 64
     7
 65
   257
 75
     1
175
     1
 42
1.0
 92
        8
 66
     7
 43
1.0
 76
     1
 77
     6
 78
     2
 67
     7
 79
     5
170
     0
171
     0
290
     0
174
     0
 93
       13
 44
0.0
173
     0
291
     1
 45
0.0
1001
ACAD
1000
AcDbSavedByObjectVersion
1070
     0
  0
VISUALSTYLE
  5
37A2
102
{ACAD_REACTORS
330
37A0
102
}
330
37A0
100
AcDbVisualStyle
  2
FlatWithEdges
 70
     1
 71
     2
 72
     1
 73
     1
 90
        2
 40
-0.6
 41
30.0
 62
     5
 63
     7
 74
     1
 91
        4
 64
     7
 65
   257
 75
     1
175
     1
 42
1.0
 92
        0
 66
   257
 43
1.0
 76
     1
 77
     6
 78
     2
 67
     7
 79
     5
170
     0
171
     0
290
     0
174
     0
 93
       13
 44
0.0
173
     0
291
     1
 45
0.0
1001
ACAD
1000
AcDbSavedByObjectVersion
1070
     0
  0
VISUALSTYLE
  5
37A3
102
{ACAD_REACTORS
330
37A0
102
}
330
37A0
100
AcDbVisualStyle
  2
Gouraud
 70
     2
 71
     2
 72
     2
 73
     1
 90
        2
 40
-0.6
 41
30.0
 62
     5
 63
     7
 74
     0
 91
        4
 64
     7
 65
   257
 75
     1
175
     1
 42
1.0
 92
        0
 66
     7
 43
1.0
 76
     1
 77
     6
 78
     2
 67
     7
 79
     5
170
     0
171
     0
290
     0
174
     0
 93
       13
 44
0.0
173
     0
291
     1
 45
0.0
1001
ACAD
1000
AcDbSavedByObjectVersion
1070
     0
  0
VISUALSTYLE
  5
37A4
102
{ACAD_REACTORS
330
37A0
102
}
330
37A0
100
AcDbVisualStyle
  2
GouraudWithEdges
 70
     3
 71
     2
 72
     2
 73
     1
 90
        2
 40
-0.6
 41
30.0
 62
     5
 63
     7
 74
     1
 91
        4
 64
     7
 65
   257
 75
     1
175
     1
 42
1.0
 92
        0
 66
   257
 43
1.0
 76
     1
 77
     6
 78
     2
 67
     7
 79
     5
170
     0
171
     0
290
     0
174
     0
 93
       13
 44
0.0
173
     0
291
     1
 45
0.0
1001
ACAD
1000
AcDbSavedByObjectVersion
1070
     0
  0
VISUALSTYLE
  5
37AE
102
{ACAD_REACTORS
330
37A0
102
}
330
37A0
100
AcDbVisualStyle
  2
Linepattern
 70
    14
 71
     2
 72
     2
 73
     0
 90
        0
 40
-0.6
 41
-30.0
 62
     5
 63
     7
 74
     1
 91
        4
 64
     7
 65
   257
 75
     7
175
     7
 42
1.0
 92
        8
 66
     7
 43
1.0
 76
     1
 77
     6
 78
     2
 67
     7
 79
     5
170
     0
171
     0
290
     0
174
     0
 93
        1
 44
0.0
173
     0
291
     1
 45
0.0
1001
ACAD
1000
AcDbSavedByObjectVersion
1070
     0
  0
VISUALSTYLE
  5
37AA
102
{ACAD_REACTORS
330
37A0
102
}
330
37A0
100
AcDbVisualStyle
  2
Realistic
 70
     8
 71
     2
 72
     2
 73
     0
 90
        0
 40
-0.6
 41
-30.0
 62
     5
 63
     7
 74
     1
 91
        0
 64
     7
 65
   257
 75
     1
175
     1
 42
1.0
 92
        8
 66
     8
 43
1.0
 76
     1
 77
     6
 78
     2
 67
     7
 79
     5
170
     0
171
     0
290
     0
174
     0
 93
       13
 44
0.0
173
     0
291
     0
 45
0.0
1001
ACAD
1000
AcDbSavedByObjectVersion
1070
     0
  0
VISUALSTYLE
  5
37AD
102
{ACAD_REACTORS
330
37A0
102
}
330
37A0
100
AcDbVisualStyle
  2
Thicken
 70
    13
 71
     2
 72
     2
 73
     0
 90
        0
 40
-0.6
 41
-30.0
 62
     5
 63
     7
 74
     1
 91
        4
 64
     7
 65
   257
 75
     1
175
     1
 42
1.0
 92
       12
 66
     7
 43
1.0
 76
     1
 77
     6
 78
     2
 67
     7
 79
     5
170
     0
171
     0
290
     0
174
     0
 93
        1
 44
0.0
173
     0
291
     1
 45
0.0
1001
ACAD
1000
AcDbSavedByObjectVersion
1070
     0
  0
DICTIONARYVAR
  5
381F
102
{ACAD_REACTORS
330
2F69
102
}
330
2F69
100
DictionaryVariables
280
     0
  1
1:1
  0
DICTIONARYVAR
  5
381E
102
{ACAD_REACTORS
330
2F69
102
}
330
2F69
100
DictionaryVariables
280
     0
  1
STANDARD
  0
DICTIONARYVAR
  5
2F6A
102
{ACAD_REACTORS
330
2F69
102
}
330
2F69
100
DictionaryVariables
280
     0
  1
STANDARD
  0
DICTIONARYVAR
  5
2F6B
102
{ACAD_REACTORS
330
2F69
102
}
330
2F69
100
DictionaryVariables
280
     0
  1
1
  0
DICTIONARYVAR
  5
3821
102
{ACAD_REACTORS
330
2F69
102
}
330
2F69
100
DictionaryVariables
280
     0
  1
0
  0
DICTIONARYVAR
  5
3862
102
{ACAD_REACTORS
330
2F69
102
}
330
2F69
100
DictionaryVariables
280
     0
  1
0
  0
DICTIONARYVAR
  5
3861
102
{ACAD_REACTORS
330
2F69
102
}
330
2F69
100
DictionaryVariables
280
     0
  1
0
  0
DICTIONARYVAR
  5
2F6C
102
{ACAD_REACTORS
330
2F69
102
}
330
2F69
100
DictionaryVariables
280
     0
  1

  0
DICTIONARYVAR
  5
3820
102
{ACAD_REACTORS
330
2F69
102
}
330
2F69
100
DictionaryVariables
280
     0
  1
127
  0
DICTIONARY
  5
3871
330
2EFC
100
AcDbDictionary
280
     1
281
     1
  3
ACAD_XREC_ROUNDTRIP
360
3872
  0
DICTIONARY
  5
386F
330
2EF8
100
AcDbDictionary
280
     1
281
     1
  3
ACAD_XREC_ROUNDTRIP
360
3870
  0
DICTIONARY
  5
3791
330
3790
100
AcDbDictionary
280
     1
281
     1
  3
ACAD_XREC_ROUNDTRIP
360
3874
  3
BUMPTILE
360
3793
  3
DIFFUSETILE
360
3792
  3
OPACITYTILE
360
3796
  3
REFLECTIONTILE
360
3795
  3
REFRACTIONTILE
360
3797
  3
SPECULARTILE
360
3794
  0
DICTIONARY
  5
3789
330
3788
100
AcDbDictionary
280
     1
281
     1
  3
ACAD_XREC_ROUNDTRIP
360
3873
  3
BUMPTILE
360
378B
  3
DIFFUSETILE
360
378A
  3
OPACITYTILE
360
378E
  3
REFLECTIONTILE
360
378D
  3
REFRACTIONTILE
360
378F
  3
SPECULARTILE
360
378C
  0
DICTIONARY
  5
3799
330
3798
100
AcDbDictionary
280
     1
281
     1
  3
ACAD_XREC_ROUNDTRIP
360
3875
  3
BUMPTILE
360
379B
  3
DIFFUSETILE
360
379A
  3
OPACITYTILE
360
379E
  3
REFLECTIONTILE
360
379D
  3
REFRACTIONTILE
360
379F
  3
SPECULARTILE
360
379C
  0
DICTIONARY
  5
3808
330
2EF4
100
AcDbDictionary
280
     1
281
     1
  3
ACAD_ROUNDTRIP_2008_TABLESTYLE_CELLSTYLEMAP
360
386C
  3
ACAD_XREC_ROUNDTRIP
360
386E
  0
XRECORD
  5
3872
102
{ACAD_REACTORS
330
3871
102
}
330
3871
100
AcDbXrecord
280
     1
102
SHADEPLOT
 70
     0
102
SHADEPLOTRESLEVEL
 70
     2
102
SHADEPLOTCUSTOMDPI
 70
   300
  0
XRECORD
  5
3870
102
{ACAD_REACTORS
330
386F
102
}
330
386F
100
AcDbXrecord
280
     1
102
SHADEPLOT
 70
     0
102
SHADEPLOTRESLEVEL
 70
     2
102
SHADEPLOTCUSTOMDPI
 70
   300
  0
XRECORD
  5
3874
102
{ACAD_REACTORS
330
3791
102
}
330
3791
100
AcDbXrecord
280
     1
102
MATERIAL
148
0.0
149
0.0
149
0.0
 93
        0
 94
      127
282
     0
 72
     0
 77
     0
171
     0
175
     0
179
     0
273
     0
  0
XRECORD
  5
3793
102
{ACAD_REACTORS
330
3791
102
}
330
3791
100
AcDbXrecord
280
     1
270
     1
271
     1
  0
XRECORD
  5
3792
102
{ACAD_REACTORS
330
3791
102
}
330
3791
100
AcDbXrecord
280
     1
270
     1
271
     1
  0
XRECORD
  5
3796
102
{ACAD_REACTORS
330
3791
102
}
330
3791
100
AcDbXrecord
280
     1
270
     1
271
     1
  0
XRECORD
  5
3795
102
{ACAD_REACTORS
330
3791
102
}
330
3791
100
AcDbXrecord
280
     1
270
     1
271
     1
  0
XRECORD
  5
3797
102
{ACAD_REACTORS
330
3791
102
}
330
3791
100
AcDbXrecord
280
     1
270
     1
271
     1
  0
XRECORD
  5
3794
102
{ACAD_REACTORS
330
3791
102
}
330
3791
100
AcDbXrecord
280
     1
270
     1
271
     1
  0
XRECORD
  5
3873
102
{ACAD_REACTORS
330
3789
102
}
330
3789
100
AcDbXrecord
280
     1
102
MATERIAL
148
0.0
149
0.0
149
0.0
 93
        0
 94
      127
282
     0
 72
     0
 77
     0
171
     0
175
     0
179
     0
273
     0
  0
XRECORD
  5
378B
102
{ACAD_REACTORS
330
3789
102
}
330
3789
100
AcDbXrecord
280
     1
270
     1
271
     1
  0
XRECORD
  5
378A
102
{ACAD_REACTORS
330
3789
102
}
330
3789
100
AcDbXrecord
280
     1
270
     1
271
     1
  0
XRECORD
  5
378E
102
{ACAD_REACTORS
330
3789
102
}
330
3789
100
AcDbXrecord
280
     1
270
     1
271
     1
  0
XRECORD
  5
378D
102
{ACAD_REACTORS
330
3789
102
}
330
3789
100
AcDbXrecord
280
     1
270
     1
271
     1
  0
XRECORD
  5
378F
102
{ACAD_REACTORS
330
3789
102
}
330
3789
100
AcDbXrecord
280
     1
270
     1
271
     1
  0
XRECORD
  5
378C
102
{ACAD_REACTORS
330
3789
102
}
330
3789
100
AcDbXrecord
280
     1
270
     1
271
     1
  0
XRECORD
  5
3875
102
{ACAD_REACTORS
330
3799
102
}
330
3799
100
AcDbXrecord
280
     1
102
MATERIAL
148
0.0
149
0.0
149
0.0
 93
        0
 94
      127
282
     0
 72
     0
 77
     0
171
     0
175
     0
179
     0
273
     0
  0
XRECORD
  5
379B
102
{ACAD_REACTORS
330
3799
102
}
330
3799
100
AcDbXrecord
280
     1
270
     1
271
     1
  0
XRECORD
  5
379A
102
{ACAD_REACTORS
330
3799
102
}
330
3799
100
AcDbXrecord
280
     1
270
     1
271
     1
  0
XRECORD
  5
379E
102
{ACAD_REACTORS
330
3799
102
}
330
3799
100
AcDbXrecord
280
     1
270
     1
271
     1
  0
XRECORD
  5
379D
102
{ACAD_REACTORS
330
3799
102
}
330
3799
100
AcDbXrecord
280
     1
270
     1
271
     1
  0
XRECORD
  5
379F
102
{ACAD_REACTORS
330
3799
102
}
330
3799
100
AcDbXrecord
280
     1
270
     1
271
     1
  0
XRECORD
  5
379C
102
{ACAD_REACTORS
330
3799
102
}
330
3799
100
AcDbXrecord
280
     1
270
     1
271
     1
  0
CELLSTYLEMAP
  5
386C
102
{ACAD_REACTORS
330
3808
102
}
330
3808
100
AcDbCellStyleMap
 90
        3
300
CELLSTYLE
  1
TABLEFORMAT_BEGIN
 90
        5
170
     1
 91
        0
 92
    32768
 62
   257
 93
        1
300
CONTENTFORMAT
  1
CONTENTFORMAT_BEGIN
 90
        0
 91
        0
 92
        4
 93
        0
300

 40
0.0
140
1.0
 94
        5
 62
     0
340
2EE8
144
0.25
309
CONTENTFORMAT_END
171
     1
301
MARGIN
  1
CELLMARGIN_BEGIN
 40
0.06
 40
0.06
 40
0.06
 40
0.06
 40
0.18
 40
0.18
309
CELLMARGIN_END
 94
        6
 95
        1
302
GRIDFORMAT
  1
GRIDFORMAT_BEGIN
 90
        0
 91
        1
 62
     0
 92
       -2
340
0
 93
        0
 40
0.045
309
GRIDFORMAT_END
 95
        2
302
GRIDFORMAT
  1
GRIDFORMAT_BEGIN
 90
        0
 91
        1
 62
     0
 92
       -2
340
0
 93
        0
 40
0.045
309
GRIDFORMAT_END
 95
        4
302
GRIDFORMAT
  1
GRIDFORMAT_BEGIN
 90
        0
 91
        1
 62
     0
 92
       -2
340
0
 93
        0
 40
0.045
309
GRIDFORMAT_END
 95
        8
302
GRIDFORMAT
  1
GRIDFORMAT_BEGIN
 90
        0
 91
        1
 62
     0
 92
       -2
340
0
 93
        0
 40
0.045
309
GRIDFORMAT_END
 95
       16
302
GRIDFORMAT
  1
GRIDFORMAT_BEGIN
 90
        0
 91
        1
 62
     0
 92
       -2
340
0
 93
        0
 40
0.045
309
GRIDFORMAT_END
 95
       32
302
GRIDFORMAT
  1
GRIDFORMAT_BEGIN
 90
        0
 91
        1
 62
     0
 92
       -2
340
0
 93
        0
 40
0.045
309
GRIDFORMAT_END
309
TABLEFORMAT_END
  1
CELLSTYLE_BEGIN
 90
        1
 91
        1
300
_TITLE
309
CELLSTYLE_END
300
CELLSTYLE
  1
TABLEFORMAT_BEGIN
 90
        5
170
     1
 91
        0
 92
        0
 62
   257
 93
        1
300
CONTENTFORMAT
  1
CONTENTFORMAT_BEGIN
 90
        0
 91
        0
 92
        4
 93
        0
300

 40
0.0
140
1.0
 94
        5
 62
     0
340
2EE8
144
0.18
309
CONTENTFORMAT_END
171
     1
301
MARGIN
  1
CELLMARGIN_BEGIN
 40
0.06
 40
0.06
 40
0.06
 40
0.06
 40
0.18
 40
0.18
309
CELLMARGIN_END
 94
        6
 95
        1
302
GRIDFORMAT
  1
GRIDFORMAT_BEGIN
 90
        0
 91
        1
 62
     0
 92
       -2
340
0
 93
        0
 40
0.045
309
GRIDFORMAT_END
 95
        2
302
GRIDFORMAT
  1
GRIDFORMAT_BEGIN
 90
        0
 91
        1
 62
     0
 92
       -2
340
0
 93
        0
 40
0.045
309
GRIDFORMAT_END
 95
        4
302
GRIDFORMAT
  1
GRIDFORMAT_BEGIN
 90
        0
 91
        1
 62
     0
 92
       -2
340
0
 93
        0
 40
0.045
309
GRIDFORMAT_END
 95
        8
302
GRIDFORMAT
  1
GRIDFORMAT_BEGIN
 90
        0
 91
        1
 62
     0
 92
       -2
340
0
 93
        0
 40
0.045
309
GRIDFORMAT_END
 95
       16
302
GRIDFORMAT
  1
GRIDFORMAT_BEGIN
 90
        0
 91
        1
 62
     0
 92
       -2
340
0
 93
        0
 40
0.045
309
GRIDFORMAT_END
 95
       32
302
GRIDFORMAT
  1
GRIDFORMAT_BEGIN
 90
        0
 91
        1
 62
     0
 92
       -2
340
0
 93
        0
 40
0.045
309
GRIDFORMAT_END
309
TABLEFORMAT_END
  1
CELLSTYLE_BEGIN
 90
        2
 91
        1
300
_HEADER
309
CELLSTYLE_END
300
CELLSTYLE
  1
TABLEFORMAT_BEGIN
 90
        5
170
     1
 91
        0
 92
        0
 62
   257
 93
        1
300
CONTENTFORMAT
  1
CONTENTFORMAT_BEGIN
 90
        0
 91
        0
 92
        4
 93
        0
300

 40
0.0
140
1.0
 94
        2
 62
     0
340
2EE8
144
0.18
309
CONTENTFORMAT_END
171
     1
301
MARGIN
  1
CELLMARGIN_BEGIN
 40
0.06
 40
0.06
 40
0.06
 40
0.06
 40
0.18
 40
0.18
309
CELLMARGIN_END
 94
        6
 95
        1
302
GRIDFORMAT
  1
GRIDFORMAT_BEGIN
 90
        0
 91
        1
 62
     0
 92
       -2
340
0
 93
        0
 40
0.045
309
GRIDFORMAT_END
 95
        2
302
GRIDFORMAT
  1
GRIDFORMAT_BEGIN
 90
        0
 91
        1
 62
     0
 92
       -2
340
0
 93
        0
 40
0.045
309
GRIDFORMAT_END
 95
        4
302
GRIDFORMAT
  1
GRIDFORMAT_BEGIN
 90
        0
 91
        1
 62
     0
 92
       -2
340
0
 93
        0
 40
0.045
309
GRIDFORMAT_END
 95
        8
302
GRIDFORMAT
  1
GRIDFORMAT_BEGIN
 90
        0
 91
        1
 62
     0
 92
       -2
340
0
 93
        0
 40
0.045
309
GRIDFORMAT_END
 95
       16
302
GRIDFORMAT
  1
GRIDFORMAT_BEGIN
 90
        0
 91
        1
 62
     0
 92
       -2
340
0
 93
        0
 40
0.045
309
GRIDFORMAT_END
 95
       32
302
GRIDFORMAT
  1
GRIDFORMAT_BEGIN
 90
        0
 91
        1
 62
     0
 92
       -2
340
0
 93
        0
 40
0.045
309
GRIDFORMAT_END
309
TABLEFORMAT_END
  1
CELLSTYLE_BEGIN
 90
        3
 91
        2
300
_DATA
309
CELLSTYLE_END
  0
XRECORD
  5
386E
102
{ACAD_REACTORS
330
3808
102
}
330
3808
100
AcDbXrecord
280
     1
102
ACAD_ROUNDTRIP_PRE2007_TABLESTYLE
 90
        4
 91
        0
  1

 92
        4
 93
        0
  2

 94
        4
 95
        0
  3

  0
ENDSEC
  0
EOF
