  0
SECTION
  2
HEADER
  9
$ACADVER
  1
AC1015
  9
$ACADMAINTVER
 70
    20
  9
$DWGCODEPAGE
  3
ANSI_932
  9
$INSBASE
 10
0.0
 20
0.0
 30
0.0
  9
$EXTMIN
 10
0.0000000000000462
 20
0.0000000000000391
 30
0.0
  9
$EXTMAX
 10
370.45
 20
523.4999999999993
 30
0.0
  9
$LIMMIN
 10
0.0
 20
0.0
  9
$LIMMAX
 10
420.0
 20
297.0
  9
$ORTHOMODE
 70
     0
  9
$REGENMODE
 70
     1
  9
$FILLMODE
 70
     1
  9
$QTEXTMODE
 70
     0
  9
$MIRRTEXT
 70
     0
  9
$LTSCALE
 40
1.0
  9
$ATTMODE
 70
     1
  9
$TEXTSIZE
 40
2.5
  9
$TRACEWID
 40
1.0
  9
$TEXTSTYLE
  7
Standard
  9
$CLAYER
  8
電気錠
  9
$CELTYPE
  6
ByLayer
  9
$CECOLOR
 62
   256
  9
$CELTSCALE
 40
1.0
  9
$DISPSILH
 70
     0
  9
$DIMSCALE
 40
1.0
  9
$DIMASZ
 40
2.5
  9
$DIMEXO
 40
0.625
  9
$DIMDLI
 40
3.75
  9
$DIMRND
 40
0.0
  9
$DIMDLE
 40
0.0
  9
$DIMEXE
 40
1.25
  9
$DIMTP
 40
0.0
  9
$DIMTM
 40
0.0
  9
$DIMTXT
 40
2.5
  9
$DIMCEN
 40
2.5
  9
$DIMTSZ
 40
0.0
  9
$DIMTOL
 70
     0
  9
$DIMLIM
 70
     0
  9
$DIMTIH
 70
     0
  9
$DIMTOH
 70
     0
  9
$DIMSE1
 70
     0
  9
$DIMSE2
 70
     0
  9
$DIMTAD
 70
     1
  9
$DIMZIN
 70
     8
  9
$DIMBLK
  1

  9
$DIMASO
 70
     1
  9
$DIMSHO
 70
     1
  9
$DIMPOST
  1

  9
$DIMAPOST
  1

  9
$DIMALT
 70
     0
  9
$DIMALTD
 70
     3
  9
$DIMALTF
 40
0.03937007874016
  9
$DIMLFAC
 40
1.0
  9
$DIMTOFL
 70
     1
  9
$DIMTVP
 40
0.0
  9
$DIMTIX
 70
     0
  9
$DIMSOXD
 70
     0
  9
$DIMSAH
 70
     0
  9
$DIMBLK1
  1

  9
$DIMBLK2
  1

  9
$DIMSTYLE
  2
ISO-25
  9
$DIMCLRD
 70
     0
  9
$DIMCLRE
 70
     0
  9
$DIMCLRT
 70
     0
  9
$DIMTFAC
 40
1.0
  9
$DIMGAP
 40
0.625
  9
$DIMJUST
 70
     0
  9
$DIMSD1
 70
     0
  9
$DIMSD2
 70
     0
  9
$DIMTOLJ
 70
     0
  9
$DIMTZIN
 70
     8
  9
$DIMALTZ
 70
     0
  9
$DIMALTTZ
 70
     0
  9
$DIMUPT
 70
     0
  9
$DIMDEC
 70
     2
  9
$DIMTDEC
 70
     2
  9
$DIMALTU
 70
     2
  9
$DIMALTTD
 70
     3
  9
$DIMTXSTY
  7
Standard
  9
$DIMAUNIT
 70
     0
  9
$DIMADEC
 70
     0
  9
$DIMALTRND
 40
0.0
  9
$DIMAZIN
 70
     0
  9
$DIMDSEP
 70
    44
  9
$DIMATFIT
 70
     3
  9
$DIMFRAC
 70
     0
  9
$DIMLDRBLK
  1

  9
$DIMLUNIT
 70
     2
  9
$DIMLWD
 70
    -2
  9
$DIMLWE
 70
    -2
  9
$DIMTMOVE
 70
     0
  9
$LUNITS
 70
     2
  9
$LUPREC
 70
     4
  9
$SKETCHINC
 40
1.0
  9
$FILLETRAD
 40
0.0
  9
$AUNITS
 70
     0
  9
$AUPREC
 70
     0
  9
$MENU
  1
.
  9
$ELEVATION
 40
0.0
  9
$PELEVATION
 40
0.0
  9
$THICKNESS
 40
0.0
  9
$LIMCHECK
 70
     0
  9
$CHAMFERA
 40
0.0
  9
$CHAMFERB
 40
0.0
  9
$CHAMFERC
 40
0.0
  9
$CHAMFERD
 40
0.0
  9
$SKPOLY
 70
     0
  9
$TDCREATE
 40
2455682.522393299
  9
$TDUCREATE
 40
2455682.147393299
  9
$TDUPDATE
 40
2456553.620752859
  9
$TDUUPDATE
 40
2456553.245752859
  9
$TDINDWG
 40
10.2091710648
  9
$TDUSRTIMER
 40
10.2091674537
  9
$USRTIMER
 70
     1
  9
$ANGBASE
 50
0.0
  9
$ANGDIR
 70
     0
  9
$PDMODE
 70
     0
  9
$PDSIZE
 40
0.0
  9
$PLINEWID
 40
0.0
  9
$SPLFRAME
 70
     0
  9
$SPLINETYPE
 70
     6
  9
$SPLINESEGS
 70
     8
  9
$HANDSEED
  5
2AAF
  9
$SURFTAB1
 70
     6
  9
$SURFTAB2
 70
     6
  9
$SURFTYPE
 70
     6
  9
$SURFU
 70
     6
  9
$SURFV
 70
     6
  9
$UCSBASE
  2

  9
$UCSNAME
  2

  9
$UCSORG
 10
0.0
 20
0.0
 30
0.0
  9
$UCSXDIR
 10
1.0
 20
0.0
 30
0.0
  9
$UCSYDIR
 10
0.0
 20
1.0
 30
0.0
  9
$UCSORTHOREF
  2

  9
$UCSORTHOVIEW
 70
     0
  9
$UCSORGTOP
 10
0.0
 20
0.0
 30
0.0
  9
$UCSORGBOTTOM
 10
0.0
 20
0.0
 30
0.0
  9
$UCSORGLEFT
 10
0.0
 20
0.0
 30
0.0
  9
$UCSORGRIGHT
 10
0.0
 20
0.0
 30
0.0
  9
$UCSORGFRONT
 10
0.0
 20
0.0
 30
0.0
  9
$UCSORGBACK
 10
0.0
 20
0.0
 30
0.0
  9
$PUCSBASE
  2

  9
$PUCSNAME
  2

  9
$PUCSORG
 10
0.0
 20
0.0
 30
0.0
  9
$PUCSXDIR
 10
1.0
 20
0.0
 30
0.0
  9
$PUCSYDIR
 10
0.0
 20
1.0
 30
0.0
  9
$PUCSORTHOREF
  2

  9
$PUCSORTHOVIEW
 70
     0
  9
$PUCSORGTOP
 10
0.0
 20
0.0
 30
0.0
  9
$PUCSORGBOTTOM
 10
0.0
 20
0.0
 30
0.0
  9
$PUCSORGLEFT
 10
0.0
 20
0.0
 30
0.0
  9
$PUCSORGRIGHT
 10
0.0
 20
0.0
 30
0.0
  9
$PUCSORGFRONT
 10
0.0
 20
0.0
 30
0.0
  9
$PUCSORGBACK
 10
0.0
 20
0.0
 30
0.0
  9
$USERI1
 70
     0
  9
$USERI2
 70
     0
  9
$USERI3
 70
     0
  9
$USERI4
 70
     0
  9
$USERI5
 70
     0
  9
$USERR1
 40
0.0
  9
$USERR2
 40
0.0
  9
$USERR3
 40
0.0
  9
$USERR4
 40
0.0
  9
$USERR5
 40
0.0
  9
$WORLDVIEW
 70
     1
  9
$SHADEDGE
 70
     3
  9
$SHADEDIF
 70
    70
  9
$TILEMODE
 70
     1
  9
$MAXACTVP
 70
    64
  9
$PINSBASE
 10
0.0
 20
0.0
 30
0.0
  9
$PLIMCHECK
 70
     0
  9
$PEXTMIN
 10
0.0
 20
0.0
 30
0.0
  9
$PEXTMAX
 10
0.0
 20
0.0
 30
0.0
  9
$PLIMMIN
 10
0.0
 20
0.0
  9
$PLIMMAX
 10
12.0
 20
9.0
  9
$UNITMODE
 70
     0
  9
$VISRETAIN
 70
     1
  9
$PLINEGEN
 70
     0
  9
$PSLTSCALE
 70
     1
  9
$TREEDEPTH
 70
  3020
  9
$CMLSTYLE
  2
Standard
  9
$CMLJUST
 70
     0
  9
$CMLSCALE
 40
20.0
  9
$PROXYGRAPHICS
 70
     1
  9
$MEASUREMENT
 70
     1
  9
$CELWEIGHT
370
    -1
  9
$ENDCAPS
280
     0
  9
$JOINSTYLE
280
     0
  9
$LWDISPLAY
290
     0
  9
$INSUNITS
 70
     4
  9
$HYPERLINKBASE
  1

  9
$STYLESHEET
  1

  9
$XEDIT
290
     1
  9
$CEPSNTYPE
380
     0
  9
$PSTYLEMODE
290
     1
  9
$FINGERPRINTGUID
  2
{88137889-E097-4682-8C02-ED7EC889CCF7}
  9
$VERSIONGUID
  2
{59F03CA0-C70E-405B-85B2-2A0B2354CAFF}
  9
$EXTNAMES
290
     1
  9
$PSVPSCALE
 40
0.0
  9
$OLESTARTUP
290
     0
  0
ENDSEC
  0
SECTION
  2
CLASSES
  0
CLASS
  1
ACDBDICTIONARYWDFLT
  2
AcDbDictionaryWithDefault
  3
ObjectDBX Classes
 90
        0
280
     0
281
     0
  0
CLASS
  1
ACDBPLACEHOLDER
  2
AcDbPlaceHolder
  3
ObjectDBX Classes
 90
        0
280
     0
281
     0
  0
CLASS
  1
LAYOUT
  2
AcDbLayout
  3
ObjectDBX Classes
 90
        0
280
     0
281
     0
  0
CLASS
  1
DICTIONARYVAR
  2
AcDbDictionaryVar
  3
ObjectDBX Classes
 90
        0
280
     0
281
     0
  0
CLASS
  1
TABLESTYLE
  2
AcDbTableStyle
  3
ObjectDBX Classes
 90
     4095
280
     0
281
     0
  0
CLASS
  1
MATERIAL
  2
AcDbMaterial
  3
ObjectDBX Classes
 90
     1153
280
     0
281
     0
  0
CLASS
  1
VISUALSTYLE
  2
AcDbVisualStyle
  3
ObjectDBX Classes
 90
     4095
280
     0
281
     0
  0
CLASS
  1
SCALE
  2
AcDbScale
  3
ObjectDBX Classes
 90
     1153
280
     0
281
     0
  0
CLASS
  1
MLEADERSTYLE
  2
AcDbMLeaderStyle
  3
ACDB_MLEADERSTYLE_CLASS
 90
     4095
280
     0
281
     0
  0
CLASS
  1
CELLSTYLEMAP
  2
AcDbCellStyleMap
  3
ObjectDBX Classes
 90
     1152
280
     0
281
     0
  0
CLASS
  1
SORTENTSTABLE
  2
AcDbSortentsTable
  3
ObjectDBX Classes
 90
        0
280
     0
281
     0
  0
CLASS
  1
DIMASSOC
  2
AcDbDimAssoc
  3
"AcDbDimAssoc|Product Desc:     AcDim ARX App For Dimension|Company:          Autodesk, Inc.|WEB Address:      www.autodesk.com"
 90
        0
280
     0
281
     0
  0
ENDSEC
  0
SECTION
  2
TABLES
  0
TABLE
  2
VPORT
  5
8
102
{ACAD_XDICTIONARY
360
17DD
102
}
330
0
100
AcDbSymbolTable
 70
     1
  0
VPORT
  5
1CAC
330
8
100
AcDbSymbolTableRecord
100
AcDbViewportTableRecord
  2
*Active
 70
     0
 10
0.0
 20
0.0
 11
1.0
 21
1.0
 12
881.3094156620289
 22
261.750001218868
 13
0.0
 23
0.0
 14
10.0
 24
10.0
 15
10.0
 25
10.0
 16
0.0
 26
0.0
 36
1.0
 17
0.0
 27
0.0
 37
0.0
 40
527.6129229877749
 41
3.098290598290598
 42
50.0
 43
0.0
 44
0.0
 50
0.0
 51
0.0
 71
     0
 72
  1000
 73
     1
 74
     3
 75
     0
 76
     0
 77
     0
 78
     0
281
     0
 65
     1
110
0.0
120
0.0
130
0.0
111
1.0
121
0.0
131
0.0
112
0.0
122
1.0
132
0.0
 79
     0
146
0.0
  0
ENDTAB
  0
TABLE
  2
LTYPE
  5
5
330
0
100
AcDbSymbolTable
 70
     3
  0
LTYPE
  5
14
330
5
100
AcDbSymbolTableRecord
100
AcDbLinetypeTableRecord
  2
ByBlock
 70
     0
  3

 72
    65
 73
     0
 40
0.0
  0
LTYPE
  5
15
330
5
100
AcDbSymbolTableRecord
100
AcDbLinetypeTableRecord
  2
ByLayer
 70
     0
  3

 72
    65
 73
     0
 40
0.0
  0
LTYPE
  5
16
330
5
100
AcDbSymbolTableRecord
100
AcDbLinetypeTableRecord
  2
Continuous
 70
     0
  3
Solid line
 72
    65
 73
     0
 40
0.0
  0
LTYPE
  5
324
330
5
100
AcDbSymbolTableRecord
100
AcDbLinetypeTableRecord
  2
DASHED
 70
     0
  3
__ __ __ __ __ __ __ __ __ __ __ __ __ __ __
 72
    65
 73
     2
 40
0.75
 49
0.5
 74
     0
 49
-0.25
 74
     0
  0
LTYPE
  5
325
330
5
100
AcDbSymbolTableRecord
100
AcDbLinetypeTableRecord
  2
BORDER
 70
     0
  3
__ __ . __ __ . __ __ . __ __ . __ __ . __ __
 72
    65
 73
     6
 40
1.75
 49
0.5
 74
     0
 49
-0.25
 74
     0
 49
0.5
 74
     0
 49
-0.25
 74
     0
 49
0.0
 74
     0
 49
-0.25
 74
     0
  0
ENDTAB
  0
TABLE
  2
LAYER
  5
2
102
{ACAD_XDICTIONARY
360
1887
102
}
330
0
100
AcDbSymbolTable
 70
     5
  0
LAYER
  5
10
102
{ACAD_XDICTIONARY
360
13C
102
}
330
2
100
AcDbSymbolTableRecord
100
AcDbLayerTableRecord
  2
0
 70
     0
 62
     7
  6
Continuous
370
    -3
390
F
  0
LAYER
  5
326
330
2
100
AcDbSymbolTableRecord
100
AcDbLayerTableRecord
  2
DEFPOINTS
 70
     0
 62
     7
  6
Continuous
290
     0
370
    -3
390
F
  0
LAYER
  5
327
102
{ACAD_XDICTIONARY
360
1580
102
}
330
2
100
AcDbSymbolTableRecord
100
AcDbLayerTableRecord
  2
電気錠
 70
     0
 62
     7
  6
Continuous
370
    -3
390
F
  0
LAYER
  5
328
102
{ACAD_XDICTIONARY
360
1582
102
}
330
2
100
AcDbSymbolTableRecord
100
AcDbLayerTableRecord
  2
寸法線
 70
     0
 62
     7
  6
Continuous
370
    -3
390
F
  0
LAYER
  5
1B55
330
2
100
AcDbSymbolTableRecord
100
AcDbLayerTableRecord
  2
補足
 70
     0
 62
     7
  6
Continuous
370
    -3
390
F
1001
AcAecLayerStandard
1000

1000

  0
ENDTAB
  0
TABLE
  2
STYLE
  5
3
330
0
100
AcDbSymbolTable
 70
     3
  0
STYLE
  5
11
330
3
100
AcDbSymbolTableRecord
100
AcDbTextStyleTableRecord
  2
Standard
 70
     0
 40
0.0
 41
1.0
 50
0.0
 71
     0
 42
2.5
  3
txt
  4
extfont2.shx
  0
STYLE
  5
132
330
3
100
AcDbSymbolTableRecord
100
AcDbTextStyleTableRecord
  2
Annotative
 70
     0
 40
0.0
 41
1.0
 50
0.0
 71
     0
 42
2.5
  3
txt.shx
  4
extfont2.shx
1001
AcadAnnotative
1000
AnnotativeData
1002
{
1070
     1
1070
     1
1002
}
  0
STYLE
  5
329
330
3
100
AcDbSymbolTableRecord
100
AcDbTextStyleTableRecord
  2
BIGFONT
 70
     0
 40
0.0
 41
1.0
 50
0.0
 71
     0
 42
0.2
  3
MS PMincho.ttf
  4

1001
ACAD
1000
MS PMincho
1071
    32786
  0
ENDTAB
  0
TABLE
  2
VIEW
  5
6
330
0
100
AcDbSymbolTable
 70
     0
  0
ENDTAB
  0
TABLE
  2
UCS
  5
7
330
0
100
AcDbSymbolTable
 70
     0
  0
ENDTAB
  0
TABLE
  2
APPID
  5
9
330
0
100
AcDbSymbolTable
 70
    10
  0
APPID
  5
12
330
9
100
AcDbSymbolTableRecord
100
AcDbRegAppTableRecord
  2
ACAD
 70
     0
  0
APPID
  5
9E
330
9
100
AcDbSymbolTableRecord
100
AcDbRegAppTableRecord
  2
ACAD_PSEXT
 70
     0
  0
APPID
  5
133
330
9
100
AcDbSymbolTableRecord
100
AcDbRegAppTableRecord
  2
AcadAnnoPO
 70
     0
  0
APPID
  5
134
330
9
100
AcDbSymbolTableRecord
100
AcDbRegAppTableRecord
  2
AcadAnnotative
 70
     0
  0
APPID
  5
135
330
9
100
AcDbSymbolTableRecord
100
AcDbRegAppTableRecord
  2
ACAD_DSTYLE_DIMJAG
 70
     0
  0
APPID
  5
136
330
9
100
AcDbSymbolTableRecord
100
AcDbRegAppTableRecord
  2
ACAD_DSTYLE_DIMTALN
 70
     0
  0
APPID
  5
165
330
9
100
AcDbSymbolTableRecord
100
AcDbRegAppTableRecord
  2
ACAD_MLEADERVER
 70
     0
  0
APPID
  5
32B
330
9
100
AcDbSymbolTableRecord
100
AcDbRegAppTableRecord
  2
ACAD_DSTYLE_DIMRADIAL_EXTENSION
 70
     0
  0
APPID
  5
923
330
9
100
AcDbSymbolTableRecord
100
AcDbRegAppTableRecord
  2
ACAD_EXEMPT_FROM_CAD_STANDARDS
 70
     0
  0
APPID
  5
1B56
330
9
100
AcDbSymbolTableRecord
100
AcDbRegAppTableRecord
  2
AcAecLayerStandard
 70
     0
  0
ENDTAB
  0
TABLE
  2
DIMSTYLE
  5
A
330
0
100
AcDbSymbolTable
 70
     3
100
AcDbDimStyleTable
 71
     2
340
27
340
137
  0
DIMSTYLE
105
27
102
{ACAD_REACTORS
330
7F0
330
93B
330
95C
330
992
330
9B3
330
A19
330
A35
330
A57
330
A6F
330
AF5
330
B0D
330
B25
330
B58
330
BA4
330
BBC
330
CB6
330
11CC
330
11E4
330
1200
330
1218
330
123D
330
1265
330
127D
330
1820
330
1D7F
330
24D2
330
24D4
330
2505
330
27F4
330
27F5
330
27F6
330
27F7
330
2826
102
}
330
A
100
AcDbSymbolTableRecord
100
AcDbDimStyleTableRecord
  2
ISO-25
 70
     0
 41
2.5
 42
0.625
 43
3.75
 44
1.25
 73
     0
 74
     0
 77
     1
 78
     8
140
2.5
141
2.5
143
0.03937007874016
147
0.625
171
     3
172
     1
271
     2
272
     2
274
     3
278
    44
283
     0
284
     8
340
11
  0
DIMSTYLE
105
137
330
A
100
AcDbSymbolTableRecord
100
AcDbDimStyleTableRecord
  2
Annotative
 70
     0
 40
0.0
 41
2.5
 42
0.625
 43
3.75
 44
1.25
 73
     0
 74
     0
 77
     1
 78
     8
140
2.5
141
2.5
143
0.03937007874016
147
0.625
171
     3
172
     1
271
     2
272
     2
274
     3
278
    44
283
     0
284
     8
340
11
1001
AcadAnnotative
1000
AnnotativeData
1002
{
1070
     1
1070
     1
1002
}
1001
ACAD_DSTYLE_DIMJAG
1070
   388
1040
1.5
1001
ACAD_DSTYLE_DIMTALN
1070
   392
1070
     0
  0
DIMSTYLE
105
32A
330
A
100
AcDbSymbolTableRecord
100
AcDbDimStyleTableRecord
  2
STANDARD
 70
     0
 41
3.0
 44
1.0
 73
     0
 74
     0
 77
     1
140
3.5
147
1.0
172
     1
279
     2
340
329
  0
ENDTAB
  0
TABLE
  2
BLOCK_RECORD
  5
1
330
0
100
AcDbSymbolTable
 70
    40
  0
BLOCK_RECORD
  5
1F
102
{ACAD_XDICTIONARY
360
8F5
102
}
330
1
100
AcDbSymbolTableRecord
100
AcDbBlockTableRecord
  2
*Model_Space
340
22
  0
BLOCK_RECORD
  5
D2
330
1
100
AcDbSymbolTableRecord
100
AcDbBlockTableRecord
  2
*Paper_Space
340
D3
  0
BLOCK_RECORD
  5
D6
330
1
100
AcDbSymbolTableRecord
100
AcDbBlockTableRecord
  2
*Paper_Space0
340
D7
  0
BLOCK_RECORD
  5
1B1
330
1
100
AcDbSymbolTableRecord
100
AcDbBlockTableRecord
  2
waku
340
0
310
2800000020000000200000000100080000000000000400000000000000000000000000000000000000000000000080000080000000808000800000008000800080800000C0C0C000C0DCC000F0CAA6000020400000206000002080000020A0000020C0000020E00000400000004020000040400000406000004080000040A0
310
000040C0000040E00000600000006020000060400000606000006080000060A0000060C0000060E00000800000008020000080400000806000008080000080A0000080C0000080E00000A0000000A0200000A0400000A0600000A0800000A0A00000A0C00000A0E00000C0000000C0200000C0400000C0600000C0800000C0
310
A00000C0C00000C0E00000E0000000E0200000E0400000E0600000E0800000E0A00000E0C00000E0E00040000000400020004000400040006000400080004000A0004000C0004000E00040200000402020004020400040206000402080004020A0004020C0004020E000404000004040200040404000404060004040800040
310
40A0004040C0004040E00040600000406020004060400040606000406080004060A0004060C0004060E00040800000408020004080400040806000408080004080A0004080C0004080E00040A0000040A0200040A0400040A0600040A0800040A0A00040A0C00040A0E00040C0000040C0200040C0400040C0600040C08000
310
40C0A00040C0C00040C0E00040E0000040E0200040E0400040E0600040E0800040E0A00040E0C00040E0E00080000000800020008000400080006000800080008000A0008000C0008000E00080200000802020008020400080206000802080008020A0008020C0008020E00080400000804020008040400080406000804080
310
008040A0008040C0008040E00080600000806020008060400080606000806080008060A0008060C0008060E00080800000808020008080400080806000808080008080A0008080C0008080E00080A0000080A0200080A0400080A0600080A0800080A0A00080A0C00080A0E00080C0000080C0200080C0400080C0600080C0
310
800080C0A00080C0C00080C0E00080E0000080E0200080E0400080E0600080E0800080E0A00080E0C00080E0E000C0000000C0002000C0004000C0006000C0008000C000A000C000C000C000E000C0200000C0202000C0204000C0206000C0208000C020A000C020C000C020E000C0400000C0402000C0404000C0406000C0
310
408000C040A000C040C000C040E000C0600000C0602000C0604000C0606000C0608000C060A000C060C000C060E000C0800000C0802000C0804000C0806000C0808000C080A000C080C000C080E000C0A00000C0A02000C0A04000C0A06000C0A08000C0A0A000C0A0C000C0A0E000C0C00000C0C02000C0C04000C0C06000
310
C0C08000C0C0A000F0FBFF00A4A0A000808080000000FF0000FF000000FFFF00FF000000FF00FF00FFFF0000FFFFFF00FFFFFFFFFFFFFFFFFFFFFFFFFFFFFFFFFFFFFFFFFFFFFFFFFFFFFFFFFFFFFFFFFFFFFFFFFFFF0000000000000000000000000000000000000000FFFFFFFFFFFFFFFFFFFFFFFF00FFFFFFFFFFFFFFFF
310
FFFFFFFFFFFFFFFFFFFF00FFFFFFFFFFFFFFFFFFFFFFFF00FFFFFFFFFFFFFFFFFFFFFFFFFFFFFFFFFFFF00FFFFFFFFFFFFFFFFFFFFFFFF00FFFFFFFFFFFFFFFFFFFFFFFFFFFFFFFFFFFF00FFFFFFFFFFFFFFFFFFFFFFFF00FFFFFFFFFFFFFFFFFFFFFFFFFFFFFFFFFFFF00FFFFFFFFFFFFFFFFFFFFFFFF00FFFFFFFFFFFFFF
310
FFFFFFFFFFFFFFFFFFFFFF00FFFFFFFFFFFFFFFFFFFFFFFF00FFFFFFFFFFFFFFFFFFFFFFFFFFFFFFFFFFFF00FFFFFFFFFFFFFFFFFFFFFFFF00FFFFFFFFFFFFFFFFFFFFFFFFFFFFFFFFFFFF00FFFFFFFFFFFFFFFFFFFFFFFF00FFFFFFFFFFFFFFFFFFFFFFFFFFFFFFFFFFFF00FFFFFFFFFFFFFFFFFFFFFFFF00FFFFFFFFFFFF
310
FFFFFFFFFFFFFFFFFFFFFFFF00FFFFFFFFFFFFFFFFFFFFFFFF00FFFFFFFFFFFFFFFFFFFFFFFFFFFFFFFFFFFF00FFFFFFFFFFFFFFFFFFFFFFFF00FFFFFFFFFFFFFFFFFFFFFFFFFFFFFFFFFFFF00FFFFFFFFFFFFFFFFFFFFFFFF00FFFFFFFFFFFFFFFFFFFFFFFFFFFFFFFFFFFF00FFFFFFFFFFFFFFFFFFFFFFFF00FFFFFFFFFF
310
FFFFFFFFFFFFFFFFFFFFFFFFFF00FFFFFFFFFFFFFFFFFFFFFFFF00FFFFFFFFFFFFFFFFFFFFFFFFFFFFFFFFFFFF00FFFFFFFFFFFFFFFFFFFFFFFF00FFFFFFFFFFFFFFFFFFFFFFFFFFFFFFFFFFFF00FFFFFFFFFFFFFFFFFFFFFFFF00FFFFFFFFFFFFFFFFFFFFFFFFFFFFFFFFFFFF00FFFFFFFFFFFFFFFFFFFFFFFF00FFFFFFFF
310
FFFFFFFFFFFFFFFFFFFFFFFFFFFF00FFFFFFFFFFFFFFFFFFFFFFFF00FFFFFFFFFFFFFFFFFFFFFFFFFFFFFFFFFFFF00FFFFFFFFFFFFFFFFFFFFFFFF00FFFFFFFFFFFFFFFFFFFFFFFFFFFFFFFFFFFF00FFFFFFFFFFFFFFFFFFFFFFFF00FFFFFFFFFFFFFFFFFFFFFFFFFFFFFFFFFFFF00FFFFFFFFFFFFFFFFFFFFFFFF00FFFFFF
310
FFFFFFFFFFFFFFFFFFFFFFFFFFFFFF00FFFFFFFFFFFFFFFFFFFFFFFF00FFFFFFFFFFFFFFFFFFFFFFFFFFFFFFFFFFFF00FFFFFFFFFFFFFFFFFFFFFFFF00FFFFFFFFFFFFFFFFFFFFFFFFFFFFFFFFFFFF00FFFFFFFFFFFFFFFFFFFFFFFF00FFFFFFFFFFFFFFFFFFFFFFFFFFFFFFFFFFFF00FFFFFFFFFFFFFFFFFFFFFFFF00FFFF
310
FFFFFFFFFFFFFFFFFFFFFFFFFFFFFFFF00FFFFFFFFFFFFFFFFFFFFFFFF00FFFFFFFFFFFFFFFFFFFFFFFFFFFFFFFFFFFF00FFFFFFFFFFFFFFFFFFFFFFFF00FFFFFFFFFFFFFFFFFFFFFFFFFFFFFFFFFFFF00FFFFFFFFFFFFFFFFFFFFFFFF00FFFFFFFFFFFFFFFFFFFFFFFFFFFFFFFFFFFF00FFFFFFFFFFFFFFFFFFFFFFFF0000
310
000000000000000000000000000000000000FFFFFFFFFFFFFFFFFFFFFFFFFFFFFFFFFFFFFFFFFFFFFFFFFFFFFFFFFFFFFFFFFFFFFFFFFFFF
  0
BLOCK_RECORD
  5
2BA
330
1
100
AcDbSymbolTableRecord
100
AcDbBlockTableRecord
  2
*U2
340
0
102
{BLKREFS
331
567
102
}
  0
BLOCK_RECORD
  5
2C1
330
1
100
AcDbSymbolTableRecord
100
AcDbBlockTableRecord
  2
*U3
340
0
102
{BLKREFS
331
58B
102
}
  0
BLOCK_RECORD
  5
2C8
330
1
100
AcDbSymbolTableRecord
100
AcDbBlockTableRecord
  2
*U4
340
0
102
{BLKREFS
331
5C5
102
}
  0
BLOCK_RECORD
  5
2DB
330
1
100
AcDbSymbolTableRecord
100
AcDbBlockTableRecord
  2
*U5
340
0
102
{BLKREFS
331
2EA
102
}
  0
BLOCK_RECORD
  5
2E5
330
1
100
AcDbSymbolTableRecord
100
AcDbBlockTableRecord
  2
*U6
340
0
102
{BLKREFS
331
5CA
102
}
  0
BLOCK_RECORD
  5
7F1
330
1
100
AcDbSymbolTableRecord
100
AcDbBlockTableRecord
  2
*D7
340
0
  0
BLOCK_RECORD
  5
93C
330
1
100
AcDbSymbolTableRecord
100
AcDbBlockTableRecord
  2
*D8
340
0
  0
BLOCK_RECORD
  5
95D
330
1
100
AcDbSymbolTableRecord
100
AcDbBlockTableRecord
  2
*D9
340
0
  0
BLOCK_RECORD
  5
993
330
1
100
AcDbSymbolTableRecord
100
AcDbBlockTableRecord
  2
*D10
340
0
  0
BLOCK_RECORD
  5
9B4
330
1
100
AcDbSymbolTableRecord
100
AcDbBlockTableRecord
  2
*D11
340
0
  0
BLOCK_RECORD
  5
A1A
330
1
100
AcDbSymbolTableRecord
100
AcDbBlockTableRecord
  2
*D12
340
0
  0
BLOCK_RECORD
  5
A36
330
1
100
AcDbSymbolTableRecord
100
AcDbBlockTableRecord
  2
*D13
340
0
  0
BLOCK_RECORD
  5
A58
330
1
100
AcDbSymbolTableRecord
100
AcDbBlockTableRecord
  2
*D14
340
0
  0
BLOCK_RECORD
  5
A70
330
1
100
AcDbSymbolTableRecord
100
AcDbBlockTableRecord
  2
*D15
340
0
  0
BLOCK_RECORD
  5
AF6
330
1
100
AcDbSymbolTableRecord
100
AcDbBlockTableRecord
  2
*D16
340
0
  0
BLOCK_RECORD
  5
B0E
330
1
100
AcDbSymbolTableRecord
100
AcDbBlockTableRecord
  2
*D17
340
0
  0
BLOCK_RECORD
  5
B26
330
1
100
AcDbSymbolTableRecord
100
AcDbBlockTableRecord
  2
*D18
340
0
  0
BLOCK_RECORD
  5
B59
330
1
100
AcDbSymbolTableRecord
100
AcDbBlockTableRecord
  2
*D19
340
0
  0
BLOCK_RECORD
  5
BA5
330
1
100
AcDbSymbolTableRecord
100
AcDbBlockTableRecord
  2
*D20
340
0
  0
BLOCK_RECORD
  5
BBD
330
1
100
AcDbSymbolTableRecord
100
AcDbBlockTableRecord
  2
*D21
340
0
  0
BLOCK_RECORD
  5
CB7
330
1
100
AcDbSymbolTableRecord
100
AcDbBlockTableRecord
  2
*D22
340
0
  0
BLOCK_RECORD
  5
11CD
330
1
100
AcDbSymbolTableRecord
100
AcDbBlockTableRecord
  2
*D23
340
0
  0
BLOCK_RECORD
  5
11E5
330
1
100
AcDbSymbolTableRecord
100
AcDbBlockTableRecord
  2
*D24
340
0
  0
BLOCK_RECORD
  5
1201
330
1
100
AcDbSymbolTableRecord
100
AcDbBlockTableRecord
  2
*D25
340
0
  0
BLOCK_RECORD
  5
1219
330
1
100
AcDbSymbolTableRecord
100
AcDbBlockTableRecord
  2
*D26
340
0
  0
BLOCK_RECORD
  5
123E
330
1
100
AcDbSymbolTableRecord
100
AcDbBlockTableRecord
  2
*D27
340
0
  0
BLOCK_RECORD
  5
1266
330
1
100
AcDbSymbolTableRecord
100
AcDbBlockTableRecord
  2
*D28
340
0
  0
BLOCK_RECORD
  5
127E
330
1
100
AcDbSymbolTableRecord
100
AcDbBlockTableRecord
  2
*D29
340
0
  0
BLOCK_RECORD
  5
1821
330
1
100
AcDbSymbolTableRecord
100
AcDbBlockTableRecord
  2
*D30
340
0
  0
BLOCK_RECORD
  5
1D80
330
1
100
AcDbSymbolTableRecord
100
AcDbBlockTableRecord
  2
*D31
340
0
  0
BLOCK_RECORD
  5
2518
330
1
100
AcDbSymbolTableRecord
100
AcDbBlockTableRecord
  2
*D32
340
0
  0
BLOCK_RECORD
  5
2530
330
1
100
AcDbSymbolTableRecord
100
AcDbBlockTableRecord
  2
*D33
340
0
  0
BLOCK_RECORD
  5
2553
330
1
100
AcDbSymbolTableRecord
100
AcDbBlockTableRecord
  2
*D34
340
0
  0
BLOCK_RECORD
  5
282C
330
1
100
AcDbSymbolTableRecord
100
AcDbBlockTableRecord
  2
*D35
340
0
  0
BLOCK_RECORD
  5
2838
330
1
100
AcDbSymbolTableRecord
100
AcDbBlockTableRecord
  2
*D36
340
0
  0
BLOCK_RECORD
  5
2844
330
1
100
AcDbSymbolTableRecord
100
AcDbBlockTableRecord
  2
*D37
340
0
  0
BLOCK_RECORD
  5
284F
330
1
100
AcDbSymbolTableRecord
100
AcDbBlockTableRecord
  2
*D38
340
0
  0
BLOCK_RECORD
  5
285B
330
1
100
AcDbSymbolTableRecord
100
AcDbBlockTableRecord
  2
*D39
340
0
  0
ENDTAB
  0
ENDSEC
  0
SECTION
  2
BLOCKS
  0
BLOCK
  5
20
330
1F
100
AcDbEntity
  8
0
100
AcDbBlockBegin
  2
*Model_Space
 70
     0
 10
0.0
 20
0.0
 30
0.0
  3
*Model_Space
  1

  0
ENDBLK
  5
21
330
1F
100
AcDbEntity
  8
0
100
AcDbBlockEnd
  0
BLOCK
  5
D4
330
D2
100
AcDbEntity
 67
     1
  8
0
100
AcDbBlockBegin
  2
*Paper_Space
 70
     0
 10
0.0
 20
0.0
 30
0.0
  3
*Paper_Space
  1

  0
ENDBLK
  5
D5
330
D2
100
AcDbEntity
 67
     1
  8
0
100
AcDbBlockEnd
  0
BLOCK
  5
D8
330
D6
100
AcDbEntity
 67
     1
  8
0
100
AcDbBlockBegin
  2
*Paper_Space0
 70
     0
 10
0.0
 20
0.0
 30
0.0
  3
*Paper_Space0
  1

  0
ENDBLK
  5
D9
330
D6
100
AcDbEntity
 67
     1
  8
0
100
AcDbBlockEnd
  0
BLOCK
  5
1B2
330
1B1
100
AcDbEntity
  8
0
100
AcDbBlockBegin
  2
waku
 70
     0
 10
0.0
 20
0.0
 30
0.0
  3
waku
  1

  0
LINE
  5
1B3
330
1B1
100
AcDbEntity
  8
0
100
AcDbLine
 10
4.15
 20
8.274999999999996
 30
0.0
 11
189.375
 21
8.274999999999996
 31
0.0
  0
LINE
  5
1B4
330
1B1
100
AcDbEntity
  8
0
100
AcDbLine
 10
189.375
 20
8.274999999999996
 30
0.0
 11
189.375
 21
280.0749999999999
 31
0.0
  0
LINE
  5
1B5
330
1B1
100
AcDbEntity
  8
0
100
AcDbLine
 10
189.375
 20
280.0749999999999
 30
0.0
 11
4.15
 21
280.0749999999999
 31
0.0
  0
LINE
  5
1B6
330
1B1
100
AcDbEntity
  8
0
100
AcDbLine
 10
4.15
 20
280.0749999999999
 30
0.0
 11
4.15
 21
8.274999999999996
 31
0.0
  0
ENDBLK
  5
1B7
330
1B1
100
AcDbEntity
  8
0
100
AcDbBlockEnd
  0
BLOCK
  5
2BB
330
2BA
100
AcDbEntity
  8
0
100
AcDbBlockBegin
  2
*U2
 70
     1
 10
0.0
 20
0.0
 30
0.0
  3
*U2
  1

  0
ARC
  5
2BC
330
2BA
100
AcDbEntity
  8
電気錠
  6
Continuous
 62
     7
100
AcDbCircle
 10
88.0
 20
69.0
 30
0.0
 40
2.2
100
AcDbArc
 50
0.0
 51
180.0
  0
ARC
  5
2BD
330
2BA
100
AcDbEntity
  8
電気錠
  6
Continuous
 62
     7
100
AcDbCircle
 10
88.0
 20
46.0
 30
0.0
 40
2.2
100
AcDbArc
 50
180.0
 51
0.0
  0
LINE
  5
2BE
330
2BA
100
AcDbEntity
  8
電気錠
  6
Continuous
 62
     7
100
AcDbLine
 10
90.20000000000001
 20
46.0
 30
0.0
 11
90.20000000000001
 21
69.0
 31
0.0
  0
LINE
  5
2BF
330
2BA
100
AcDbEntity
  8
電気錠
  6
Continuous
 62
     7
100
AcDbLine
 10
85.8
 20
69.0
 30
0.0
 11
85.8
 21
46.0
 31
0.0
  0
ENDBLK
  5
2C0
330
2BA
100
AcDbEntity
  8
0
100
AcDbBlockEnd
  0
BLOCK
  5
2C2
330
2C1
100
AcDbEntity
  8
0
100
AcDbBlockBegin
  2
*U3
 70
     1
 10
0.0
 20
0.0
 30
0.0
  3
*U3
  1

  0
ARC
  5
2C3
330
2C1
100
AcDbEntity
  8
電気錠
  6
Continuous
 62
     7
100
AcDbCircle
 10
-162.0
 20
69.0
 30
0.0
 40
2.2
100
AcDbArc
 50
0.0
 51
180.0
  0
ARC
  5
2C4
330
2C1
100
AcDbEntity
  8
電気錠
  6
Continuous
 62
     7
100
AcDbCircle
 10
-162.0
 20
46.0
 30
0.0
 40
2.2
100
AcDbArc
 50
180.0
 51
0.0
  0
LINE
  5
2C5
330
2C1
100
AcDbEntity
  8
電気錠
  6
Continuous
 62
     7
100
AcDbLine
 10
-159.8
 20
46.0
 30
0.0
 11
-159.8
 21
69.0
 31
0.0
  0
LINE
  5
2C6
330
2C1
100
AcDbEntity
  8
電気錠
  6
Continuous
 62
     7
100
AcDbLine
 10
-164.2
 20
69.0
 30
0.0
 11
-164.2
 21
46.0
 31
0.0
  0
ENDBLK
  5
2C7
330
2C1
100
AcDbEntity
  8
0
100
AcDbBlockEnd
  0
BLOCK
  5
2C9
330
2C8
100
AcDbEntity
  8
0
100
AcDbBlockBegin
  2
*U4
 70
     1
 10
0.0
 20
0.0
 30
0.0
  3
*U4
  1

  0
LINE
  5
2CA
330
2C8
100
AcDbEntity
  8
電気錠
  6
Continuous
 62
     7
100
AcDbLine
 10
110.4999972152
 20
77.0
 30
0.0
 11
-176.5
 21
77.0
 31
0.0
  0
LINE
  5
2CB
330
2C8
100
AcDbEntity
  8
電気錠
  6
Continuous
 62
     7
100
AcDbLine
 10
115.0
 20
80.99986181309999
 30
0.0
 11
-181.0
 21
80.99986181309999
 31
0.0
  0
LINE
  5
2CC
330
2C8
100
AcDbEntity
  8
電気錠
  6
Continuous
 62
     7
100
AcDbLine
 10
115.0
 20
79.00001792970001
 30
0.0
 11
-181.0
 21
79.00001792970001
 31
0.0
  0
LINE
  5
2CD
330
2C8
100
AcDbEntity
  8
電気錠
  6
Continuous
 62
     7
100
AcDbLine
 10
-174.0
 20
77.0
 30
0.0
 11
110.0
 21
77.0
 31
0.0
  0
ARC
  5
2CE
330
2C8
100
AcDbEntity
  8
電気錠
  6
Continuous
 62
     7
100
AcDbCircle
 10
-176.5
 20
74.0
 30
0.0
 40
3.0
100
AcDbArc
 50
90.0
 51
180.0
  0
LINE
  5
2CF
330
2C8
100
AcDbEntity
  8
電気錠
  6
Continuous
 62
     7
100
AcDbLine
 10
-179.5
 20
74.0
 30
0.0
 11
-179.5
 21
38.0
 31
0.0
  0
LINE
  5
2D0
330
2C8
100
AcDbEntity
  8
電気錠
  6
Continuous
 62
     7
100
AcDbLine
 10
-182.0
 20
38.0
 30
0.0
 11
-179.5
 21
38.0
 31
0.0
  0
LINE
  5
2D1
330
2C8
100
AcDbEntity
  8
電気錠
  6
Continuous
 62
     7
100
AcDbLine
 10
-182.0
 20
80.0
 30
0.0
 11
-182.0
 21
38.0
 31
0.0
  0
ARC
  5
2D2
330
2C8
100
AcDbEntity
  8
電気錠
  6
Continuous
 62
     7
100
AcDbCircle
 10
-181.0
 20
80.0
 30
0.0
 40
1.0
100
AcDbArc
 50
90.0
 51
180.0
  0
ARC
  5
2D3
330
2C8
100
AcDbEntity
  8
電気錠
  6
Continuous
 62
     7
100
AcDbCircle
 10
-181.0
 20
78.0001561167
 30
0.0
 40
0.999779232
100
AcDbArc
 50
90.0
 51
180.0000013966
  0
LINE
  5
2D4
330
2C8
100
AcDbEntity
  8
電気錠
  6
Continuous
 62
     7
100
AcDbLine
 10
116.0
 20
38.0
 30
0.0
 11
113.4995854392
 21
38.0
 31
0.0
  0
ARC
  5
2D5
330
2C8
100
AcDbEntity
  8
電気錠
  6
Continuous
 62
     7
100
AcDbCircle
 10
115.0
 20
80.0
 30
0.0
 40
1.0
100
AcDbArc
 50
0.0
 51
90.0
  0
ARC
  5
2D6
330
2C8
100
AcDbEntity
  8
電気錠
  6
Continuous
 62
     7
100
AcDbCircle
 10
115.0
 20
78.0
 30
0.0
 40
1.0
100
AcDbArc
 50
0.0
 51
90.0
  0
ARC
  5
2D7
330
2C8
100
AcDbEntity
  8
電気錠
  6
Continuous
 62
     7
100
AcDbCircle
 10
110.4999972152
 20
74.0
 30
0.0
 40
3.0
100
AcDbArc
 50
0.0
 51
89.99994680749997
  0
LINE
  5
2D8
330
2C8
100
AcDbEntity
  8
電気錠
  6
Continuous
 62
     7
100
AcDbLine
 10
116.0
 20
80.0
 30
0.0
 11
116.0
 21
38.0
 31
0.0
  0
LINE
  5
2D9
330
2C8
100
AcDbEntity
  8
電気錠
  6
Continuous
 62
     7
100
AcDbLine
 10
113.4995854392
 20
74.0
 30
0.0
 11
113.4995854392
 21
38.0
 31
0.0
  0
ENDBLK
  5
2DA
330
2C8
100
AcDbEntity
  8
0
100
AcDbBlockEnd
  0
BLOCK
  5
2DC
330
2DB
100
AcDbEntity
  8
0
100
AcDbBlockBegin
  2
*U5
 70
     1
 10
0.0
 20
0.0
 30
0.0
  3
*U5
  1

  0
ARC
  5
2DD
330
2DB
100
AcDbEntity
  8
電気錠
  6
Continuous
 62
     7
100
AcDbCircle
 10
-180.8000006908
 20
-26.8002487601
 30
0.0
 40
1.199999999999999
100
AcDbArc
 50
180.0
 51
270.0
  0
ARC
  5
2DE
330
2DB
100
AcDbEntity
  8
電気錠
  6
Continuous
 62
     7
100
AcDbCircle
 10
-179.5574561508
 20
-25.5820689241
 30
0.0
 40
1.199999999999999
100
AcDbArc
 50
180.0
 51
270.0
  0
ARC
  5
2DF
330
2DB
100
AcDbEntity
  8
電気錠
  6
Continuous
 62
     7
100
AcDbCircle
 10
-180.8000006908
 20
8.7997512399
 30
0.0
 40
1.199999999999999
100
AcDbArc
 50
90.0
 51
180.0
  0
LINE
  5
2E0
330
2DB
100
AcDbEntity
  8
電気錠
  6
Continuous
 62
     7
100
AcDbLine
 10
-182.0000006908
 20
8.7997512399
 30
0.0
 11
-182.0000006908
 21
-26.8002487601
 31
0.0
  0
LINE
  5
2E1
330
2DB
100
AcDbEntity
  8
電気錠
  6
Continuous
 62
     7
100
AcDbLine
 10
-180.8000006908
 20
9.9997512399
 30
0.0
 11
-179.5574561508
 21
9.9997512399
 31
0.0
  0
ARC
  5
2E2
330
2DB
100
AcDbEntity
  8
電気錠
  6
Continuous
 62
     7
100
AcDbCircle
 10
-179.7574561508
 20
8.199751239899999
 30
0.0
 40
1.0
100
AcDbArc
 50
90.0
 51
180.0
  0
LINE
  5
2E3
330
2DB
100
AcDbEntity
  8
電気錠
  6
Continuous
 62
     7
100
AcDbLine
 10
-180.7574561508
 20
8.199751239899999
 30
0.0
 11
-180.7574561508
 21
-25.5820689241
 31
0.0
  0
ENDBLK
  5
2E4
330
2DB
100
AcDbEntity
  8
0
100
AcDbBlockEnd
  0
BLOCK
  5
2E6
330
2E5
100
AcDbEntity
  8
0
100
AcDbBlockBegin
  2
*U6
 70
     1
 10
0.0
 20
0.0
 30
0.0
  3
*U6
  1

  0
LINE
  5
2E7
330
2E5
100
AcDbEntity
  8
電気錠
  6
Continuous
 62
     7
100
AcDbLine
 10
-180.8
 20
-28.00024876010001
 30
0.0
 11
114.8
 21
-28.00024876010001
 31
0.0
  0
ARC
  5
2E8
330
2E5
100
AcDbEntity
  8
電気錠
  6
Continuous
 62
     7
100
AcDbCircle
 10
-180.8
 20
-26.8002487601
 30
0.0
 40
1.199999999999999
100
AcDbArc
 50
180.0
 51
270.0
  0
LINE
  5
2E9
330
2E5
100
AcDbEntity
  8
電気錠
  6
Continuous
 62
     7
100
AcDbLine
 10
113.55745546
 20
-26.7820689241
 30
0.0
 11
-180.2091869126
 21
-26.7820689241
 31
0.0
  0
INSERT
  5
2EA
330
2E5
100
AcDbEntity
  8
電気錠
100
AcDbBlockReference
  2
*U5
 10
0.0
 20
0.0
 30
0.0
  0
LINE
  5
2EB
330
2E5
100
AcDbEntity
  8
電気錠
  6
Continuous
 62
     7
100
AcDbLine
 10
-179.5574561508
 20
9.9997512399
 30
0.0
 11
113.55745546
 21
9.9997512399
 31
0.0
  0
LINE
  5
2EC
330
2E5
100
AcDbEntity
  8
電気錠
  6
Continuous
 62
     7
100
AcDbLine
 10
113.75745546
 20
9.199751239899999
 30
0.0
 11
-179.7574561508
 21
9.199751239899999
 31
0.0
  0
LINE
  5
2ED
330
2E5
100
AcDbEntity
  8
電気錠
  6
Continuous
 62
     7
100
AcDbLine
 10
114.3833211863
 20
-2.000148833399999
 30
0.0
 11
-180.7574561508
 21
-2.000148833399999
 31
0.0
  0
LINE
  5
2EE
330
2E5
100
AcDbEntity
  8
電気錠
  6
Continuous
 62
     7
100
AcDbLine
 10
114.75745546
 20
8.199751239899999
 30
0.0
 11
114.75745546
 21
-25.5820689241
 31
0.0
  0
ARC
  5
2EF
330
2E5
100
AcDbEntity
  8
電気錠
  6
Continuous
 62
     7
100
AcDbCircle
 10
113.75745546
 20
8.199751239899999
 30
0.0
 40
1.0
100
AcDbArc
 50
0.0
 51
90.0
  0
LINE
  5
2F0
330
2E5
100
AcDbEntity
  8
電気錠
  6
Continuous
 62
     7
100
AcDbLine
 10
114.8
 20
9.9997512399
 30
0.0
 11
113.55745546
 21
9.9997512399
 31
0.0
  0
LINE
  5
2F1
330
2E5
100
AcDbEntity
  8
電気錠
  6
Continuous
 62
     7
100
AcDbLine
 10
116.0
 20
8.7997512399
 30
0.0
 11
116.0
 21
-26.8002487601
 31
0.0
  0
ARC
  5
2F2
330
2E5
100
AcDbEntity
  8
電気錠
  6
Continuous
 62
     7
100
AcDbCircle
 10
114.8
 20
8.7997512399
 30
0.0
 40
1.199999999999999
100
AcDbArc
 50
0.0
 51
90.0
  0
ARC
  5
2F3
330
2E5
100
AcDbEntity
  8
電気錠
  6
Continuous
 62
     7
100
AcDbCircle
 10
113.55745546
 20
-25.5820689241
 30
0.0
 40
1.199999999999999
100
AcDbArc
 50
270.0
 51
0.0
  0
ARC
  5
2F4
330
2E5
100
AcDbEntity
  8
電気錠
  6
Continuous
 62
     7
100
AcDbCircle
 10
114.8
 20
-26.8002487601
 30
0.0
 40
1.199999999999999
100
AcDbArc
 50
270.0
 51
0.0
  0
ENDBLK
  5
2F5
330
2E5
100
AcDbEntity
  8
0
100
AcDbBlockEnd
  0
BLOCK
  5
7F2
330
7F1
100
AcDbEntity
  8
0
100
AcDbBlockBegin
  2
*D7
 70
     1
 10
0.0
 20
0.0
 30
0.0
  3
*D7
  1

  0
LINE
  5
2A87
330
7F1
100
AcDbEntity
  8
寸法線
 62
     0
370
    -2
100
AcDbLine
 10
29.35433986964909
 20
275.8869253771004
 30
0.0
 11
29.35433986964909
 21
244.4657791448384
 31
0.0
  0
LINE
  5
2A88
330
7F1
100
AcDbEntity
  8
寸法線
 62
     0
370
    -2
100
AcDbLine
 10
327.3543398696491
 20
275.8869253771003
 30
0.0
 11
327.3543398696491
 21
244.4657791448384
 31
0.0
  0
LINE
  5
2A89
330
7F1
100
AcDbEntity
  8
寸法線
 62
     0
370
    -2
100
AcDbLine
 10
31.85433986964909
 20
245.7157791448384
 30
0.0
 11
324.8543398696492
 21
245.7157791448384
 31
0.0
  0
SOLID
  5
2A8A
330
7F1
100
AcDbEntity
  8
寸法線
 62
     0
100
AcDbTrace
 10
31.85433986964909
 20
246.1324458115051
 30
0.0
 11
31.85433986964909
 21
245.2991124781718
 31
0.0
 12
29.35433986964909
 22
245.7157791448384
 32
0.0
 13
29.35433986964909
 23
245.7157791448384
 33
0.0
  0
SOLID
  5
2A8B
330
7F1
100
AcDbEntity
  8
寸法線
 62
     0
100
AcDbTrace
 10
324.8543398696492
 20
246.1324458115051
 30
0.0
 11
324.8543398696492
 21
245.2991124781718
 31
0.0
 12
327.3543398696491
 22
245.7157791448384
 32
0.0
 13
327.3543398696491
 23
245.7157791448384
 33
0.0
  0
MTEXT
  5
2A8C
330
7F1
100
AcDbEntity
  8
寸法線
 62
     0
100
AcDbMText
 10
178.3543398696491
 20
250.3407791448384
 30
0.0
 40
8.0
 41
0.0
 71
     5
 72
     1
  1
298
 73
     1
 44
1.0
1001
ACAD
1000
MTEXTBEGIN
1070
    73
1070
     1
1070
    44
1040
1.0
1070
    74
1070
     0
1000
MTEXTEND
  0
POINT
  5
2A8D
330
7F1
100
AcDbEntity
  8
DEFPOINTS
 62
     0
100
AcDbPoint
 10
29.35433986964909
 20
276.5119253771004
 30
0.0
  0
POINT
  5
2A8E
330
7F1
100
AcDbEntity
  8
DEFPOINTS
 62
     0
100
AcDbPoint
 10
327.3543398696491
 20
276.5119253771003
 30
0.0
  0
POINT
  5
2A8F
330
7F1
100
AcDbEntity
  8
DEFPOINTS
 62
     0
100
AcDbPoint
 10
327.3543398696491
 20
245.7157791448384
 30
0.0
  0
ENDBLK
  5
7F3
330
7F1
100
AcDbEntity
  8
0
100
AcDbBlockEnd
  0
BLOCK
  5
93D
330
93C
100
AcDbEntity
  8
0
100
AcDbBlockBegin
  2
*D8
 70
     1
 10
0.0
 20
0.0
 30
0.0
  3
*D8
  1

  0
LINE
  5
2A7E
330
93C
100
AcDbEntity
  8
寸法線
 62
     0
370
    -2
100
AcDbLine
 10
137.3543398696491
 20
291.9903648171638
 30
0.0
 11
137.3543398696491
 21
286.1791120839239
 31
0.0
  0
LINE
  5
2A7F
330
93C
100
AcDbEntity
  8
寸法線
 62
     0
370
    -2
100
AcDbLine
 10
219.3543398696491
 20
291.9903648171638
 30
0.0
 11
219.3543398696491
 21
286.1791120839239
 31
0.0
  0
LINE
  5
2A80
330
93C
100
AcDbEntity
  8
寸法線
 62
     0
370
    -2
100
AcDbLine
 10
139.8543398696491
 20
287.4291120839239
 30
0.0
 11
216.8543398696491
 21
287.4291120839239
 31
0.0
  0
SOLID
  5
2A81
330
93C
100
AcDbEntity
  8
寸法線
 62
     0
100
AcDbTrace
 10
139.8543398696491
 20
287.8457787505906
 30
0.0
 11
139.8543398696491
 21
287.0124454172572
 31
0.0
 12
137.3543398696491
 22
287.4291120839239
 32
0.0
 13
137.3543398696491
 23
287.4291120839239
 33
0.0
  0
SOLID
  5
2A82
330
93C
100
AcDbEntity
  8
寸法線
 62
     0
100
AcDbTrace
 10
216.8543398696491
 20
287.8457787505906
 30
0.0
 11
216.8543398696491
 21
287.0124454172572
 31
0.0
 12
219.3543398696491
 22
287.4291120839239
 32
0.0
 13
219.3543398696491
 23
287.4291120839239
 33
0.0
  0
MTEXT
  5
2A83
330
93C
100
AcDbEntity
  8
寸法線
 62
     0
100
AcDbMText
 10
172.0750137340551
 20
290.5541120839239
 30
0.0
 40
5.0
 41
0.0
 71
     5
 72
     1
  1
穴ピッチ 82
 73
     1
 44
1.0
1001
ACAD
1000
MTEXTBEGIN
1070
    73
1070
     1
1070
    44
1040
1.0
1070
    74
1070
     0
1000
MTEXTEND
  0
POINT
  5
2A84
330
93C
100
AcDbEntity
  8
DEFPOINTS
 62
     0
100
AcDbPoint
 10
137.3543398696491
 20
292.6153648171638
 30
0.0
  0
POINT
  5
2A85
330
93C
100
AcDbEntity
  8
DEFPOINTS
 62
     0
100
AcDbPoint
 10
219.3543398696491
 20
292.6153648171638
 30
0.0
  0
POINT
  5
2A86
330
93C
100
AcDbEntity
  8
DEFPOINTS
 62
     0
100
AcDbPoint
 10
219.3543398696491
 20
287.4291120839239
 30
0.0
  0
ENDBLK
  5
93E
330
93C
100
AcDbEntity
  8
0
100
AcDbBlockEnd
  0
BLOCK
  5
95E
330
95D
100
AcDbEntity
  8
0
100
AcDbBlockBegin
  2
*D9
 70
     1
 10
0.0
 20
0.0
 30
0.0
  3
*D9
  1

  0
LINE
  5
2A76
330
95D
100
AcDbEntity
  8
寸法線
 62
     0
370
    -2
100
AcDbLine
 10
265.5405663781508
 20
303.8798339934325
 30
0.0
 11
223.9290009734009
 21
299.4940828055636
 31
0.0
  0
LINE
  5
2A77
330
95D
100
AcDbEntity
  8
寸法線
 62
     0
370
    -2
100
AcDbLine
 10
214.7796787658961
 20
298.5297679486373
 30
0.0
 11
212.2934499051615
 21
298.2677258679508
 31
0.0
  0
MTEXT
  5
2A78
330
95D
100
AcDbEntity
  8
寸法線
 62
     0
100
AcDbMText
 10
251.6630664862894
 20
305.5594907296095
 30
0.0
 40
5.0
 41
0.0
 71
     5
 72
     1
  1
2-φ4.2
 11
0.9944915442938281
 21
0.1048168322745767
 31
0.0
 73
     1
 44
1.0
1001
ACAD
1000
MTEXTBEGIN
1070
    73
1070
     1
1070
    44
1040
1.0
1070
    74
1070
     0
1000
MTEXTEND
  0
LINE
  5
2A79
330
95D
100
AcDbEntity
  8
寸法線
 62
     0
370
    -2
100
AcDbLine
 10
217.2659076266306
 20
298.7918100293237
 30
0.0
 11
221.4427721126663
 21
299.2320407248771
 31
0.0
  0
SOLID
  5
2A7A
330
95D
100
AcDbEntity
  8
寸法線
 62
     0
100
AcDbTrace
 10
214.7360050857817
 20
298.9441394254263
 30
0.0
 11
214.8233524460104
 21
298.1153964718481
 31
0.0
 12
217.2659076266306
 22
298.7918100293237
 32
0.0
 13
217.2659076266306
 23
298.7918100293237
 33
0.0
  0
SOLID
  5
2A7B
330
95D
100
AcDbEntity
  8
寸法線
 62
     0
100
AcDbTrace
 10
223.8853272932865
 20
299.9084542823526
 30
0.0
 11
223.9726746535153
 21
299.0797113287744
 31
0.0
 12
221.4427721126663
 22
299.2320407248771
 32
0.0
 13
221.4427721126663
 23
299.2320407248771
 33
0.0
  0
POINT
  5
2A7C
330
95D
100
AcDbEntity
  8
DEFPOINTS
 62
     0
100
AcDbPoint
 10
221.4427721126663
 20
299.2320407248771
 30
0.0
  0
POINT
  5
2A7D
330
95D
100
AcDbEntity
  8
DEFPOINTS
 62
     0
100
AcDbPoint
 10
217.2659076266306
 20
298.7918100293237
 30
0.0
  0
ENDBLK
  5
95F
330
95D
100
AcDbEntity
  8
0
100
AcDbBlockEnd
  0
BLOCK
  5
994
330
993
100
AcDbEntity
  8
0
100
AcDbBlockBegin
  2
*D10
 70
     1
 10
0.0
 20
0.0
 30
0.0
  3
*D10
  1

  0
LINE
  5
2A6D
330
993
100
AcDbEntity
  8
寸法線
 62
     0
370
    -2
100
AcDbLine
 10
325.7793398696492
 20
376.7953704300638
 30
0.0
 11
353.0979772233247
 21
376.7953704300638
 31
0.0
  0
LINE
  5
2A6E
330
993
100
AcDbEntity
  8
寸法線
 62
     0
370
    -2
100
AcDbLine
 10
325.7793398696492
 20
338.7953704300638
 30
0.0
 11
353.0979772233247
 21
338.7953704300638
 31
0.0
  0
LINE
  5
2A6F
330
993
100
AcDbEntity
  8
寸法線
 62
     0
370
    -2
100
AcDbLine
 10
351.8479772233247
 20
374.2953704300638
 30
0.0
 11
351.8479772233247
 21
341.2953704300638
 31
0.0
  0
SOLID
  5
2A70
330
993
100
AcDbEntity
  8
寸法線
 62
     0
100
AcDbTrace
 10
351.431310556658
 20
374.2953704300638
 30
0.0
 11
352.2646438899914
 21
374.2953704300638
 31
0.0
 12
351.8479772233247
 22
376.7953704300638
 32
0.0
 13
351.8479772233247
 23
376.7953704300638
 33
0.0
  0
SOLID
  5
2A71
330
993
100
AcDbEntity
  8
寸法線
 62
     0
100
AcDbTrace
 10
351.431310556658
 20
341.2953704300638
 30
0.0
 11
352.2646438899914
 21
341.2953704300638
 31
0.0
 12
351.8479772233247
 22
338.7953704300638
 32
0.0
 13
351.8479772233247
 23
338.7953704300638
 33
0.0
  0
MTEXT
  5
2A72
330
993
100
AcDbEntity
  8
寸法線
 62
     0
100
AcDbMText
 10
347.2229772233246
 20
357.7953704300638
 30
0.0
 40
8.0
 41
0.0
 71
     5
 72
     1
  1
38
 11
0.0000000000000001
 21
1.0
 31
0.0
 73
     1
 44
1.0
1001
ACAD
1000
MTEXTBEGIN
1070
    73
1070
     1
1070
    44
1040
1.0
1070
    74
1070
     0
1000
MTEXTEND
  0
POINT
  5
2A73
330
993
100
AcDbEntity
  8
DEFPOINTS
 62
     0
100
AcDbPoint
 10
325.1543398696492
 20
376.7953704300638
 30
0.0
  0
POINT
  5
2A74
330
993
100
AcDbEntity
  8
DEFPOINTS
 62
     0
100
AcDbPoint
 10
325.1543398696492
 20
338.7953704300638
 30
0.0
  0
POINT
  5
2A75
330
993
100
AcDbEntity
  8
DEFPOINTS
 62
     0
100
AcDbPoint
 10
351.8479772233247
 20
338.7953704300638
 30
0.0
  0
ENDBLK
  5
995
330
993
100
AcDbEntity
  8
0
100
AcDbBlockEnd
  0
BLOCK
  5
9B5
330
9B4
100
AcDbEntity
  8
0
100
AcDbBlockBegin
  2
*D11
 70
     1
 10
0.0
 20
0.0
 30
0.0
  3
*D11
  1

  0
LINE
  5
2A64
330
9B4
100
AcDbEntity
  8
寸法線
 62
     0
370
    -2
100
AcDbLine
 10
264.9173706408963
 20
189.9356418504586
 30
0.0
 11
264.9173706408963
 21
217.4954349432421
 31
0.0
  0
LINE
  5
2A65
330
9B4
100
AcDbEntity
  8
寸法線
 62
     0
370
    -2
100
AcDbLine
 10
307.7782726057307
 20
208.8197554904912
 30
0.0
 11
307.7782726057307
 21
217.4954349432421
 31
0.0
  0
LINE
  5
2A66
330
9B4
100
AcDbEntity
  8
寸法線
 62
     0
370
    -2
100
AcDbLine
 10
267.4173706408963
 20
216.2454349432421
 30
0.0
 11
305.2782726057307
 21
216.2454349432421
 31
0.0
  0
SOLID
  5
2A67
330
9B4
100
AcDbEntity
  8
寸法線
 62
     0
100
AcDbTrace
 10
267.4173706408963
 20
216.6621016099088
 30
0.0
 11
267.4173706408963
 21
215.8287682765755
 31
0.0
 12
264.9173706408963
 22
216.2454349432421
 32
0.0
 13
264.9173706408963
 23
216.2454349432421
 33
0.0
  0
SOLID
  5
2A68
330
9B4
100
AcDbEntity
  8
寸法線
 62
     0
100
AcDbTrace
 10
305.2782726057307
 20
216.6621016099088
 30
0.0
 11
305.2782726057307
 21
215.8287682765755
 31
0.0
 12
307.7782726057307
 22
216.2454349432421
 32
0.0
 13
307.7782726057307
 23
216.2454349432421
 33
0.0
  0
MTEXT
  5
2A69
330
9B4
100
AcDbEntity
  8
寸法線
 62
     0
100
AcDbMText
 10
286.3478216233135
 20
218.6204349432421
 30
0.0
 40
3.5
 41
0.0
 71
     5
 72
     1
  1
(43)
 73
     1
 44
1.0
1001
ACAD
1000
MTEXTBEGIN
1070
    73
1070
     1
1070
    44
1040
1.0
1070
    74
1070
     0
1000
MTEXTEND
  0
POINT
  5
2A6A
330
9B4
100
AcDbEntity
  8
DEFPOINTS
 62
     0
100
AcDbPoint
 10
264.9173706408963
 20
189.3106418504586
 30
0.0
  0
POINT
  5
2A6B
330
9B4
100
AcDbEntity
  8
DEFPOINTS
 62
     0
100
AcDbPoint
 10
307.7782726057307
 20
208.1947554904912
 30
0.0
  0
POINT
  5
2A6C
330
9B4
100
AcDbEntity
  8
DEFPOINTS
 62
     0
100
AcDbPoint
 10
307.7782726057307
 20
216.2454349432421
 30
0.0
  0
ENDBLK
  5
9B6
330
9B4
100
AcDbEntity
  8
0
100
AcDbBlockEnd
  0
BLOCK
  5
A1B
330
A1A
100
AcDbEntity
  8
0
100
AcDbBlockBegin
  2
*D12
 70
     1
 10
0.0
 20
0.0
 30
0.0
  3
*D12
  1

  0
LINE
  5
2A59
330
A1A
100
AcDbEntity
  8
寸法線
 62
     0
370
    -2
100
AcDbLine
 10
303.2782726057306
 20
171.8197554904903
 30
0.0
 11
303.2782726057306
 21
202.7859771384589
 31
0.0
  0
LINE
  5
2A5A
330
A1A
100
AcDbEntity
  8
寸法線
 62
     0
370
    -2
100
AcDbLine
 10
307.7782726057307
 20
199.3197554904903
 30
0.0
 11
307.7782726057307
 21
202.7859771384589
 31
0.0
  0
LINE
  5
2A5B
330
A1A
100
AcDbEntity
  8
寸法線
 62
     0
370
    -2
100
AcDbLine
 10
310.2782726057307
 20
201.5359771384589
 30
0.0
 11
312.7782726057307
 21
201.5359771384589
 31
0.0
  0
LINE
  5
2A5C
330
A1A
100
AcDbEntity
  8
寸法線
 62
     0
370
    -2
100
AcDbLine
 10
300.7782726057306
 20
201.5359771384589
 30
0.0
 11
286.1949392723973
 21
201.5359771384589
 31
0.0
  0
LINE
  5
2A5D
330
A1A
100
AcDbEntity
  8
寸法線
 62
     0
370
    -2
100
AcDbLine
 10
307.7782726057307
 20
201.5359771384589
 30
0.0
 11
303.2782726057306
 21
201.5359771384589
 31
0.0
  0
SOLID
  5
2A5E
330
A1A
100
AcDbEntity
  8
寸法線
 62
     0
100
AcDbTrace
 10
310.2782726057307
 20
201.9526438051256
 30
0.0
 11
310.2782726057307
 21
201.1193104717922
 31
0.0
 12
307.7782726057307
 22
201.5359771384589
 32
0.0
 13
307.7782726057307
 23
201.5359771384589
 33
0.0
  0
SOLID
  5
2A5F
330
A1A
100
AcDbEntity
  8
寸法線
 62
     0
100
AcDbTrace
 10
300.7782726057306
 20
201.9526438051256
 30
0.0
 11
300.7782726057306
 21
201.1193104717922
 31
0.0
 12
303.2782726057306
 22
201.5359771384589
 32
0.0
 13
303.2782726057306
 23
201.5359771384589
 33
0.0
  0
MTEXT
  5
2A60
330
A1A
100
AcDbEntity
  8
寸法線
 62
     0
100
AcDbMText
 10
291.8199392723973
 20
203.6609771384589
 30
0.0
 40
3.0
 41
0.0
 71
     5
 72
     1
  1
(4.5)
 73
     1
 44
1.0
1001
ACAD
1000
MTEXTBEGIN
1070
    73
1070
     1
1070
    44
1040
1.0
1070
    74
1070
     0
1000
MTEXTEND
  0
POINT
  5
2A61
330
A1A
100
AcDbEntity
  8
DEFPOINTS
 62
     0
100
AcDbPoint
 10
303.2782726057306
 20
171.1947554904903
 30
0.0
  0
POINT
  5
2A62
330
A1A
100
AcDbEntity
  8
DEFPOINTS
 62
     0
100
AcDbPoint
 10
307.7782726057307
 20
198.6947554904903
 30
0.0
  0
POINT
  5
2A63
330
A1A
100
AcDbEntity
  8
DEFPOINTS
 62
     0
100
AcDbPoint
 10
307.7782726057307
 20
201.5359771384589
 30
0.0
  0
ENDBLK
  5
A1C
330
A1A
100
AcDbEntity
  8
0
100
AcDbBlockEnd
  0
BLOCK
  5
A37
330
A36
100
AcDbEntity
  8
0
100
AcDbBlockBegin
  2
*D13
 70
     1
 10
0.0
 20
0.0
 30
0.0
  3
*D13
  1

  0
LINE
  5
2A4F
330
A36
100
AcDbEntity
  8
寸法線
 62
     0
370
    -2
100
AcDbLine
 10
303.2782726057306
 20
185.8697554904914
 30
0.0
 11
303.2782726057306
 21
173.2930049904581
 31
0.0
  0
LINE
  5
2A50
330
A36
100
AcDbEntity
  8
寸法線
 62
     0
370
    -2
100
AcDbLine
 10
313.2782726057306
 20
185.8697554904914
 30
0.0
 11
313.2782726057306
 21
173.2930049904581
 31
0.0
  0
LINE
  5
2A51
330
A36
100
AcDbEntity
  8
寸法線
 62
     0
370
    -2
100
AcDbLine
 10
305.7782726057307
 20
174.5430049904581
 30
0.0
 11
310.7782726057306
 21
174.5430049904581
 31
0.0
  0
LINE
  5
2A52
330
A36
100
AcDbEntity
  8
寸法線
 62
     0
370
    -2
100
AcDbLine
 10
313.2782726057306
 20
174.5430049904581
 30
0.0
 11
326.576335164662
 21
174.5430049904581
 31
0.0
  0
SOLID
  5
2A53
330
A36
100
AcDbEntity
  8
寸法線
 62
     0
100
AcDbTrace
 10
305.7782726057307
 20
174.9596716571248
 30
0.0
 11
305.7782726057307
 21
174.1263383237914
 31
0.0
 12
303.2782726057306
 22
174.5430049904581
 32
0.0
 13
303.2782726057306
 23
174.5430049904581
 33
0.0
  0
SOLID
  5
2A54
330
A36
100
AcDbEntity
  8
寸法線
 62
     0
100
AcDbTrace
 10
310.7782726057306
 20
174.9596716571248
 30
0.0
 11
310.7782726057306
 21
174.1263383237914
 31
0.0
 12
313.2782726057306
 22
174.5430049904581
 32
0.0
 13
313.2782726057306
 23
174.5430049904581
 33
0.0
  0
MTEXT
  5
2A55
330
A36
100
AcDbEntity
  8
寸法線
 62
     0
100
AcDbMText
 10
323.9096684979953
 20
176.9180049904581
 30
0.0
 40
3.5
 41
0.0
 71
     5
 72
     1
  1
10
 73
     1
 44
1.0
1001
ACAD
1000
MTEXTBEGIN
1070
    73
1070
     1
1070
    44
1040
1.0
1070
    74
1070
     0
1000
MTEXTEND
  0
POINT
  5
2A56
330
A36
100
AcDbEntity
  8
DEFPOINTS
 62
     0
100
AcDbPoint
 10
303.2782726057306
 20
186.4947554904914
 30
0.0
  0
POINT
  5
2A57
330
A36
100
AcDbEntity
  8
DEFPOINTS
 62
     0
100
AcDbPoint
 10
313.2782726057306
 20
186.4947554904914
 30
0.0
  0
POINT
  5
2A58
330
A36
100
AcDbEntity
  8
DEFPOINTS
 62
     0
100
AcDbPoint
 10
313.2782726057306
 20
174.5430049904581
 30
0.0
  0
ENDBLK
  5
A38
330
A36
100
AcDbEntity
  8
0
100
AcDbBlockEnd
  0
BLOCK
  5
A59
330
A58
100
AcDbEntity
  8
0
100
AcDbBlockBegin
  2
*D14
 70
     1
 10
0.0
 20
0.0
 30
0.0
  3
*D14
  1

  0
LINE
  5
2A46
330
A58
100
AcDbEntity
  8
寸法線
 62
     0
370
    -2
100
AcDbLine
 10
313.9032726057306
 20
196.4947554904914
 30
0.0
 11
324.5066558299307
 21
196.4947554904913
 31
0.0
  0
LINE
  5
2A47
330
A58
100
AcDbEntity
  8
寸法線
 62
     0
370
    -2
100
AcDbLine
 10
306.7782726057306
 20
209.1947554904912
 30
0.0
 11
324.5066558299307
 21
209.1947554904912
 31
0.0
  0
LINE
  5
2A48
330
A58
100
AcDbEntity
  8
寸法線
 62
     0
370
    -2
100
AcDbLine
 10
323.2566558299307
 20
198.9947554904913
 30
0.0
 11
323.2566558299307
 21
206.6947554904912
 31
0.0
  0
SOLID
  5
2A49
330
A58
100
AcDbEntity
  8
寸法線
 62
     0
100
AcDbTrace
 10
322.839989163264
 20
198.9947554904913
 30
0.0
 11
323.6733224965974
 21
198.9947554904913
 31
0.0
 12
323.2566558299307
 22
196.4947554904913
 32
0.0
 13
323.2566558299307
 23
196.4947554904913
 33
0.0
  0
SOLID
  5
2A4A
330
A58
100
AcDbEntity
  8
寸法線
 62
     0
100
AcDbTrace
 10
322.839989163264
 20
206.6947554904912
 30
0.0
 11
323.6733224965974
 21
206.6947554904912
 31
0.0
 12
323.2566558299307
 22
209.1947554904912
 32
0.0
 13
323.2566558299307
 23
209.1947554904912
 33
0.0
  0
MTEXT
  5
2A4B
330
A58
100
AcDbEntity
  8
寸法線
 62
     0
100
AcDbMText
 10
320.589989163264
 20
202.8447554904913
 30
0.0
 40
3.5
 41
0.0
 71
     5
 72
     1
  1
12,7
 11
0.0000000000000001
 21
1.0
 31
0.0
 73
     1
 44
1.0
1001
ACAD
1000
MTEXTBEGIN
1070
    73
1070
     1
1070
    44
1040
1.0
1070
    74
1070
     0
1000
MTEXTEND
  0
POINT
  5
2A4C
330
A58
100
AcDbEntity
  8
DEFPOINTS
 62
     0
100
AcDbPoint
 10
313.2782726057306
 20
196.4947554904914
 30
0.0
  0
POINT
  5
2A4D
330
A58
100
AcDbEntity
  8
DEFPOINTS
 62
     0
100
AcDbPoint
 10
306.1532726057306
 20
209.1947554904912
 30
0.0
  0
POINT
  5
2A4E
330
A58
100
AcDbEntity
  8
DEFPOINTS
 62
     0
100
AcDbPoint
 10
323.2566558299307
 20
209.1947554904912
 30
0.0
  0
ENDBLK
  5
A5A
330
A58
100
AcDbEntity
  8
0
100
AcDbBlockEnd
  0
BLOCK
  5
A71
330
A70
100
AcDbEntity
  8
0
100
AcDbBlockBegin
  2
*D15
 70
     1
 10
0.0
 20
0.0
 30
0.0
  3
*D15
  1

  0
LINE
  5
2A3D
330
A70
100
AcDbEntity
  8
寸法線
 62
     0
370
    -2
100
AcDbLine
 10
313.9032726057306
 20
196.4947554904914
 30
0.0
 11
324.5066558299307
 21
196.4947554904913
 31
0.0
  0
LINE
  5
2A3E
330
A70
100
AcDbEntity
  8
寸法線
 62
     0
370
    -2
100
AcDbLine
 10
313.9032726057306
 20
186.4947554904914
 30
0.0
 11
324.5066558299307
 21
186.4947554904913
 31
0.0
  0
LINE
  5
2A3F
330
A70
100
AcDbEntity
  8
寸法線
 62
     0
370
    -2
100
AcDbLine
 10
323.2566558299307
 20
193.9947554904913
 30
0.0
 11
323.2566558299307
 21
188.9947554904914
 31
0.0
  0
SOLID
  5
2A40
330
A70
100
AcDbEntity
  8
寸法線
 62
     0
100
AcDbTrace
 10
322.839989163264
 20
193.9947554904913
 30
0.0
 11
323.6733224965974
 21
193.9947554904913
 31
0.0
 12
323.2566558299307
 22
196.4947554904913
 32
0.0
 13
323.2566558299307
 23
196.4947554904913
 33
0.0
  0
SOLID
  5
2A41
330
A70
100
AcDbEntity
  8
寸法線
 62
     0
100
AcDbTrace
 10
322.839989163264
 20
188.9947554904914
 30
0.0
 11
323.6733224965974
 21
188.9947554904914
 31
0.0
 12
323.2566558299307
 22
186.4947554904913
 32
0.0
 13
323.2566558299307
 23
186.4947554904913
 33
0.0
  0
MTEXT
  5
2A42
330
A70
100
AcDbEntity
  8
寸法線
 62
     0
100
AcDbMText
 10
320.8816558299306
 20
191.4947554904914
 30
0.0
 40
3.5
 41
0.0
 71
     5
 72
     1
  1
10
 11
0.0000000000000001
 21
1.0
 31
0.0
 73
     1
 44
1.0
1001
ACAD
1000
MTEXTBEGIN
1070
    73
1070
     1
1070
    44
1040
1.0
1070
    74
1070
     0
1000
MTEXTEND
  0
POINT
  5
2A43
330
A70
100
AcDbEntity
  8
DEFPOINTS
 62
     0
100
AcDbPoint
 10
313.2782726057306
 20
196.4947554904914
 30
0.0
  0
POINT
  5
2A44
330
A70
100
AcDbEntity
  8
DEFPOINTS
 62
     0
100
AcDbPoint
 10
313.2782726057306
 20
186.4947554904914
 30
0.0
  0
POINT
  5
2A45
330
A70
100
AcDbEntity
  8
DEFPOINTS
 62
     0
100
AcDbPoint
 10
323.2566558299307
 20
186.4947554904913
 30
0.0
  0
ENDBLK
  5
A72
330
A70
100
AcDbEntity
  8
0
100
AcDbBlockEnd
  0
BLOCK
  5
AF7
330
AF6
100
AcDbEntity
  8
0
100
AcDbBlockBegin
  2
*D16
 70
     1
 10
0.0
 20
0.0
 30
0.0
  3
*D16
  1

  0
LINE
  5
2A34
330
AF6
100
AcDbEntity
  8
寸法線
 62
     0
370
    -2
100
AcDbLine
 10
48.35433986964915
 20
430.1340987816418
 30
0.0
 11
48.35433986964915
 21
408.0100725984127
 31
0.0
  0
LINE
  5
2A35
330
AF6
100
AcDbEntity
  8
寸法線
 62
     0
370
    -2
100
AcDbLine
 10
28.35433986964915
 20
438.1340987816418
 30
0.0
 11
28.35433986964915
 21
408.0100725984127
 31
0.0
  0
LINE
  5
2A36
330
AF6
100
AcDbEntity
  8
寸法線
 62
     0
370
    -2
100
AcDbLine
 10
45.85433986964915
 20
409.2600725984127
 30
0.0
 11
30.85433986964915
 21
409.2600725984127
 31
0.0
  0
SOLID
  5
2A37
330
AF6
100
AcDbEntity
  8
寸法線
 62
     0
100
AcDbTrace
 10
45.85433986964915
 20
409.6767392650794
 30
0.0
 11
45.85433986964915
 21
408.843405931746
 31
0.0
 12
48.35433986964915
 22
409.2600725984127
 32
0.0
 13
48.35433986964915
 23
409.2600725984127
 33
0.0
  0
SOLID
  5
2A38
330
AF6
100
AcDbEntity
  8
寸法線
 62
     0
100
AcDbTrace
 10
30.85433986964915
 20
409.6767392650794
 30
0.0
 11
30.85433986964915
 21
408.843405931746
 31
0.0
 12
28.35433986964915
 22
409.2600725984127
 32
0.0
 13
28.35433986964915
 23
409.2600725984127
 33
0.0
  0
MTEXT
  5
2A39
330
AF6
100
AcDbEntity
  8
寸法線
 62
     0
100
AcDbMText
 10
38.35433986964915
 20
411.8850725984128
 30
0.0
 40
4.0
 41
0.0
 71
     5
 72
     1
  1
(20)
 73
     1
 44
1.0
1001
ACAD
1000
MTEXTBEGIN
1070
    73
1070
     1
1070
    44
1040
1.0
1070
    74
1070
     0
1000
MTEXTEND
  0
POINT
  5
2A3A
330
AF6
100
AcDbEntity
  8
DEFPOINTS
 62
     0
100
AcDbPoint
 10
48.35433986964915
 20
430.7590987816418
 30
0.0
  0
POINT
  5
2A3B
330
AF6
100
AcDbEntity
  8
DEFPOINTS
 62
     0
100
AcDbPoint
 10
28.35433986964915
 20
438.7590987816418
 30
0.0
  0
POINT
  5
2A3C
330
AF6
100
AcDbEntity
  8
DEFPOINTS
 62
     0
100
AcDbPoint
 10
28.35433986964915
 20
409.2600725984127
 30
0.0
  0
ENDBLK
  5
AF8
330
AF6
100
AcDbEntity
  8
0
100
AcDbBlockEnd
  0
BLOCK
  5
B0F
330
B0E
100
AcDbEntity
  8
0
100
AcDbBlockBegin
  2
*D17
 70
     1
 10
0.0
 20
0.0
 30
0.0
  3
*D17
  1

  0
LINE
  5
2A2B
330
B0E
100
AcDbEntity
  8
寸法線
 62
     0
370
    -2
100
AcDbLine
 10
48.35433986964915
 20
431.3840987816418
 30
0.0
 11
48.35433986964915
 21
450.2717442100316
 31
0.0
  0
LINE
  5
2A2C
330
B0E
100
AcDbEntity
  8
寸法線
 62
     0
370
    -2
100
AcDbLine
 10
298.3543398696491
 20
431.3840987816418
 30
0.0
 11
298.3543398696491
 21
450.2717442100316
 31
0.0
  0
LINE
  5
2A2D
330
B0E
100
AcDbEntity
  8
寸法線
 62
     0
370
    -2
100
AcDbLine
 10
50.85433986964915
 20
449.0217442100316
 30
0.0
 11
295.8543398696491
 21
449.0217442100316
 31
0.0
  0
SOLID
  5
2A2E
330
B0E
100
AcDbEntity
  8
寸法線
 62
     0
100
AcDbTrace
 10
50.85433986964915
 20
449.4384108766984
 30
0.0
 11
50.85433986964915
 21
448.605077543365
 31
0.0
 12
48.35433986964915
 22
449.0217442100316
 32
0.0
 13
48.35433986964915
 23
449.0217442100316
 33
0.0
  0
SOLID
  5
2A2F
330
B0E
100
AcDbEntity
  8
寸法線
 62
     0
100
AcDbTrace
 10
295.8543398696491
 20
449.4384108766984
 30
0.0
 11
295.8543398696491
 21
448.605077543365
 31
0.0
 12
298.3543398696491
 22
449.0217442100316
 32
0.0
 13
298.3543398696491
 23
449.0217442100316
 33
0.0
  0
MTEXT
  5
2A30
330
B0E
100
AcDbEntity
  8
寸法線
 62
     0
100
AcDbMText
 10
186.6127954954101
 20
452.1467442100316
 30
0.0
 40
5.0
 41
0.0
 71
     5
 72
     1
  1
穴ピッチ 250
 73
     1
 44
1.0
1001
ACAD
1000
MTEXTBEGIN
1070
    73
1070
     1
1070
    44
1040
1.0
1070
    74
1070
     0
1000
MTEXTEND
  0
POINT
  5
2A31
330
B0E
100
AcDbEntity
  8
DEFPOINTS
 62
     0
100
AcDbPoint
 10
48.35433986964915
 20
430.7590987816418
 30
0.0
  0
POINT
  5
2A32
330
B0E
100
AcDbEntity
  8
DEFPOINTS
 62
     0
100
AcDbPoint
 10
298.3543398696491
 20
430.7590987816418
 30
0.0
  0
POINT
  5
2A33
330
B0E
100
AcDbEntity
  8
DEFPOINTS
 62
     0
100
AcDbPoint
 10
298.3543398696491
 20
449.0217442100316
 30
0.0
  0
ENDBLK
  5
B10
330
B0E
100
AcDbEntity
  8
0
100
AcDbBlockEnd
  0
BLOCK
  5
B27
330
B26
100
AcDbEntity
  8
0
100
AcDbBlockBegin
  2
*D18
 70
     1
 10
0.0
 20
0.0
 30
0.0
  3
*D18
  1

  0
LINE
  5
2A22
330
B26
100
AcDbEntity
  8
寸法線
 62
     0
370
    -2
100
AcDbLine
 10
288.3543398696492
 20
409.6340987816418
 30
0.0
 11
288.3543398696492
 21
386.9394597975593
 31
0.0
  0
LINE
  5
2A23
330
B26
100
AcDbEntity
  8
寸法線
 62
     0
370
    -2
100
AcDbLine
 10
252.3543398696501
 20
409.6340987816418
 30
0.0
 11
252.3543398696501
 21
386.9394597975593
 31
0.0
  0
LINE
  5
2A24
330
B26
100
AcDbEntity
  8
寸法線
 62
     0
370
    -2
100
AcDbLine
 10
285.8543398696492
 20
388.1894597975593
 30
0.0
 11
254.8543398696501
 21
388.1894597975593
 31
0.0
  0
SOLID
  5
2A25
330
B26
100
AcDbEntity
  8
寸法線
 62
     0
100
AcDbTrace
 10
285.8543398696492
 20
388.6061264642259
 30
0.0
 11
285.8543398696492
 21
387.7727931308926
 31
0.0
 12
288.3543398696492
 22
388.1894597975593
 32
0.0
 13
288.3543398696492
 23
388.1894597975593
 33
0.0
  0
SOLID
  5
2A26
330
B26
100
AcDbEntity
  8
寸法線
 62
     0
100
AcDbTrace
 10
254.8543398696501
 20
388.6061264642259
 30
0.0
 11
254.8543398696501
 21
387.7727931308926
 31
0.0
 12
252.3543398696501
 22
388.1894597975593
 32
0.0
 13
252.3543398696501
 23
388.1894597975593
 33
0.0
  0
MTEXT
  5
2A27
330
B26
100
AcDbEntity
  8
寸法線
 62
     0
100
AcDbMText
 10
270.3543398696496
 20
390.5644597975593
 30
0.0
 40
3.5
 41
0.0
 71
     5
 72
     1
  1
36
 73
     1
 44
1.0
1001
ACAD
1000
MTEXTBEGIN
1070
    73
1070
     1
1070
    44
1040
1.0
1070
    74
1070
     0
1000
MTEXTEND
  0
POINT
  5
2A28
330
B26
100
AcDbEntity
  8
DEFPOINTS
 62
     0
100
AcDbPoint
 10
288.3543398696492
 20
410.2590987816418
 30
0.0
  0
POINT
  5
2A29
330
B26
100
AcDbEntity
  8
DEFPOINTS
 62
     0
100
AcDbPoint
 10
252.3543398696501
 20
410.2590987816418
 30
0.0
  0
POINT
  5
2A2A
330
B26
100
AcDbEntity
  8
DEFPOINTS
 62
     0
100
AcDbPoint
 10
252.3543398696501
 20
388.1894597975593
 30
0.0
  0
ENDBLK
  5
B28
330
B26
100
AcDbEntity
  8
0
100
AcDbBlockEnd
  0
BLOCK
  5
B5A
330
B59
100
AcDbEntity
  8
0
100
AcDbBlockBegin
  2
*D19
 70
     1
 10
0.0
 20
0.0
 30
0.0
  3
*D19
  1

  0
LINE
  5
2A19
330
B59
100
AcDbEntity
  8
寸法線
 62
     0
370
    -2
100
AcDbLine
 10
253.7293398696491
 20
408.2590987816418
 30
0.0
 11
242.5338254048643
 21
408.2590987816418
 31
0.0
  0
LINE
  5
2A1A
330
B59
100
AcDbEntity
  8
寸法線
 62
     0
370
    -2
100
AcDbLine
 10
253.7293398696491
 20
430.2590987816418
 30
0.0
 11
242.5338254048643
 21
430.2590987816418
 31
0.0
  0
LINE
  5
2A1B
330
B59
100
AcDbEntity
  8
寸法線
 62
     0
370
    -2
100
AcDbLine
 10
243.7838254048643
 20
410.7590987816418
 30
0.0
 11
243.7838254048643
 21
427.7590987816418
 31
0.0
  0
SOLID
  5
2A1C
330
B59
100
AcDbEntity
  8
寸法線
 62
     0
100
AcDbTrace
 10
243.3671587381976
 20
410.7590987816418
 30
0.0
 11
244.200492071531
 21
410.7590987816418
 31
0.0
 12
243.7838254048643
 22
408.2590987816418
 32
0.0
 13
243.7838254048643
 23
408.2590987816418
 33
0.0
  0
SOLID
  5
2A1D
330
B59
100
AcDbEntity
  8
寸法線
 62
     0
100
AcDbTrace
 10
243.3671587381976
 20
427.7590987816418
 30
0.0
 11
244.200492071531
 21
427.7590987816418
 31
0.0
 12
243.7838254048643
 22
430.2590987816418
 32
0.0
 13
243.7838254048643
 23
430.2590987816418
 33
0.0
  0
MTEXT
  5
2A1E
330
B59
100
AcDbEntity
  8
寸法線
 62
     0
100
AcDbMText
 10
241.4088254048643
 20
419.2590987816418
 30
0.0
 40
3.5
 41
0.0
 71
     5
 72
     1
  1
22
 11
0.0000000000000001
 21
1.0
 31
0.0
 73
     1
 44
1.0
1001
ACAD
1000
MTEXTBEGIN
1070
    73
1070
     1
1070
    44
1040
1.0
1070
    74
1070
     0
1000
MTEXTEND
  0
POINT
  5
2A1F
330
B59
100
AcDbEntity
  8
DEFPOINTS
 62
     0
100
AcDbPoint
 10
254.3543398696491
 20
408.2590987816418
 30
0.0
  0
POINT
  5
2A20
330
B59
100
AcDbEntity
  8
DEFPOINTS
 62
     0
100
AcDbPoint
 10
254.3543398696491
 20
430.2590987816418
 30
0.0
  0
POINT
  5
2A21
330
B59
100
AcDbEntity
  8
DEFPOINTS
 62
     0
100
AcDbPoint
 10
243.7838254048643
 20
430.2590987816418
 30
0.0
  0
ENDBLK
  5
B5B
330
B59
100
AcDbEntity
  8
0
100
AcDbBlockEnd
  0
BLOCK
  5
BA6
330
BA5
100
AcDbEntity
  8
0
100
AcDbBlockBegin
  2
*D20
 70
     1
 10
0.0
 20
0.0
 30
0.0
  3
*D20
  1

  0
LINE
  5
2A10
330
BA5
100
AcDbEntity
  8
寸法線
 62
     0
370
    -2
100
AcDbLine
 10
298.3543398696491
 20
404.8687584025732
 30
0.0
 11
298.3543398696491
 21
386.9640503944338
 31
0.0
  0
LINE
  5
2A11
330
BA5
100
AcDbEntity
  8
寸法線
 62
     0
370
    -2
100
AcDbLine
 10
326.3543398696492
 20
397.9568744152201
 30
0.0
 11
326.3543398696492
 21
386.9640503944338
 31
0.0
  0
LINE
  5
2A12
330
BA5
100
AcDbEntity
  8
寸法線
 62
     0
370
    -2
100
AcDbLine
 10
300.8543398696492
 20
388.2140503944338
 30
0.0
 11
323.8543398696492
 21
388.2140503944338
 31
0.0
  0
SOLID
  5
2A13
330
BA5
100
AcDbEntity
  8
寸法線
 62
     0
100
AcDbTrace
 10
300.8543398696492
 20
388.6307170611005
 30
0.0
 11
300.8543398696492
 21
387.7973837277671
 31
0.0
 12
298.3543398696491
 22
388.2140503944338
 32
0.0
 13
298.3543398696491
 23
388.2140503944338
 33
0.0
  0
SOLID
  5
2A14
330
BA5
100
AcDbEntity
  8
寸法線
 62
     0
100
AcDbTrace
 10
323.8543398696492
 20
388.6307170611005
 30
0.0
 11
323.8543398696492
 21
387.7973837277671
 31
0.0
 12
326.3543398696492
 22
388.2140503944338
 32
0.0
 13
326.3543398696492
 23
388.2140503944338
 33
0.0
  0
MTEXT
  5
2A15
330
BA5
100
AcDbEntity
  8
寸法線
 62
     0
100
AcDbMText
 10
312.3543398696492
 20
390.5890503944338
 30
0.0
 40
3.5
 41
0.0
 71
     5
 72
     1
  1
28
 73
     1
 44
1.0
1001
ACAD
1000
MTEXTBEGIN
1070
    73
1070
     1
1070
    44
1040
1.0
1070
    74
1070
     0
1000
MTEXTEND
  0
POINT
  5
2A16
330
BA5
100
AcDbEntity
  8
DEFPOINTS
 62
     0
100
AcDbPoint
 10
298.3543398696491
 20
405.4937584025733
 30
0.0
  0
POINT
  5
2A17
330
BA5
100
AcDbEntity
  8
DEFPOINTS
 62
     0
100
AcDbPoint
 10
326.3543398696492
 20
398.5818744152202
 30
0.0
  0
POINT
  5
2A18
330
BA5
100
AcDbEntity
  8
DEFPOINTS
 62
     0
100
AcDbPoint
 10
326.3543398696492
 20
388.2140503944338
 30
0.0
  0
ENDBLK
  5
BA7
330
BA5
100
AcDbEntity
  8
0
100
AcDbBlockEnd
  0
BLOCK
  5
BBE
330
BBD
100
AcDbEntity
  8
0
100
AcDbBlockBegin
  2
*D21
 70
     1
 10
0.0
 20
0.0
 30
0.0
  3
*D21
  1

  0
LINE
  5
2A07
330
BBD
100
AcDbEntity
  8
寸法線
 62
     0
370
    -2
100
AcDbLine
 10
288.3543398696492
 20
409.6340987816418
 30
0.0
 11
288.3543398696492
 21
386.9640503944338
 31
0.0
  0
LINE
  5
2A08
330
BBD
100
AcDbEntity
  8
寸法線
 62
     0
370
    -2
100
AcDbLine
 10
298.3543398696491
 20
404.2437584025733
 30
0.0
 11
298.3543398696491
 21
386.9640503944338
 31
0.0
  0
LINE
  5
2A09
330
BBD
100
AcDbEntity
  8
寸法線
 62
     0
370
    -2
100
AcDbLine
 10
290.8543398696492
 20
388.2140503944338
 30
0.0
 11
295.8543398696491
 21
388.2140503944338
 31
0.0
  0
SOLID
  5
2A0A
330
BBD
100
AcDbEntity
  8
寸法線
 62
     0
100
AcDbTrace
 10
290.8543398696492
 20
388.6307170611005
 30
0.0
 11
290.8543398696492
 21
387.7973837277671
 31
0.0
 12
288.3543398696492
 22
388.2140503944338
 32
0.0
 13
288.3543398696492
 23
388.2140503944338
 33
0.0
  0
SOLID
  5
2A0B
330
BBD
100
AcDbEntity
  8
寸法線
 62
     0
100
AcDbTrace
 10
295.8543398696491
 20
388.6307170611005
 30
0.0
 11
295.8543398696491
 21
387.7973837277671
 31
0.0
 12
298.3543398696491
 22
388.2140503944338
 32
0.0
 13
298.3543398696491
 23
388.2140503944338
 33
0.0
  0
MTEXT
  5
2A0C
330
BBD
100
AcDbEntity
  8
寸法線
 62
     0
100
AcDbMText
 10
293.3543398696492
 20
390.5890503944338
 30
0.0
 40
3.5
 41
0.0
 71
     5
 72
     1
  1
10
 73
     1
 44
1.0
1001
ACAD
1000
MTEXTBEGIN
1070
    73
1070
     1
1070
    44
1040
1.0
1070
    74
1070
     0
1000
MTEXTEND
  0
POINT
  5
2A0D
330
BBD
100
AcDbEntity
  8
DEFPOINTS
 62
     0
100
AcDbPoint
 10
288.3543398696492
 20
410.2590987816418
 30
0.0
  0
POINT
  5
2A0E
330
BBD
100
AcDbEntity
  8
DEFPOINTS
 62
     0
100
AcDbPoint
 10
298.3543398696491
 20
404.8687584025732
 30
0.0
  0
POINT
  5
2A0F
330
BBD
100
AcDbEntity
  8
DEFPOINTS
 62
     0
100
AcDbPoint
 10
298.3543398696491
 20
388.2140503944338
 30
0.0
  0
ENDBLK
  5
BBF
330
BBD
100
AcDbEntity
  8
0
100
AcDbBlockEnd
  0
BLOCK
  5
CB8
330
CB7
100
AcDbEntity
  8
0
100
AcDbBlockBegin
  2
*D22
 70
     1
 10
0.0
 20
0.0
 30
0.0
  3
*D22
  1

  0
LINE
  5
29FE
330
CB7
100
AcDbEntity
  8
寸法線
 62
     0
370
    -2
100
AcDbLine
 10
227.4793398696491
 20
299.0119253771003
 30
0.0
 11
338.4810857952033
 21
299.0119253771003
 31
0.0
  0
LINE
  5
29FF
330
CB7
100
AcDbEntity
  8
寸法線
 62
     0
370
    -2
100
AcDbLine
 10
326.9793398696492
 20
315.0119253771003
 30
0.0
 11
338.4810857952033
 21
315.0119253771003
 31
0.0
  0
LINE
  5
2A00
330
CB7
100
AcDbEntity
  8
寸法線
 62
     0
370
    -2
100
AcDbLine
 10
337.2310857952034
 20
301.5119253771003
 30
0.0
 11
337.2310857952034
 21
312.5119253771003
 31
0.0
  0
SOLID
  5
2A01
330
CB7
100
AcDbEntity
  8
寸法線
 62
     0
100
AcDbTrace
 10
336.8144191285367
 20
301.5119253771003
 30
0.0
 11
337.64775246187
 21
301.5119253771003
 31
0.0
 12
337.2310857952034
 22
299.0119253771003
 32
0.0
 13
337.2310857952034
 23
299.0119253771003
 33
0.0
  0
SOLID
  5
2A02
330
CB7
100
AcDbEntity
  8
寸法線
 62
     0
100
AcDbTrace
 10
336.8144191285367
 20
312.5119253771003
 30
0.0
 11
337.64775246187
 21
312.5119253771003
 31
0.0
 12
337.2310857952034
 22
315.0119253771003
 32
0.0
 13
337.2310857952034
 23
315.0119253771003
 33
0.0
  0
MTEXT
  5
2A03
330
CB7
100
AcDbEntity
  8
寸法線
 62
     0
100
AcDbMText
 10
334.6060857952033
 20
307.0119253771003
 30
0.0
 40
4.0
 41
0.0
 71
     5
 72
     1
  1
16
 11
0.0000000000000001
 21
1.0
 31
0.0
 73
     1
 44
1.0
1001
ACAD
1000
MTEXTBEGIN
1070
    73
1070
     1
1070
    44
1040
1.0
1070
    74
1070
     0
1000
MTEXTEND
  0
POINT
  5
2A04
330
CB7
100
AcDbEntity
  8
DEFPOINTS
 62
     0
100
AcDbPoint
 10
226.8543398696491
 20
299.0119253771003
 30
0.0
  0
POINT
  5
2A05
330
CB7
100
AcDbEntity
  8
DEFPOINTS
 62
     0
100
AcDbPoint
 10
326.3543398696492
 20
315.0119253771003
 30
0.0
  0
POINT
  5
2A06
330
CB7
100
AcDbEntity
  8
DEFPOINTS
 62
     0
100
AcDbPoint
 10
337.2310857952034
 20
315.0119253771003
 30
0.0
  0
ENDBLK
  5
CB9
330
CB7
100
AcDbEntity
  8
0
100
AcDbBlockEnd
  0
BLOCK
  5
11CE
330
11CD
100
AcDbEntity
  8
0
100
AcDbBlockBegin
  2
*D23
 70
     1
 10
0.0
 20
0.0
 30
0.0
  3
*D23
  1

  0
LINE
  5
29F5
330
11CD
100
AcDbEntity
  8
寸法線
 62
     0
370
    -2
100
AcDbLine
 10
298.9793398696491
 20
432.9590987816418
 30
0.0
 11
308.4322288180888
 21
432.9590987816418
 31
0.0
  0
LINE
  5
29F6
330
11CD
100
AcDbEntity
  8
寸法線
 62
     0
370
    -2
100
AcDbLine
 10
298.9793398696491
 20
405.5590987816418
 30
0.0
 11
308.4322288180888
 21
405.5590987816418
 31
0.0
  0
LINE
  5
29F7
330
11CD
100
AcDbEntity
  8
寸法線
 62
     0
370
    -2
100
AcDbLine
 10
307.1822288180888
 20
430.4590987816418
 30
0.0
 11
307.1822288180888
 21
408.0590987816418
 31
0.0
  0
SOLID
  5
29F8
330
11CD
100
AcDbEntity
  8
寸法線
 62
     0
100
AcDbTrace
 10
306.7655621514221
 20
430.4590987816418
 30
0.0
 11
307.5988954847555
 21
430.4590987816418
 31
0.0
 12
307.1822288180888
 22
432.9590987816418
 32
0.0
 13
307.1822288180888
 23
432.9590987816418
 33
0.0
  0
SOLID
  5
29F9
330
11CD
100
AcDbEntity
  8
寸法線
 62
     0
100
AcDbTrace
 10
306.7655621514221
 20
408.0590987816418
 30
0.0
 11
307.5988954847555
 21
408.0590987816418
 31
0.0
 12
307.1822288180888
 22
405.5590987816418
 32
0.0
 13
307.1822288180888
 23
405.5590987816418
 33
0.0
  0
MTEXT
  5
29FA
330
11CD
100
AcDbEntity
  8
寸法線
 62
     0
100
AcDbMText
 10
304.515562151422
 20
419.2590987816418
 30
0.0
 40
3.5
 41
0.0
 71
     5
 72
     1
  1
27,4
 11
0.0000000000000001
 21
1.0
 31
0.0
 73
     1
 44
1.0
1001
ACAD
1000
MTEXTBEGIN
1070
    73
1070
     1
1070
    44
1040
1.0
1070
    74
1070
     0
1000
MTEXTEND
  0
POINT
  5
29FB
330
11CD
100
AcDbEntity
  8
DEFPOINTS
 62
     0
100
AcDbPoint
 10
298.3543398696491
 20
432.9590987816418
 30
0.0
  0
POINT
  5
29FC
330
11CD
100
AcDbEntity
  8
DEFPOINTS
 62
     0
100
AcDbPoint
 10
298.3543398696491
 20
405.5590987816418
 30
0.0
  0
POINT
  5
29FD
330
11CD
100
AcDbEntity
  8
DEFPOINTS
 62
     0
100
AcDbPoint
 10
307.1822288180888
 20
405.5590987816418
 30
0.0
  0
ENDBLK
  5
11CF
330
11CD
100
AcDbEntity
  8
0
100
AcDbBlockEnd
  0
BLOCK
  5
11E6
330
11E5
100
AcDbEntity
  8
0
100
AcDbBlockBegin
  2
*D24
 70
     1
 10
0.0
 20
0.0
 30
0.0
  3
*D24
  1

  0
LINE
  5
29EA
330
11E5
100
AcDbEntity
  8
寸法線
 62
     0
370
    -2
100
AcDbLine
 10
50.55433986964915
 20
430.1340987816418
 30
0.0
 11
50.55433986964915
 21
425.6846953945751
 31
0.0
  0
LINE
  5
29EB
330
11E5
100
AcDbEntity
  8
寸法線
 62
     0
370
    -2
100
AcDbLine
 10
46.15433986964915
 20
430.1340987816418
 30
0.0
 11
46.15433986964915
 21
425.6846953945751
 31
0.0
  0
LINE
  5
29EC
330
11E5
100
AcDbEntity
  8
寸法線
 62
     0
370
    -2
100
AcDbLine
 10
53.05433986964915
 20
426.9346953945751
 30
0.0
 11
55.55433986964915
 21
426.9346953945751
 31
0.0
  0
LINE
  5
29ED
330
11E5
100
AcDbEntity
  8
寸法線
 62
     0
370
    -2
100
AcDbLine
 10
43.65433986964915
 20
426.9346953945751
 30
0.0
 11
32.32100653631582
 21
426.9346953945751
 31
0.0
  0
LINE
  5
29EE
330
11E5
100
AcDbEntity
  8
寸法線
 62
     0
370
    -2
100
AcDbLine
 10
50.55433986964915
 20
426.9346953945751
 30
0.0
 11
46.15433986964915
 21
426.9346953945751
 31
0.0
  0
SOLID
  5
29EF
330
11E5
100
AcDbEntity
  8
寸法線
 62
     0
100
AcDbTrace
 10
53.05433986964915
 20
427.3513620612417
 30
0.0
 11
53.05433986964915
 21
426.5180287279084
 31
0.0
 12
50.55433986964915
 22
426.9346953945751
 32
0.0
 13
50.55433986964915
 23
426.9346953945751
 33
0.0
  0
SOLID
  5
29F0
330
11E5
100
AcDbEntity
  8
寸法線
 62
     0
100
AcDbTrace
 10
43.65433986964915
 20
427.3513620612417
 30
0.0
 11
43.65433986964915
 21
426.5180287279084
 31
0.0
 12
46.15433986964915
 22
426.9346953945751
 32
0.0
 13
46.15433986964915
 23
426.9346953945751
 33
0.0
  0
MTEXT
  5
29F1
330
11E5
100
AcDbEntity
  8
寸法線
 62
     0
100
AcDbMText
 10
36.73767320298249
 20
429.6013620612417
 30
0.0
 40
3.5
 41
0.0
 71
     5
 72
     1
  1
4,4
 73
     1
 44
1.0
1001
ACAD
1000
MTEXTBEGIN
1070
    73
1070
     1
1070
    44
1040
1.0
1070
    74
1070
     0
1000
MTEXTEND
  0
POINT
  5
29F2
330
11E5
100
AcDbEntity
  8
DEFPOINTS
 62
     0
100
AcDbPoint
 10
50.55433986964915
 20
430.7590987816418
 30
0.0
  0
POINT
  5
29F3
330
11E5
100
AcDbEntity
  8
DEFPOINTS
 62
     0
100
AcDbPoint
 10
46.15433986964915
 20
430.7590987816418
 30
0.0
  0
POINT
  5
29F4
330
11E5
100
AcDbEntity
  8
DEFPOINTS
 62
     0
100
AcDbPoint
 10
46.15433986964915
 20
426.9346953945751
 30
0.0
  0
ENDBLK
  5
11E7
330
11E5
100
AcDbEntity
  8
0
100
AcDbBlockEnd
  0
BLOCK
  5
1202
330
1201
100
AcDbEntity
  8
0
100
AcDbBlockBegin
  2
*D25
 70
     1
 10
0.0
 20
0.0
 30
0.0
  3
*D25
  1

  0
LINE
  5
29E1
330
1201
100
AcDbEntity
  8
寸法線
 62
     0
370
    -2
100
AcDbLine
 10
69.96242690365403
 20
438.134098781642
 30
0.0
 11
69.96242690365403
 21
426.4342128519028
 31
0.0
  0
LINE
  5
29E2
330
1201
100
AcDbEntity
  8
寸法線
 62
     0
370
    -2
100
AcDbLine
 10
82.35473174904916
 20
438.134098781642
 30
0.0
 11
82.35473174904916
 21
426.4342128519028
 31
0.0
  0
LINE
  5
29E3
330
1201
100
AcDbEntity
  8
寸法線
 62
     0
370
    -2
100
AcDbLine
 10
72.46242690365403
 20
427.6842128519028
 30
0.0
 11
79.85473174904917
 21
427.6842128519028
 31
0.0
  0
SOLID
  5
29E4
330
1201
100
AcDbEntity
  8
寸法線
 62
     0
100
AcDbTrace
 10
72.46242690365403
 20
428.1008795185694
 30
0.0
 11
72.46242690365403
 21
427.2675461852361
 31
0.0
 12
69.96242690365403
 22
427.6842128519028
 32
0.0
 13
69.96242690365403
 23
427.6842128519028
 33
0.0
  0
SOLID
  5
29E5
330
1201
100
AcDbEntity
  8
寸法線
 62
     0
100
AcDbTrace
 10
79.85473174904917
 20
428.1008795185694
 30
0.0
 11
79.85473174904917
 21
427.2675461852361
 31
0.0
 12
82.35473174904916
 22
427.6842128519028
 32
0.0
 13
82.35473174904916
 23
427.6842128519028
 33
0.0
  0
MTEXT
  5
29E6
330
1201
100
AcDbEntity
  8
寸法線
 62
     0
100
AcDbMText
 10
76.1585793263516
 20
430.0592128519028
 30
0.0
 40
3.5
 41
0.0
 71
     5
 72
     1
  1
(12)
 73
     1
 44
1.0
1001
ACAD
1000
MTEXTBEGIN
1070
    73
1070
     1
1070
    44
1040
1.0
1070
    74
1070
     0
1000
MTEXTEND
  0
POINT
  5
29E7
330
1201
100
AcDbEntity
  8
DEFPOINTS
 62
     0
100
AcDbPoint
 10
69.96242690365403
 20
438.759098781642
 30
0.0
  0
POINT
  5
29E8
330
1201
100
AcDbEntity
  8
DEFPOINTS
 62
     0
100
AcDbPoint
 10
82.35473174904916
 20
438.759098781642
 30
0.0
  0
POINT
  5
29E9
330
1201
100
AcDbEntity
  8
DEFPOINTS
 62
     0
100
AcDbPoint
 10
82.35473174904916
 20
427.6842128519028
 30
0.0
  0
ENDBLK
  5
1203
330
1201
100
AcDbEntity
  8
0
100
AcDbBlockEnd
  0
BLOCK
  5
121A
330
1219
100
AcDbEntity
  8
0
100
AcDbBlockBegin
  2
*D26
 70
     1
 10
0.0
 20
0.0
 30
0.0
  3
*D26
  1

  0
LINE
  5
29D6
330
1219
100
AcDbEntity
  8
寸法線
 62
     0
370
    -2
100
AcDbLine
 10
82.97973174904916
 20
438.759098781642
 30
0.0
 11
89.76348025026991
 21
438.759098781642
 31
0.0
  0
LINE
  5
29D7
330
1219
100
AcDbEntity
  8
寸法線
 62
     0
370
    -2
100
AcDbLine
 10
81.97973174904916
 20
444.7590987816418
 30
0.0
 11
89.76348025026991
 21
444.7590987816418
 31
0.0
  0
LINE
  5
29D8
330
1219
100
AcDbEntity
  8
寸法線
 62
     0
370
    -2
100
AcDbLine
 10
88.51348025026991
 20
436.259098781642
 30
0.0
 11
88.51348025026991
 21
433.759098781642
 31
0.0
  0
LINE
  5
29D9
330
1219
100
AcDbEntity
  8
寸法線
 62
     0
370
    -2
100
AcDbLine
 10
88.51348025026991
 20
447.2590987816418
 30
0.0
 11
88.51348025026991
 21
449.7590987816418
 31
0.0
  0
LINE
  5
29DA
330
1219
100
AcDbEntity
  8
寸法線
 62
     0
370
    -2
100
AcDbLine
 10
88.51348025026991
 20
438.759098781642
 30
0.0
 11
88.51348025026991
 21
444.7590987816418
 31
0.0
  0
SOLID
  5
29DB
330
1219
100
AcDbEntity
  8
寸法線
 62
     0
100
AcDbTrace
 10
88.09681358360325
 20
436.259098781642
 30
0.0
 11
88.93014691693659
 21
436.259098781642
 31
0.0
 12
88.51348025026991
 22
438.759098781642
 32
0.0
 13
88.51348025026991
 23
438.759098781642
 33
0.0
  0
SOLID
  5
29DC
330
1219
100
AcDbEntity
  8
寸法線
 62
     0
100
AcDbTrace
 10
88.09681358360325
 20
447.2590987816418
 30
0.0
 11
88.93014691693659
 21
447.2590987816418
 31
0.0
 12
88.51348025026991
 22
444.7590987816418
 32
0.0
 13
88.51348025026991
 23
444.7590987816418
 33
0.0
  0
MTEXT
  5
29DD
330
1219
100
AcDbEntity
  8
寸法線
 62
     0
100
AcDbMText
 10
86.13848025026985
 20
441.7590987816419
 30
0.0
 40
3.5
 41
0.0
 71
     5
 72
     1
  1
6
 11
0.0000000000000001
 21
1.0
 31
0.0
 73
     1
 44
1.0
1001
ACAD
1000
MTEXTBEGIN
1070
    73
1070
     1
1070
    44
1040
1.0
1070
    74
1070
     0
1000
MTEXTEND
  0
POINT
  5
29DE
330
1219
100
AcDbEntity
  8
DEFPOINTS
 62
     0
100
AcDbPoint
 10
82.35473174904916
 20
438.759098781642
 30
0.0
  0
POINT
  5
29DF
330
1219
100
AcDbEntity
  8
DEFPOINTS
 62
     0
100
AcDbPoint
 10
81.35473174904916
 20
444.7590987816418
 30
0.0
  0
POINT
  5
29E0
330
1219
100
AcDbEntity
  8
DEFPOINTS
 62
     0
100
AcDbPoint
 10
88.51348025026991
 20
444.7590987816418
 30
0.0
  0
ENDBLK
  5
121B
330
1219
100
AcDbEntity
  8
0
100
AcDbBlockEnd
  0
BLOCK
  5
123F
330
123E
100
AcDbEntity
  8
0
100
AcDbBlockBegin
  2
*D27
 70
     1
 10
0.0
 20
0.0
 30
0.0
  3
*D27
  1

  0
LINE
  5
29CD
330
123E
100
AcDbEntity
  8
寸法線
 62
     0
370
    -2
100
AcDbLine
 10
82.35473174904916
 20
443.1340987816418
 30
0.0
 11
82.35473174904916
 21
418.1385637413331
 31
0.0
  0
LINE
  5
29CE
330
123E
100
AcDbEntity
  8
寸法線
 62
     0
370
    -2
100
AcDbLine
 10
28.35433986964915
 20
438.1340987816418
 30
0.0
 11
28.35433986964915
 21
418.1385637413331
 31
0.0
  0
LINE
  5
29CF
330
123E
100
AcDbEntity
  8
寸法線
 62
     0
370
    -2
100
AcDbLine
 10
79.85473174904917
 20
419.3885637413331
 30
0.0
 11
30.85433986964915
 21
419.3885637413331
 31
0.0
  0
SOLID
  5
29D0
330
123E
100
AcDbEntity
  8
寸法線
 62
     0
100
AcDbTrace
 10
79.85473174904917
 20
419.8052304079998
 30
0.0
 11
79.85473174904917
 21
418.9718970746664
 31
0.0
 12
82.35473174904916
 22
419.3885637413331
 32
0.0
 13
82.35473174904916
 23
419.3885637413331
 33
0.0
  0
SOLID
  5
29D1
330
123E
100
AcDbEntity
  8
寸法線
 62
     0
100
AcDbTrace
 10
30.85433986964915
 20
419.8052304079998
 30
0.0
 11
30.85433986964915
 21
418.9718970746664
 31
0.0
 12
28.35433986964915
 22
419.3885637413331
 32
0.0
 13
28.35433986964915
 23
419.3885637413331
 33
0.0
  0
MTEXT
  5
29D2
330
123E
100
AcDbEntity
  8
寸法線
 62
     0
100
AcDbMText
 10
63.40711694342189
 20
421.7635637413331
 30
0.0
 40
3.5
 41
0.0
 71
     5
 72
     1
  1
54
 73
     1
 44
1.0
1001
ACAD
1000
MTEXTBEGIN
1070
    73
1070
     1
1070
    44
1040
1.0
1070
    74
1070
     0
1000
MTEXTEND
  0
POINT
  5
29D3
330
123E
100
AcDbEntity
  8
DEFPOINTS
 62
     0
100
AcDbPoint
 10
82.35473174904916
 20
443.7590987816419
 30
0.0
  0
POINT
  5
29D4
330
123E
100
AcDbEntity
  8
DEFPOINTS
 62
     0
100
AcDbPoint
 10
28.35433986964915
 20
438.7590987816418
 30
0.0
  0
POINT
  5
29D5
330
123E
100
AcDbEntity
  8
DEFPOINTS
 62
     0
100
AcDbPoint
 10
28.35433986964915
 20
419.3885637413331
 30
0.0
  0
ENDBLK
  5
1240
330
123E
100
AcDbEntity
  8
0
100
AcDbBlockEnd
  0
BLOCK
  5
1267
330
1266
100
AcDbEntity
  8
0
100
AcDbBlockBegin
  2
*D28
 70
     1
 10
0.0
 20
0.0
 30
0.0
  3
*D28
  1

  0
LINE
  5
29C3
330
1266
100
AcDbEntity
  8
寸法線
 62
     0
370
    -2
100
AcDbLine
 10
80.72973174904914
 20
265.8316710041003
 30
0.0
 11
55.31587250532101
 21
265.8316710041003
 31
0.0
  0
LINE
  5
29C4
330
1266
100
AcDbEntity
  8
寸法線
 62
     0
370
    -2
100
AcDbLine
 10
81.72973174904914
 20
276.5119253771004
 30
0.0
 11
55.31587250532102
 21
276.5119253771004
 31
0.0
  0
LINE
  5
29C5
330
1266
100
AcDbEntity
  8
寸法線
 62
     0
370
    -2
100
AcDbLine
 10
56.56587250532101
 20
268.3316710041003
 30
0.0
 11
56.56587250532102
 21
274.0119253771004
 31
0.0
  0
LINE
  5
29C6
330
1266
100
AcDbEntity
  8
寸法線
 62
     0
370
    -2
100
AcDbLine
 10
56.56587250532102
 20
276.5119253771004
 30
0.0
 11
56.56587250532102
 21
289.3595373579548
 31
0.0
  0
SOLID
  5
29C7
330
1266
100
AcDbEntity
  8
寸法線
 62
     0
100
AcDbTrace
 10
56.14920583865435
 20
268.3316710041003
 30
0.0
 11
56.98253917198768
 21
268.3316710041003
 31
0.0
 12
56.56587250532101
 22
265.8316710041003
 32
0.0
 13
56.56587250532101
 23
265.8316710041003
 33
0.0
  0
SOLID
  5
29C8
330
1266
100
AcDbEntity
  8
寸法線
 62
     0
100
AcDbTrace
 10
56.14920583865436
 20
274.0119253771004
 30
0.0
 11
56.98253917198769
 21
274.0119253771004
 31
0.0
 12
56.56587250532102
 22
276.5119253771004
 32
0.0
 13
56.56587250532102
 23
276.5119253771004
 33
0.0
  0
MTEXT
  5
29C9
330
1266
100
AcDbEntity
  8
寸法線
 62
     0
100
AcDbMText
 10
54.19087250532097
 20
284.3595373579548
 30
0.0
 40
3.5
 41
0.0
 71
     5
 72
     1
  1
(10)
 11
0.0000000000000001
 21
1.0
 31
0.0
 73
     1
 44
1.0
1001
ACAD
1000
MTEXTBEGIN
1070
    73
1070
     1
1070
    44
1040
1.0
1070
    74
1070
     0
1000
MTEXTEND
  0
POINT
  5
29CA
330
1266
100
AcDbEntity
  8
DEFPOINTS
 62
     0
100
AcDbPoint
 10
81.35473174904914
 20
265.8316710041003
 30
0.0
  0
POINT
  5
29CB
330
1266
100
AcDbEntity
  8
DEFPOINTS
 62
     0
100
AcDbPoint
 10
82.35473174904914
 20
276.5119253771004
 30
0.0
  0
POINT
  5
29CC
330
1266
100
AcDbEntity
  8
DEFPOINTS
 62
     0
100
AcDbPoint
 10
56.56587250532102
 20
276.5119253771004
 30
0.0
  0
ENDBLK
  5
1268
330
1266
100
AcDbEntity
  8
0
100
AcDbBlockEnd
  0
BLOCK
  5
127F
330
127E
100
AcDbEntity
  8
0
100
AcDbBlockBegin
  2
*D29
 70
     1
 10
0.0
 20
0.0
 30
0.0
  3
*D29
  1

  0
LINE
  5
29BA
330
127E
100
AcDbEntity
  8
寸法線
 62
     0
370
    -2
100
AcDbLine
 10
63.35512504554918
 20
275.0213985105006
 30
0.0
 11
63.35512504554918
 21
256.9219695195443
 31
0.0
  0
LINE
  5
29BB
330
127E
100
AcDbEntity
  8
寸法線
 62
     0
370
    -2
100
AcDbLine
 10
82.35473174904914
 20
271.3758951203249
 30
0.0
 11
82.35473174904914
 21
256.9219695195443
 31
0.0
  0
LINE
  5
29BC
330
127E
100
AcDbEntity
  8
寸法線
 62
     0
370
    -2
100
AcDbLine
 10
65.85512504554919
 20
258.1719695195443
 30
0.0
 11
79.85473174904914
 21
258.1719695195443
 31
0.0
  0
SOLID
  5
29BD
330
127E
100
AcDbEntity
  8
寸法線
 62
     0
100
AcDbTrace
 10
65.85512504554919
 20
258.588636186211
 30
0.0
 11
65.85512504554919
 21
257.7553028528776
 31
0.0
 12
63.35512504554918
 22
258.1719695195443
 32
0.0
 13
63.35512504554918
 23
258.1719695195443
 33
0.0
  0
SOLID
  5
29BE
330
127E
100
AcDbEntity
  8
寸法線
 62
     0
100
AcDbTrace
 10
79.85473174904914
 20
258.588636186211
 30
0.0
 11
79.85473174904914
 21
257.7553028528776
 31
0.0
 12
82.35473174904914
 22
258.1719695195443
 32
0.0
 13
82.35473174904914
 23
258.1719695195443
 33
0.0
  0
MTEXT
  5
29BF
330
127E
100
AcDbEntity
  8
寸法線
 62
     0
100
AcDbMText
 10
72.85492839729916
 20
260.5469695195443
 30
0.0
 40
3.5
 41
0.0
 71
     5
 72
     1
  1
19
 73
     1
 44
1.0
1001
ACAD
1000
MTEXTBEGIN
1070
    73
1070
     1
1070
    44
1040
1.0
1070
    74
1070
     0
1000
MTEXTEND
  0
POINT
  5
29C0
330
127E
100
AcDbEntity
  8
DEFPOINTS
 62
     0
100
AcDbPoint
 10
63.35512504554918
 20
275.6463985105006
 30
0.0
  0
POINT
  5
29C1
330
127E
100
AcDbEntity
  8
DEFPOINTS
 62
     0
100
AcDbPoint
 10
82.35473174904914
 20
272.0008951203249
 30
0.0
  0
POINT
  5
29C2
330
127E
100
AcDbEntity
  8
DEFPOINTS
 62
     0
100
AcDbPoint
 10
82.35473174904914
 20
258.1719695195443
 30
0.0
  0
ENDBLK
  5
1280
330
127E
100
AcDbEntity
  8
0
100
AcDbBlockEnd
  0
BLOCK
  5
1822
330
1821
100
AcDbEntity
  8
0
100
AcDbBlockBegin
  2
*D30
 70
     1
 10
0.0
 20
0.0
 30
0.0
  3
*D30
  1

  0
LINE
  5
29B1
330
1821
100
AcDbEntity
  8
寸法線
 62
     0
370
    -2
100
AcDbLine
 10
267.1532726057306
 20
209.1947554904912
 30
0.0
 11
255.340533672775
 21
209.1947554904912
 31
0.0
  0
LINE
  5
29B2
330
1821
100
AcDbEntity
  8
寸法線
 62
     0
370
    -2
100
AcDbLine
 10
302.6532726057307
 20
171.1947554904903
 30
0.0
 11
255.340533672775
 21
171.1947554904903
 31
0.0
  0
LINE
  5
29B3
330
1821
100
AcDbEntity
  8
寸法線
 62
     0
370
    -2
100
AcDbLine
 10
256.590533672775
 20
206.6947554904912
 30
0.0
 11
256.590533672775
 21
173.6947554904903
 31
0.0
  0
SOLID
  5
29B4
330
1821
100
AcDbEntity
  8
寸法線
 62
     0
100
AcDbTrace
 10
256.1738670061083
 20
206.6947554904912
 30
0.0
 11
257.0072003394417
 21
206.6947554904912
 31
0.0
 12
256.590533672775
 22
209.1947554904912
 32
0.0
 13
256.590533672775
 23
209.1947554904912
 33
0.0
  0
SOLID
  5
29B5
330
1821
100
AcDbEntity
  8
寸法線
 62
     0
100
AcDbTrace
 10
256.1738670061083
 20
173.6947554904903
 30
0.0
 11
257.0072003394417
 21
173.6947554904903
 31
0.0
 12
256.590533672775
 22
171.1947554904903
 32
0.0
 13
256.590533672775
 23
171.1947554904903
 33
0.0
  0
MTEXT
  5
29B6
330
1821
100
AcDbEntity
  8
寸法線
 62
     0
100
AcDbMText
 10
254.2155336727749
 20
190.1947554904907
 30
0.0
 40
3.5
 41
0.0
 71
     5
 72
     1
  1
38
 11
0.0000000000000001
 21
1.0
 31
0.0
 73
     1
 44
1.0
1001
ACAD
1000
MTEXTBEGIN
1070
    73
1070
     1
1070
    44
1040
1.0
1070
    74
1070
     0
1000
MTEXTEND
  0
POINT
  5
29B7
330
1821
100
AcDbEntity
  8
DEFPOINTS
 62
     0
100
AcDbPoint
 10
267.7782726057306
 20
209.1947554904912
 30
0.0
  0
POINT
  5
29B8
330
1821
100
AcDbEntity
  8
DEFPOINTS
 62
     0
100
AcDbPoint
 10
303.2782726057306
 20
171.1947554904903
 30
0.0
  0
POINT
  5
29B9
330
1821
100
AcDbEntity
  8
DEFPOINTS
 62
     0
100
AcDbPoint
 10
256.590533672775
 20
171.1947554904903
 30
0.0
  0
ENDBLK
  5
1823
330
1821
100
AcDbEntity
  8
0
100
AcDbBlockEnd
  0
BLOCK
  5
1D81
330
1D80
100
AcDbEntity
  8
0
100
AcDbBlockBegin
  2
*D31
 70
     1
 10
0.0
 20
0.0
 30
0.0
  3
*D31
  1

  0
LINE
  5
29A8
330
1D80
100
AcDbEntity
  8
寸法線
 62
     0
370
    -2
100
AcDbLine
 10
326.9793398696492
 20
315.0119253771003
 30
0.0
 11
353.7053311716058
 21
315.0119253771003
 31
0.0
  0
LINE
  5
29A9
330
1D80
100
AcDbEntity
  8
寸法線
 62
     0
370
    -2
100
AcDbLine
 10
327.979381979166
 20
272.0008621091003
 30
0.0
 11
353.7053311716058
 21
272.0008621091003
 31
0.0
  0
LINE
  5
29AA
330
1D80
100
AcDbEntity
  8
寸法線
 62
     0
370
    -2
100
AcDbLine
 10
352.4553311716058
 20
312.5119253771003
 30
0.0
 11
352.4553311716058
 21
274.5008621091003
 31
0.0
  0
SOLID
  5
29AB
330
1D80
100
AcDbEntity
  8
寸法線
 62
     0
100
AcDbTrace
 10
352.0386645049392
 20
312.5119253771003
 30
0.0
 11
352.8719978382725
 21
312.5119253771003
 31
0.0
 12
352.4553311716058
 22
315.0119253771003
 32
0.0
 13
352.4553311716058
 23
315.0119253771003
 33
0.0
  0
SOLID
  5
29AC
330
1D80
100
AcDbEntity
  8
寸法線
 62
     0
100
AcDbTrace
 10
352.0386645049392
 20
274.5008621091003
 30
0.0
 11
352.8719978382725
 21
274.5008621091003
 31
0.0
 12
352.4553311716058
 22
272.0008621091003
 32
0.0
 13
352.4553311716058
 23
272.0008621091003
 33
0.0
  0
MTEXT
  5
29AD
330
1D80
100
AcDbEntity
  8
寸法線
 62
     0
100
AcDbMText
 10
347.8303311716058
 20
293.5063937431004
 30
0.0
 40
8.0
 41
0.0
 71
     5
 72
     1
  1
43
 11
0.0000000000000001
 21
1.0
 31
0.0
 73
     1
 44
1.0
1001
ACAD
1000
MTEXTBEGIN
1070
    73
1070
     1
1070
    44
1040
1.0
1070
    74
1070
     0
1000
MTEXTEND
  0
POINT
  5
29AE
330
1D80
100
AcDbEntity
  8
DEFPOINTS
 62
     0
100
AcDbPoint
 10
326.3543398696492
 20
315.0119253771003
 30
0.0
  0
POINT
  5
29AF
330
1D80
100
AcDbEntity
  8
DEFPOINTS
 62
     0
100
AcDbPoint
 10
327.3543819791659
 20
272.0008621091003
 30
0.0
  0
POINT
  5
29B0
330
1D80
100
AcDbEntity
  8
DEFPOINTS
 62
     0
100
AcDbPoint
 10
352.4553311716058
 20
272.0008621091003
 30
0.0
  0
ENDBLK
  5
1D82
330
1D80
100
AcDbEntity
  8
0
100
AcDbBlockEnd
  0
BLOCK
  5
2519
330
2518
100
AcDbEntity
  8
0
100
AcDbBlockBegin
  2
*D32
 70
     1
 10
0.0
 20
0.0
 30
0.0
  3
*D32
  1

  0
LINE
  5
299F
330
2518
100
AcDbEntity
  8
寸法線
 62
     0
370
    -2
100
AcDbLine
 10
305.7289364262055
 20
80.2356282668682
 30
0.0
 11
305.7289364262055
 21
65.71311549103268
 31
0.0
  0
LINE
  5
29A0
330
2518
100
AcDbEntity
  8
寸法線
 62
     0
370
    -2
100
AcDbLine
 10
323.7289024319036
 20
80.2356282668682
 30
0.0
 11
323.7289024319036
 21
65.71311549103268
 31
0.0
  0
LINE
  5
29A1
330
2518
100
AcDbEntity
  8
寸法線
 62
     0
370
    -2
100
AcDbLine
 10
308.2289364262056
 20
66.96311549103268
 30
0.0
 11
321.2289024319036
 21
66.96311549103268
 31
0.0
  0
SOLID
  5
29A2
330
2518
100
AcDbEntity
  8
寸法線
 62
     0
100
AcDbTrace
 10
308.2289364262056
 20
67.37978215769935
 30
0.0
 11
308.2289364262056
 21
66.54644882436601
 31
0.0
 12
305.7289364262055
 22
66.96311549103268
 32
0.0
 13
305.7289364262055
 23
66.96311549103268
 33
0.0
  0
SOLID
  5
29A3
330
2518
100
AcDbEntity
  8
寸法線
 62
     0
100
AcDbTrace
 10
321.2289024319036
 20
67.37978215769935
 30
0.0
 11
321.2289024319036
 21
66.54644882436601
 31
0.0
 12
323.7289024319036
 22
66.96311549103268
 32
0.0
 13
323.7289024319036
 23
66.96311549103268
 33
0.0
  0
MTEXT
  5
29A4
330
2518
100
AcDbEntity
  8
寸法線
 62
     0
100
AcDbMText
 10
314.7289194290546
 20
69.33811549103268
 30
0.0
 40
3.5
 41
0.0
 71
     5
 72
     1
  1
18
 73
     1
 44
1.0
1001
ACAD
1000
MTEXTBEGIN
1070
    73
1070
     1
1070
    44
1040
1.0
1070
    74
1070
     0
1000
MTEXTEND
  0
POINT
  5
29A5
330
2518
100
AcDbEntity
  8
DEFPOINTS
 62
     0
100
AcDbPoint
 10
305.7289364262055
 20
80.8606282668682
 30
0.0
  0
POINT
  5
29A6
330
2518
100
AcDbEntity
  8
DEFPOINTS
 62
     0
100
AcDbPoint
 10
323.7289024319036
 20
80.8606282668682
 30
0.0
  0
POINT
  5
29A7
330
2518
100
AcDbEntity
  8
DEFPOINTS
 62
     0
100
AcDbPoint
 10
323.7289024319036
 20
66.96311549103268
 30
0.0
  0
ENDBLK
  5
251A
330
2518
100
AcDbEntity
  8
0
100
AcDbBlockEnd
  0
BLOCK
  5
2531
330
2530
100
AcDbEntity
  8
0
100
AcDbBlockBegin
  2
*D33
 70
     1
 10
0.0
 20
0.0
 30
0.0
  3
*D33
  1

  0
LINE
  5
2996
330
2530
100
AcDbEntity
  8
寸法線
 62
     0
370
    -2
100
AcDbLine
 10
324.3539024319036
 20
80.8606282668682
 30
0.0
 11
333.9748622499976
 21
80.8606282668682
 31
0.0
  0
LINE
  5
2997
330
2530
100
AcDbEntity
  8
寸法線
 62
     0
370
    -2
100
AcDbLine
 10
324.3539024319036
 20
94.8606282668682
 30
0.0
 11
333.9748622499976
 21
94.8606282668682
 31
0.0
  0
LINE
  5
2998
330
2530
100
AcDbEntity
  8
寸法線
 62
     0
370
    -2
100
AcDbLine
 10
332.7248622499976
 20
83.3606282668682
 30
0.0
 11
332.7248622499976
 21
92.3606282668682
 31
0.0
  0
SOLID
  5
2999
330
2530
100
AcDbEntity
  8
寸法線
 62
     0
100
AcDbTrace
 10
332.308195583331
 20
83.3606282668682
 30
0.0
 11
333.1415289166643
 21
83.3606282668682
 31
0.0
 12
332.7248622499976
 22
80.8606282668682
 32
0.0
 13
332.7248622499976
 23
80.8606282668682
 33
0.0
  0
SOLID
  5
299A
330
2530
100
AcDbEntity
  8
寸法線
 62
     0
100
AcDbTrace
 10
332.308195583331
 20
92.3606282668682
 30
0.0
 11
333.1415289166643
 21
92.3606282668682
 31
0.0
 12
332.7248622499976
 22
94.8606282668682
 32
0.0
 13
332.7248622499976
 23
94.8606282668682
 33
0.0
  0
MTEXT
  5
299B
330
2530
100
AcDbEntity
  8
寸法線
 62
     0
100
AcDbMText
 10
330.0998622499976
 20
87.86062826686826
 30
0.0
 40
4.0
 41
0.0
 71
     5
 72
     1
  1
14
 11
0.0000000000000001
 21
1.0
 31
0.0
 73
     1
 44
1.0
1001
ACAD
1000
MTEXTBEGIN
1070
    73
1070
     1
1070
    44
1040
1.0
1070
    74
1070
     0
1000
MTEXTEND
  0
POINT
  5
299C
330
2530
100
AcDbEntity
  8
DEFPOINTS
 62
     0
100
AcDbPoint
 10
323.7289024319036
 20
80.8606282668682
 30
0.0
  0
POINT
  5
299D
330
2530
100
AcDbEntity
  8
DEFPOINTS
 62
     0
100
AcDbPoint
 10
323.7289024319036
 20
94.8606282668682
 30
0.0
  0
POINT
  5
299E
330
2530
100
AcDbEntity
  8
DEFPOINTS
 62
     0
100
AcDbPoint
 10
332.7248622499976
 20
94.8606282668682
 30
0.0
  0
ENDBLK
  5
2532
330
2530
100
AcDbEntity
  8
0
100
AcDbBlockEnd
  0
BLOCK
  5
2554
330
2553
100
AcDbEntity
  8
0
100
AcDbBlockBegin
  2
*D34
 70
     1
 10
0.0
 20
0.0
 30
0.0
  3
*D34
  1

  0
LINE
  5
298D
330
2553
100
AcDbEntity
  8
寸法線
 62
     0
370
    -2
100
AcDbLine
 10
305.7289364262055
 20
95.4856282668682
 30
0.0
 11
305.7289364262055
 21
100.625920618269
 31
0.0
  0
LINE
  5
298E
330
2553
100
AcDbEntity
  8
寸法線
 62
     0
370
    -2
100
AcDbLine
 10
315.7289364262053
 20
95.4856282668682
 30
0.0
 11
315.7289364262053
 21
100.625920618269
 31
0.0
  0
LINE
  5
298F
330
2553
100
AcDbEntity
  8
寸法線
 62
     0
370
    -2
100
AcDbLine
 10
308.2289364262056
 20
99.37592061826899
 30
0.0
 11
313.2289364262053
 21
99.37592061826899
 31
0.0
  0
SOLID
  5
2990
330
2553
100
AcDbEntity
  8
寸法線
 62
     0
100
AcDbTrace
 10
308.2289364262056
 20
99.79258728493567
 30
0.0
 11
308.2289364262056
 21
98.95925395160233
 31
0.0
 12
305.7289364262055
 22
99.37592061826899
 32
0.0
 13
305.7289364262055
 23
99.37592061826899
 33
0.0
  0
SOLID
  5
2991
330
2553
100
AcDbEntity
  8
寸法線
 62
     0
100
AcDbTrace
 10
313.2289364262053
 20
99.79258728493567
 30
0.0
 11
313.2289364262053
 21
98.95925395160233
 31
0.0
 12
315.7289364262053
 22
99.37592061826899
 32
0.0
 13
315.7289364262053
 23
99.37592061826899
 33
0.0
  0
MTEXT
  5
2992
330
2553
100
AcDbEntity
  8
寸法線
 62
     0
100
AcDbMText
 10
310.7289364262054
 20
101.750920618269
 30
0.0
 40
3.5
 41
0.0
 71
     5
 72
     1
  1
10
 73
     1
 44
1.0
1001
ACAD
1000
MTEXTBEGIN
1070
    73
1070
     1
1070
    44
1040
1.0
1070
    74
1070
     0
1000
MTEXTEND
  0
POINT
  5
2993
330
2553
100
AcDbEntity
  8
DEFPOINTS
 62
     0
100
AcDbPoint
 10
305.7289364262055
 20
94.8606282668682
 30
0.0
  0
POINT
  5
2994
330
2553
100
AcDbEntity
  8
DEFPOINTS
 62
     0
100
AcDbPoint
 10
315.7289364262053
 20
94.8606282668682
 30
0.0
  0
POINT
  5
2995
330
2553
100
AcDbEntity
  8
DEFPOINTS
 62
     0
100
AcDbPoint
 10
315.7289364262053
 20
99.37592061826899
 30
0.0
  0
ENDBLK
  5
2555
330
2553
100
AcDbEntity
  8
0
100
AcDbBlockEnd
  0
BLOCK
  5
282D
330
282C
100
AcDbEntity
  8
0
100
AcDbBlockBegin
  2
*D35
 70
     1
 10
0.0
 20
0.0
 30
0.0
  3
*D35
  1

  0
LINE
  5
2984
330
282C
100
AcDbEntity
  8
寸法線
 62
     0
370
    -2
100
AcDbLine
 10
262.3671744346751
 20
55.93382546711393
 30
0.0
 11
262.3671744346751
 21
108.7356718048958
 31
0.0
  0
LINE
  5
2985
330
282C
100
AcDbEntity
  8
寸法線
 62
     0
370
    -2
100
AcDbLine
 10
82.36717443467501
 20
55.93382546711393
 30
0.0
 11
82.36717443467501
 21
108.7356718048958
 31
0.0
  0
LINE
  5
2986
330
282C
100
AcDbEntity
  8
寸法線
 62
     0
370
    -2
100
AcDbLine
 10
259.8671744346751
 20
107.4856718048958
 30
0.0
 11
84.86717443467501
 21
107.4856718048958
 31
0.0
  0
SOLID
  5
2987
330
282C
100
AcDbEntity
  8
寸法線
 62
     0
100
AcDbTrace
 10
259.8671744346751
 20
107.9023384715624
 30
0.0
 11
259.8671744346751
 21
107.0690051382291
 31
0.0
 12
262.3671744346751
 22
107.4856718048958
 32
0.0
 13
262.3671744346751
 23
107.4856718048958
 33
0.0
  0
SOLID
  5
2988
330
282C
100
AcDbEntity
  8
寸法線
 62
     0
100
AcDbTrace
 10
84.86717443467501
 20
107.9023384715624
 30
0.0
 11
84.86717443467501
 21
107.0690051382291
 31
0.0
 12
82.36717443467501
 22
107.4856718048958
 32
0.0
 13
82.36717443467501
 23
107.4856718048958
 33
0.0
  0
MTEXT
  5
2989
330
282C
100
AcDbEntity
  8
寸法線
 62
     0
100
AcDbMText
 10
172.367174434675
 20
112.1106718048958
 30
0.0
 40
8.0
 41
0.0
 71
     5
 72
     1
  1
180
 73
     1
 44
1.0
1001
ACAD
1000
MTEXTBEGIN
1070
    73
1070
     1
1070
    44
1040
1.0
1070
    74
1070
     0
1000
MTEXTEND
  0
POINT
  5
298A
330
282C
100
AcDbEntity
  8
DEFPOINTS
 62
     0
100
AcDbPoint
 10
262.3671744346751
 20
55.30882546711393
 30
0.0
  0
POINT
  5
298B
330
282C
100
AcDbEntity
  8
DEFPOINTS
 62
     0
100
AcDbPoint
 10
82.36717443467501
 20
55.30882546711393
 30
0.0
  0
POINT
  5
298C
330
282C
100
AcDbEntity
  8
DEFPOINTS
 62
     0
100
AcDbPoint
 10
82.36717443467501
 20
107.4856718048958
 30
0.0
  0
ENDBLK
  5
282E
330
282C
100
AcDbEntity
  8
0
100
AcDbBlockEnd
  0
BLOCK
  5
2839
330
2838
100
AcDbEntity
  8
0
100
AcDbBlockBegin
  2
*D36
 70
     1
 10
0.0
 20
0.0
 30
0.0
  3
*D36
  1

  0
LINE
  5
297B
330
2838
100
AcDbEntity
  8
寸法線
 62
     0
370
    -2
100
AcDbLine
 10
81.74217443467501
 20
47.3088465303694
 30
0.0
 11
55.6903894005295
 21
47.30884653036941
 31
0.0
  0
LINE
  5
297C
330
2838
100
AcDbEntity
  8
寸法線
 62
     0
370
    -2
100
AcDbLine
 10
81.11717443467501
 20
55.30882546711393
 30
0.0
 11
55.69038940052951
 21
55.30882546711394
 31
0.0
  0
LINE
  5
297D
330
2838
100
AcDbEntity
  8
寸法線
 62
     0
370
    -2
100
AcDbLine
 10
56.94038940052951
 20
49.80884653036941
 30
0.0
 11
56.94038940052951
 21
52.80882546711394
 31
0.0
  0
SOLID
  5
297E
330
2838
100
AcDbEntity
  8
寸法線
 62
     0
100
AcDbTrace
 10
56.52372273386284
 20
49.80884653036941
 30
0.0
 11
57.35705606719617
 21
49.80884653036941
 31
0.0
 12
56.9403894005295
 22
47.30884653036941
 32
0.0
 13
56.9403894005295
 23
47.30884653036941
 33
0.0
  0
SOLID
  5
297F
330
2838
100
AcDbEntity
  8
寸法線
 62
     0
100
AcDbTrace
 10
56.52372273386284
 20
52.80882546711394
 30
0.0
 11
57.35705606719617
 21
52.80882546711394
 31
0.0
 12
56.94038940052951
 22
55.30882546711394
 32
0.0
 13
56.94038940052951
 23
55.30882546711394
 33
0.0
  0
MTEXT
  5
2980
330
2838
100
AcDbEntity
  8
寸法線
 62
     0
100
AcDbMText
 10
54.31538940052949
 20
51.30883599874169
 30
0.0
 40
4.0
 41
0.0
 71
     5
 72
     1
  1
8
 11
0.0000000000000001
 21
1.0
 31
0.0
 73
     1
 44
1.0
1001
ACAD
1000
MTEXTBEGIN
1070
    73
1070
     1
1070
    44
1040
1.0
1070
    74
1070
     0
1000
MTEXTEND
  0
POINT
  5
2981
330
2838
100
AcDbEntity
  8
DEFPOINTS
 62
     0
100
AcDbPoint
 10
82.36717443467501
 20
47.3088465303694
 30
0.0
  0
POINT
  5
2982
330
2838
100
AcDbEntity
  8
DEFPOINTS
 62
     0
100
AcDbPoint
 10
81.74217443467501
 20
55.30882546711393
 30
0.0
  0
POINT
  5
2983
330
2838
100
AcDbEntity
  8
DEFPOINTS
 62
     0
100
AcDbPoint
 10
56.94038940052951
 20
55.30882546711394
 30
0.0
  0
ENDBLK
  5
283A
330
2838
100
AcDbEntity
  8
0
100
AcDbBlockEnd
  0
BLOCK
  5
2845
330
2844
100
AcDbEntity
  8
0
100
AcDbBlockBegin
  2
*D37
 70
     1
 10
0.0
 20
0.0
 30
0.0
  3
*D37
  1

  0
LINE
  5
2973
330
2844
100
AcDbEntity
  8
寸法線
 62
     0
370
    -2
100
AcDbLine
 10
106.8421630018739
 20
100.2085071570199
 30
0.0
 11
139.8500687309964
 21
89.30042364548503
 31
0.0
  0
LINE
  5
2974
330
2844
100
AcDbEntity
  8
寸法線
 62
     0
370
    -2
100
AcDbLine
 10
148.5854328002767
 20
86.41365822772931
 30
0.0
 11
150.9591730364939
 21
85.62921110333929
 31
0.0
  0
MTEXT
  5
2975
330
2844
100
AcDbEntity
  8
寸法線
 62
     0
100
AcDbMText
 10
120.4431074965826
 20
99.00503857428441
 30
0.0
 40
5.0
 41
0.0
 71
     5
 72
     1
  1
2-M4ｻﾗ
 11
0.9494960944868571
 21
-0.3137788497560105
 31
0.0
 73
     1
 44
1.0
1001
ACAD
1000
MTEXTBEGIN
1070
    73
1070
     1
1070
    44
1040
1.0
1070
    74
1070
     0
1000
MTEXTEND
  0
LINE
  5
2976
330
2844
100
AcDbEntity
  8
寸法線
 62
     0
370
    -2
100
AcDbLine
 10
146.2116925640596
 20
87.19810535211934
 30
0.0
 11
142.2238089672136
 21
88.515976521095
 31
0.0
  0
SOLID
  5
2977
330
2844
100
AcDbEntity
  8
寸法線
 62
     0
100
AcDbTrace
 10
148.7161739876751
 20
86.80928160043217
 30
0.0
 11
148.4546916128784
 21
86.01803485502648
 31
0.0
 12
146.2116925640596
 22
87.19810535211934
 32
0.0
 13
146.2116925640596
 23
87.19810535211934
 33
0.0
  0
SOLID
  5
2978
330
2844
100
AcDbEntity
  8
寸法線
 62
     0
100
AcDbTrace
 10
139.9808099183947
 20
89.69604701818788
 30
0.0
 11
139.7193275435981
 21
88.90480027278218
 31
0.0
 12
142.2238089672136
 22
88.515976521095
 32
0.0
 13
142.2238089672136
 23
88.515976521095
 33
0.0
  0
POINT
  5
2979
330
2844
100
AcDbEntity
  8
DEFPOINTS
 62
     0
100
AcDbPoint
 10
142.2238089672136
 20
88.515976521095
 30
0.0
  0
POINT
  5
297A
330
2844
100
AcDbEntity
  8
DEFPOINTS
 62
     0
100
AcDbPoint
 10
146.2116925640596
 20
87.19810535211934
 30
0.0
  0
ENDBLK
  5
2846
330
2844
100
AcDbEntity
  8
0
100
AcDbBlockEnd
  0
BLOCK
  5
2850
330
284F
100
AcDbEntity
  8
0
100
AcDbBlockBegin
  2
*D38
 70
     1
 10
0.0
 20
0.0
 30
0.0
  3
*D38
  1

  0
LINE
  5
296A
330
284F
100
AcDbEntity
  8
寸法線
 62
     0
370
    -2
100
AcDbLine
 10
194.2406966444469
 20
87.23562826686821
 30
0.0
 11
194.2406966444469
 21
67.71710156653575
 31
0.0
  0
LINE
  5
296B
330
284F
100
AcDbEntity
  8
寸法線
 62
     0
370
    -2
100
AcDbLine
 10
144.2406966444468
 20
87.23562826686821
 30
0.0
 11
144.2406966444468
 21
67.71710156653575
 31
0.0
  0
LINE
  5
296C
330
284F
100
AcDbEntity
  8
寸法線
 62
     0
370
    -2
100
AcDbLine
 10
191.7406966444469
 20
68.96710156653575
 30
0.0
 11
146.7406966444468
 21
68.96710156653575
 31
0.0
  0
SOLID
  5
296D
330
284F
100
AcDbEntity
  8
寸法線
 62
     0
100
AcDbTrace
 10
191.7406966444469
 20
69.38376823320242
 30
0.0
 11
191.7406966444469
 21
68.55043489986908
 31
0.0
 12
194.2406966444469
 22
68.96710156653575
 32
0.0
 13
194.2406966444469
 23
68.96710156653575
 33
0.0
  0
SOLID
  5
296E
330
284F
100
AcDbEntity
  8
寸法線
 62
     0
100
AcDbTrace
 10
146.7406966444468
 20
69.38376823320242
 30
0.0
 11
146.7406966444468
 21
68.55043489986908
 31
0.0
 12
144.2406966444468
 22
68.96710156653575
 32
0.0
 13
144.2406966444468
 23
68.96710156653575
 33
0.0
  0
MTEXT
  5
296F
330
284F
100
AcDbEntity
  8
寸法線
 62
     0
100
AcDbMText
 10
167.3772231544571
 20
72.09210156653575
 30
0.0
 40
5.0
 41
0.0
 71
     5
 72
     1
  1
穴ピッチ 50
 73
     1
 44
1.0
1001
ACAD
1000
MTEXTBEGIN
1070
    73
1070
     1
1070
    44
1040
1.0
1070
    74
1070
     0
1000
MTEXTEND
  0
POINT
  5
2970
330
284F
100
AcDbEntity
  8
DEFPOINTS
 62
     0
100
AcDbPoint
 10
194.2406966444469
 20
87.86062826686821
 30
0.0
  0
POINT
  5
2971
330
284F
100
AcDbEntity
  8
DEFPOINTS
 62
     0
100
AcDbPoint
 10
144.2406966444468
 20
87.86062826686821
 30
0.0
  0
POINT
  5
2972
330
284F
100
AcDbEntity
  8
DEFPOINTS
 62
     0
100
AcDbPoint
 10
144.2406966444468
 20
68.96710156653575
 30
0.0
  0
ENDBLK
  5
2851
330
284F
100
AcDbEntity
  8
0
100
AcDbBlockEnd
  0
BLOCK
  5
285C
330
285B
100
AcDbEntity
  8
0
100
AcDbBlockBegin
  2
*D39
 70
     1
 10
0.0
 20
0.0
 30
0.0
  3
*D39
  1

  0
LINE
  5
2961
330
285B
100
AcDbEntity
  8
寸法線
 62
     0
370
    -2
100
AcDbLine
 10
144.3671846534951
 20
87.18265769667704
 30
0.0
 11
144.3671846534951
 21
67.76889202460228
 31
0.0
  0
LINE
  5
2962
330
285B
100
AcDbEntity
  8
寸法線
 62
     0
370
    -2
100
AcDbLine
 10
82.36717443467501
 20
55.93382546711393
 30
0.0
 11
82.36717443467501
 21
70.26889202460228
 31
0.0
  0
LINE
  5
2963
330
285B
100
AcDbEntity
  8
寸法線
 62
     0
370
    -2
100
AcDbLine
 10
141.8671846534951
 20
69.01889202460228
 30
0.0
 11
84.86717443467501
 21
69.01889202460228
 31
0.0
  0
SOLID
  5
2964
330
285B
100
AcDbEntity
  8
寸法線
 62
     0
100
AcDbTrace
 10
141.8671846534951
 20
69.43555869126895
 30
0.0
 11
141.8671846534951
 21
68.6022253579356
 31
0.0
 12
144.3671846534951
 22
69.01889202460228
 32
0.0
 13
144.3671846534951
 23
69.01889202460228
 33
0.0
  0
SOLID
  5
2965
330
285B
100
AcDbEntity
  8
寸法線
 62
     0
100
AcDbTrace
 10
84.86717443467501
 20
69.43555869126895
 30
0.0
 11
84.86717443467501
 21
68.6022253579356
 31
0.0
 12
82.36717443467501
 22
69.01889202460228
 32
0.0
 13
82.36717443467501
 23
69.01889202460228
 33
0.0
  0
MTEXT
  5
2966
330
285B
100
AcDbEntity
  8
寸法線
 62
     0
100
AcDbMText
 10
113.367179544085
 20
71.39389202460228
 30
0.0
 40
3.5
 41
0.0
 71
     5
 72
     1
  1
62
 73
     1
 44
1.0
1001
ACAD
1000
MTEXTBEGIN
1070
    73
1070
     1
1070
    44
1040
1.0
1070
    74
1070
     0
1000
MTEXTEND
  0
POINT
  5
2967
330
285B
100
AcDbEntity
  8
DEFPOINTS
 62
     0
100
AcDbPoint
 10
144.3671846534951
 20
87.80765769667704
 30
0.0
  0
POINT
  5
2968
330
285B
100
AcDbEntity
  8
DEFPOINTS
 62
     0
100
AcDbPoint
 10
82.36717443467501
 20
55.30882546711393
 30
0.0
  0
POINT
  5
2969
330
285B
100
AcDbEntity
  8
DEFPOINTS
 62
     0
100
AcDbPoint
 10
82.36717443467501
 20
69.01889202460228
 30
0.0
  0
ENDBLK
  5
285D
330
285B
100
AcDbEntity
  8
0
100
AcDbBlockEnd
  0
ENDSEC
  0
SECTION
  2
ENTITIES
  0
TEXT
  5
485
330
1F
100
AcDbEntity
  8
0
100
AcDbText
 10
110.5777207335993
 20
224.3434963140066
 30
0.0
 40
7.0
  1
  ABS　t=2mm 
  7
BIGFONT
100
AcDbText
  0
TEXT
  5
486
330
1F
100
AcDbEntity
  8
0
100
AcDbText
 10
52.57772073360024
 20
224.3434963140066
 30
0.0
 40
7.0
  1
カバー材
  7
BIGFONT
100
AcDbText
  0
LINE
  5
487
330
1F
100
AcDbEntity
  8
0
100
AcDbLine
 10
46.76766519963599
 20
233.7434963140072
 30
0.0
 11
235.7176651996358
 21
233.7434963140072
 31
0.0
  0
LINE
  5
488
330
1F
100
AcDbEntity
  8
0
100
AcDbLine
 10
46.76766519963599
 20
221.7434963140063
 30
0.0
 11
235.7176651996358
 21
221.7434963140063
 31
0.0
  0
LINE
  5
489
330
1F
100
AcDbEntity
  8
0
100
AcDbLine
 10
46.76766519963599
 20
233.7434963140072
 30
0.0
 11
46.76766519963599
 21
197.7434963140062
 31
0.0
  0
LINE
  5
48A
330
1F
100
AcDbEntity
  8
0
100
AcDbLine
 10
106.767665199636
 20
233.7434963140072
 30
0.0
 11
106.767665199636
 21
197.7434963140062
 31
0.0
  0
LINE
  5
48B
330
1F
100
AcDbEntity
  8
0
100
AcDbLine
 10
235.7176651996358
 20
233.7434963140072
 30
0.0
 11
235.7176651996358
 21
197.7434963140062
 31
0.0
  0
LINE
  5
48C
330
1F
100
AcDbEntity
  8
0
100
AcDbLine
 10
46.76766519963599
 20
197.7434963140063
 30
0.0
 11
235.7176651996358
 21
197.7434963140063
 31
0.0
  0
TEXT
  5
48D
330
1F
100
AcDbEntity
  8
0
100
AcDbText
 10
110.5777207335993
 20
200.3434963140072
 30
0.0
 40
7.0
  1
  298(L)×38(D)×43(H) mm
  7
BIGFONT
100
AcDbText
  0
TEXT
  5
48E
330
1F
100
AcDbEntity
  8
0
100
AcDbText
 10
52.57772073360024
 20
200.3434963140072
 30
0.0
 40
7.0
  1
寸　　　法
  7
BIGFONT
100
AcDbText
  0
LINE
  5
48F
330
1F
100
AcDbEntity
  8
0
100
AcDbLine
 10
0.0000000000002274
 20
16.00000000000022
 30
0.0
 11
370.45
 21
16.00000000000022
 31
0.0
  0
LINE
  5
490
330
1F
100
AcDbEntity
  8
0
100
AcDbLine
 10
1.549999999999499
 20
31.99999999999932
 30
0.0
 11
370.45
 21
31.99999999999932
 31
0.0
  0
LINE
  5
491
330
1F
100
AcDbEntity
  8
0
100
AcDbLine
 10
200.5499999999995
 20
31.99999999999932
 30
0.0
 11
200.5499999999995
 21
0.0000000000002274
 31
0.0
  0
LINE
  5
495
330
1F
100
AcDbEntity
  8
0
100
AcDbLine
 10
0.0000000000002274
 20
31.99999999999932
 30
0.0
 11
370.45
 21
31.99999999999932
 31
0.0
  0
TEXT
  5
496
330
1F
100
AcDbEntity
  8
0
100
AcDbText
 10
55.24999999999931
 20
20.95000000000005
 30
0.0
 40
7.349999999999996
  1
単位 mm
  7
BIGFONT
100
AcDbText
  0
TEXT
  5
497
330
1F
100
AcDbEntity
  8
0
100
AcDbText
 10
234.4499999999992
 20
4.399999999999863
 30
0.0
 40
7.349999999999997
  1
　日本電子工業株式会社
  7
BIGFONT
100
AcDbText
  0
LINE
  5
498
330
1F
100
AcDbEntity
  8
0
100
AcDbLine
 10
0.0000000000002274
 20
523.4999999999993
 30
0.0
 11
370.45
 21
523.4999999999993
 31
0.0
  0
TEXT
  5
499
330
1F
100
AcDbEntity
  8
0
100
AcDbText
 10
55.24999999999931
 20
4.399999999999863
 30
0.0
 40
7.349999999999996
  1
尺度　　　１／2
  7
BIGFONT
100
AcDbText
  0
LINE
  5
49B
330
1F
100
AcDbEntity
  8
0
100
AcDbLine
 10
233.8296387909743
 20
31.99999999999932
 30
0.0
 11
233.8296387909743
 21
16.00000000000022
 31
0.0
  0
TEXT
  5
49C
330
1F
100
AcDbEntity
  8
0
100
AcDbText
 10
245.1275646159293
 20
20.95000000000005
 30
0.0
 40
7.349999999999996
  1
WL131(R)_V3_3M
  7
BIGFONT
100
AcDbText
  0
TEXT
  5
49D
330
1F
100
AcDbEntity
  8
0
100
AcDbText
 10
205.4469376093885
 20
20.95000000000005
 30
0.0
 40
7.349999999999996
  1
図番
  7
BIGFONT
100
AcDbText
  0
MTEXT
  5
4A2
330
1F
100
AcDbEntity
  8
補足
100
AcDbMText
 10
27.49151391651992
 20
494.5184926227642
 30
0.0
 40
7.0
 41
97.60864549221331
 71
     1
 72
     5
  1
{\fMS PGothic|b0|i0|c128|p50;電気錠本体}
 73
     1
 44
1.0
1001
ACAD
1000
MTEXTBEGIN
1070
    73
1070
     1
1070
    44
1040
1.0
1070
    74
1070
     0
1000
MTEXTEND
  0
MTEXT
  5
4A3
330
1F
100
AcDbEntity
  8
補足
100
AcDbMText
 10
189.2565182876366
 20
475.328493508882
 30
0.0
 40
5.0
 41
57.60420509074203
 71
     3
 72
     5
  1
取付ベース
  7
BIGFONT
 73
     1
 44
1.0
1001
ACAD
1000
MTEXTBEGIN
1070
    73
1070
     1
1070
    44
1040
1.0
1070
    74
1070
     0
1000
MTEXTEND
  0
MTEXT
  5
4A4
330
1F
100
AcDbEntity
  8
補足
100
AcDbMText
 10
273.9547592000191
 20
474.9983740938576
 30
0.0
 40
5.0
 41
57.60420509074203
 71
     3
 72
     5
  1
配線引込穴
  7
BIGFONT
 73
     1
 44
1.0
1001
ACAD
1000
MTEXTBEGIN
1070
    73
1070
     1
1070
    44
1040
1.0
1070
    74
1070
     0
1000
MTEXTEND
  0
MTEXT
  5
4A5
330
1F
100
AcDbEntity
  8
補足
100
AcDbMText
 10
103.1344008382957
 20
477.0448357711673
 30
0.0
 40
5.0
 41
43.00640813655809
 71
     3
 72
     5
  1
ラッチ
  7
BIGFONT
 73
     1
 44
1.0
1001
ACAD
1000
MTEXTBEGIN
1070
    73
1070
     1
1070
    44
1040
1.0
1070
    74
1070
     0
1000
MTEXTEND
1000
ACAD_MTEXT_DEFINED_HEIGHT_BEGIN
1070
    46
1040
5.650556946984123
1000
ACAD_MTEXT_DEFINED_HEIGHT_END
  0
TEXT
  5
510
330
1F
100
AcDbEntity
  8
0
100
AcDbText
 10
110.5777207335993
 20
183.9979257364715
 30
0.0
 40
7.0
  1
DC24V ±20%%%
  7
BIGFONT
100
AcDbText
  0
TEXT
  5
511
330
1F
100
AcDbEntity
  8
0
100
AcDbText
 10
52.57772073360024
 20
183.9979257364715
 30
0.0
 40
7.0
  1
定格電圧
  7
BIGFONT
100
AcDbText
  0
LINE
  5
512
330
1F
100
AcDbEntity
  8
0
100
AcDbLine
 10
46.76766519963599
 20
193.3979257364713
 30
0.0
 11
235.7176651996358
 21
193.3979257364713
 31
0.0
  0
LINE
  5
513
330
1F
100
AcDbEntity
  8
0
100
AcDbLine
 10
46.76766519963599
 20
181.3979257364703
 30
0.0
 11
235.7176651996358
 21
181.3979257364703
 31
0.0
  0
LINE
  5
514
330
1F
100
AcDbEntity
  8
0
100
AcDbLine
 10
46.76766519963599
 20
193.3979257364713
 30
0.0
 11
46.76766519963599
 21
169.3979257364703
 31
0.0
  0
LINE
  5
515
330
1F
100
AcDbEntity
  8
0
100
AcDbLine
 10
106.767665199636
 20
193.3979257364713
 30
0.0
 11
106.767665199636
 21
169.3979257364703
 31
0.0
  0
LINE
  5
516
330
1F
100
AcDbEntity
  8
0
100
AcDbLine
 10
235.7176651996358
 20
193.3979257364713
 30
0.0
 11
235.7176651996358
 21
169.3979257364703
 31
0.0
  0
LINE
  5
517
330
1F
100
AcDbEntity
  8
0
100
AcDbLine
 10
46.76766519963599
 20
169.3979257364703
 30
0.0
 11
235.7176651996358
 21
169.3979257364703
 31
0.0
  0
TEXT
  5
518
330
1F
100
AcDbEntity
  8
0
100
AcDbText
 10
110.5777207335993
 20
171.9979257364706
 30
0.0
 40
7.0
  1
0.2A ±20%%%
  7
BIGFONT
100
AcDbText
  0
TEXT
  5
519
330
1F
100
AcDbEntity
  8
0
100
AcDbText
 10
52.57772073360024
 20
171.9979257364706
 30
0.0
 40
7.0
  1
定格電流
  7
BIGFONT
100
AcDbText
  0
TEXT
  5
51A
330
1F
100
AcDbEntity
  8
0
100
AcDbText
 10
110.5777207335993
 20
159.9979257364706
 30
0.0
 40
7.0
  1
DC24V, 0.1A　(抵抗負荷)
  7
BIGFONT
100
AcDbText
  0
TEXT
  5
51B
330
1F
100
AcDbEntity
  8
0
100
AcDbText
 10
52.57772073360024
 20
159.9979257364706
 30
0.0
 40
7.0
  1
ＳＷ容量
  7
BIGFONT
100
AcDbText
  0
LINE
  5
51C
330
1F
100
AcDbEntity
  8
0
100
AcDbLine
 10
46.76766519963599
 20
169.3979257364703
 30
0.0
 11
235.7176651996358
 21
169.3979257364703
 31
0.0
  0
LINE
  5
51D
330
1F
100
AcDbEntity
  8
0
100
AcDbLine
 10
46.76766519963599
 20
157.3979257364703
 30
0.0
 11
235.7176651996358
 21
157.3979257364703
 31
0.0
  0
LINE
  5
51E
330
1F
100
AcDbEntity
  8
0
100
AcDbLine
 10
46.76766519963599
 20
169.3979257364703
 30
0.0
 11
46.76766519963599
 21
145.3979257364713
 31
0.0
  0
LINE
  5
51F
330
1F
100
AcDbEntity
  8
0
100
AcDbLine
 10
106.767665199636
 20
169.3979257364703
 30
0.0
 11
106.767665199636
 21
145.3979257364713
 31
0.0
  0
LINE
  5
520
330
1F
100
AcDbEntity
  8
0
100
AcDbLine
 10
235.7176651996358
 20
169.3979257364703
 30
0.0
 11
235.7176651996358
 21
145.3979257364704
 31
0.0
  0
LINE
  5
521
330
1F
100
AcDbEntity
  8
0
100
AcDbLine
 10
46.76766519963599
 20
145.3979257364713
 30
0.0
 11
235.7176651996358
 21
145.3979257364704
 31
0.0
  0
TEXT
  5
522
330
1F
100
AcDbEntity
  8
0
100
AcDbText
 10
110.5777207335993
 20
147.9979257364707
 30
0.0
 40
7.0
  1
-10～+50℃（氷結なきこと）
  7
BIGFONT
100
AcDbText
  0
TEXT
  5
523
330
1F
100
AcDbEntity
  8
0
100
AcDbText
 10
52.57772073360024
 20
147.9979257364707
 30
0.0
 40
7.0
  1
温度範囲
  7
BIGFONT
100
AcDbText
  0
TEXT
  5
524
330
1F
100
AcDbEntity
  8
0
100
AcDbText
 10
110.5777207335993
 20
135.9979257364706
 30
0.0
 40
7.0
  1
   0.7kg　(本体重量）
  7
BIGFONT
100
AcDbText
  0
TEXT
  5
525
330
1F
100
AcDbEntity
  8
0
100
AcDbText
 10
52.57772073360024
 20
135.9979257364706
 30
0.0
 40
7.0
  1
重　　量
  7
BIGFONT
100
AcDbText
  0
LINE
  5
526
330
1F
100
AcDbEntity
  8
0
100
AcDbLine
 10
46.76766519963599
 20
145.3979257364713
 30
0.0
 11
235.7176651996358
 21
145.3979257364704
 31
0.0
  0
LINE
  5
527
330
1F
100
AcDbEntity
  8
0
100
AcDbLine
 10
46.76766519963599
 20
133.3979257364703
 30
0.0
 11
235.7176651996358
 21
133.3979257364703
 31
0.0
  0
LINE
  5
528
330
1F
100
AcDbEntity
  8
0
100
AcDbLine
 10
46.76766519963599
 20
145.3979257364713
 30
0.0
 11
46.76766519963599
 21
121.3979257364704
 31
0.0
  0
LINE
  5
529
330
1F
100
AcDbEntity
  8
0
100
AcDbLine
 10
106.767665199636
 20
145.3979257364704
 30
0.0
 11
106.767665199636
 21
121.3979257364704
 31
0.0
  0
LINE
  5
52A
330
1F
100
AcDbEntity
  8
0
100
AcDbLine
 10
235.7176651996358
 20
145.3979257364704
 30
0.0
 11
235.7176651996358
 21
121.3979257364704
 31
0.0
  0
LINE
  5
52B
330
1F
100
AcDbEntity
  8
0
100
AcDbLine
 10
46.76766519963599
 20
121.3979257364704
 30
0.0
 11
235.7176651996358
 21
121.3979257364704
 31
0.0
  0
TEXT
  5
52C
330
1F
100
AcDbEntity
  8
0
100
AcDbText
 10
110.5777207335993
 20
123.9979257364707
 30
0.0
 40
7.0
  1
0/130mm（100mmオプション）
  7
BIGFONT
100
AcDbText
  0
TEXT
  5
52D
330
1F
100
AcDbEntity
  8
0
100
AcDbText
 10
52.57772073360024
 20
123.9979257364707
 30
0.0
 40
7.0
  1
窓開放寸法
  7
BIGFONT
100
AcDbText
  0
LINE
  5
52E
330
1F
100
AcDbEntity
  8
0
100
AcDbLine
 10
46.76766519963599
 20
121.3979257364704
 30
0.0
 11
235.7176651996358
 21
121.3979257364704
 31
0.0
  0
LINE
  5
55D
102
{ACAD_REACTORS
330
A4C
330
1B6C
102
}
330
1F
100
AcDbEntity
  8
電気錠
  6
Continuous
100
AcDbLine
 10
303.2782726057306
 20
186.4947554904914
 30
0.0
 11
313.2782726057306
 21
186.4947554904914
 31
0.0
  0
LINE
  5
55E
102
{ACAD_REACTORS
330
A4C
330
A86
330
1B6C
102
}
330
1F
100
AcDbEntity
  8
電気錠
  6
Continuous
100
AcDbLine
 10
313.2782726057306
 20
186.4947554904914
 30
0.0
 11
313.2782726057306
 21
196.4947554904914
 31
0.0
  0
LINE
  5
55F
102
{ACAD_REACTORS
330
A6E
330
A86
330
1B6C
102
}
330
1F
100
AcDbEntity
  8
電気錠
  6
Continuous
100
AcDbLine
 10
313.2782726057306
 20
196.4947554904914
 30
0.0
 11
303.4452423277311
 21
196.4947554904914
 31
0.0
  0
ARC
  5
560
102
{ACAD_REACTORS
330
1B6C
102
}
330
1F
100
AcDbEntity
  8
電気錠
  6
Continuous
100
AcDbCircle
 10
294.7781896617311
 20
186.4242102463916
 30
0.0
 40
30.0
100
AcDbArc
 50
158.9600889793991
 51
206.6884063062933
  0
ARC
  5
561
102
{ACAD_REACTORS
330
1B6C
102
}
330
1F
100
AcDbEntity
  8
電気錠
  6
Continuous
100
AcDbCircle
 10
268.8761955924305
 20
173.3820616531914
 30
0.0
 40
1.0
100
AcDbArc
 50
205.5944206819945
 51
270.5944206820019
  0
LINE
  5
562
102
{ACAD_REACTORS
330
1B6C
102
}
330
1F
100
AcDbEntity
  8
電気錠
  6
Continuous
100
AcDbLine
 10
266.7782726057307
 20
197.1947554904912
 30
0.0
 11
266.7782726057307
 21
208.1947554904912
 31
0.0
  0
ARC
  5
563
102
{ACAD_REACTORS
330
1B6C
102
}
330
1F
100
AcDbEntity
  8
電気錠
  6
Continuous
100
AcDbCircle
 10
267.7782726057306
 20
208.1947554904912
 30
0.0
 40
1.0
100
AcDbArc
 50
90.0
 51
180.0
  0
LINE
  5
564
102
{ACAD_REACTORS
330
1B6D
102
}
330
1F
100
AcDbEntity
  8
電気錠
  6
Continuous
100
AcDbLine
 10
323.3543398696501
 20
404.7590987816418
 30
0.0
 11
323.3543398696501
 21
433.7590987816418
 31
0.0
  0
ARC
  5
565
102
{ACAD_REACTORS
330
1B6D
102
}
330
1F
100
AcDbEntity
  8
電気錠
  6
Continuous
100
AcDbCircle
 10
320.3543398696492
 20
433.7590987816418
 30
0.0
 40
3.0
100
AcDbArc
 50
0.0
 51
90.0
  0
LINE
  5
566
102
{ACAD_REACTORS
330
1B6D
102
}
330
1F
100
AcDbEntity
  8
電気錠
  6
Continuous
100
AcDbLine
 10
320.3543398696492
 20
438.7590987816418
 30
0.0
 11
320.3543398696492
 21
436.7590987816418
 31
0.0
  0
INSERT
  5
567
102
{ACAD_REACTORS
330
B24
330
1B6D
102
}
330
1F
100
AcDbEntity
  8
電気錠
100
AcDbBlockReference
  2
*U2
 10
210.3543398696491
 20
476.7590987816418
 30
0.0
 41
-1.0
 50
180.0
  0
LINE
  5
568
102
{ACAD_REACTORS
330
1B6D
102
}
330
1F
100
AcDbEntity
  8
電気錠
  6
Continuous
100
AcDbLine
 10
288.3543398696492
 20
428.2590987816418
 30
0.0
 11
288.3543398696492
 21
410.2590987816418
 31
0.0
  0
ARC
  5
569
102
{ACAD_REACTORS
330
1B6D
102
}
330
1F
100
AcDbEntity
  8
電気錠
  6
Continuous
100
AcDbCircle
 10
254.3543398696491
 20
428.2590987816418
 30
0.0
 40
2.0
100
AcDbArc
 50
90.0
 51
180.0
  0
LINE
  5
56A
102
{ACAD_REACTORS
330
B6F
330
1B6D
102
}
330
1F
100
AcDbEntity
  8
電気錠
  6
Continuous
100
AcDbLine
 10
254.3543398696491
 20
430.2590987816418
 30
0.0
 11
286.3543398696492
 21
430.2590987816418
 31
0.0
  0
ARC
  5
56B
102
{ACAD_REACTORS
330
1B6D
102
}
330
1F
100
AcDbEntity
  8
電気錠
  6
Continuous
100
AcDbCircle
 10
286.3543398696492
 20
428.2590987816418
 30
0.0
 40
2.0
100
AcDbArc
 50
0.0
 51
90.0
  0
ARC
  5
56C
102
{ACAD_REACTORS
330
1B6D
102
}
330
1F
100
AcDbEntity
  8
電気錠
  6
Continuous
100
AcDbCircle
 10
254.3543398696491
 20
410.2590987816418
 30
0.0
 40
2.0
100
AcDbArc
 50
180.0
 51
270.0
  0
LINE
  5
56D
102
{ACAD_REACTORS
330
1B6D
102
}
330
1F
100
AcDbEntity
  8
電気錠
  6
Continuous
100
AcDbLine
 10
252.3543398696501
 20
428.2590987816418
 30
0.0
 11
252.3543398696501
 21
410.2590987816418
 31
0.0
  0
LINE
  5
56E
102
{ACAD_REACTORS
330
B6F
330
1B6D
102
}
330
1F
100
AcDbEntity
  8
電気錠
  6
Continuous
100
AcDbLine
 10
286.3543398696492
 20
408.2590987816418
 30
0.0
 11
254.3543398696491
 21
408.2590987816418
 31
0.0
  0
ARC
  5
56F
102
{ACAD_REACTORS
330
1B6D
102
}
330
1F
100
AcDbEntity
  8
電気錠
  6
Continuous
100
AcDbCircle
 10
286.3543398696492
 20
410.2590987816418
 30
0.0
 40
2.0
100
AcDbArc
 50
270.0
 51
0.0
  0
ARC
  5
57C
102
{ACAD_REACTORS
330
1B6D
102
}
330
1F
100
AcDbEntity
  8
電気錠
  6
Continuous
100
AcDbCircle
 10
320.3543398696492
 20
404.7590987816418
 30
0.0
 40
3.0
100
AcDbArc
 50
270.0
 51
0.0
  0
LINE
  5
57D
102
{ACAD_REACTORS
330
1B6C
102
}
330
1F
100
AcDbEntity
  8
電気錠
  6
Continuous
100
AcDbLine
 10
303.2782726057306
 20
171.1947554904903
 30
0.0
 11
268.8417207567303
 21
172.3826560869905
 31
0.0
  0
LINE
  5
57E
102
{ACAD_REACTORS
330
1B6C
102
}
330
1F
100
AcDbEntity
  8
電気錠
  6
Continuous
100
AcDbLine
 10
306.7782726057306
 20
209.1947554904912
 30
0.0
 11
267.7782726057306
 21
209.1947554904912
 31
0.0
  0
LINE
  5
57F
102
{ACAD_REACTORS
330
A34
330
1B6C
102
}
330
1F
100
AcDbEntity
  8
電気錠
  6
Continuous
100
AcDbLine
 10
303.2782726057306
 20
195.6947554904912
 30
0.0
 11
303.2782726057306
 21
171.1947554904903
 31
0.0
  0
LINE
  5
580
102
{ACAD_REACTORS
330
1B6C
102
}
330
1F
100
AcDbEntity
  8
電気錠
  6
Continuous
100
AcDbLine
 10
305.2782726057306
 20
197.6947554904921
 30
0.0
 11
306.7782726057306
 21
197.6947554904921
 31
0.0
  0
ARC
  5
581
102
{ACAD_REACTORS
330
1B6C
102
}
330
1F
100
AcDbEntity
  8
電気錠
  6
Continuous
100
AcDbCircle
 10
305.2782726057306
 20
195.6947554904912
 30
0.0
 40
2.0
100
AcDbArc
 50
90.0
 51
180.0
  0
ARC
  5
582
102
{ACAD_REACTORS
330
1B6C
102
}
330
1F
100
AcDbEntity
  8
電気錠
  6
Continuous
100
AcDbCircle
 10
306.7782726057306
 20
198.6947554904903
 30
0.0
 40
1.0
100
AcDbArc
 50
270.0
 51
0.0
  0
LINE
  5
583
102
{ACAD_REACTORS
330
9CA
330
A34
330
1B6C
102
}
330
1F
100
AcDbEntity
  8
電気錠
  6
Continuous
100
AcDbLine
 10
307.7782726057307
 20
208.1947554904912
 30
0.0
 11
307.7782726057307
 21
198.6947554904903
 31
0.0
  0
ARC
  5
584
102
{ACAD_REACTORS
330
1B6C
102
}
330
1F
100
AcDbEntity
  8
電気錠
  6
Continuous
100
AcDbCircle
 10
306.7782726057306
 20
208.1947554904912
 30
0.0
 40
1.0
100
AcDbArc
 50
0.0
 51
90.0
  0
LINE
  5
585
102
{ACAD_REACTORS
330
1B6D
102
}
330
1F
100
AcDbEntity
  8
電気錠
  6
Continuous
100
AcDbLine
 10
320.3543398696492
 20
401.7590987816418
 30
0.0
 11
320.3543398696492
 21
399.7590987816419
 31
0.0
  0
LINE
  5
587
102
{ACAD_REACTORS
330
1B6D
102
}
330
1F
100
AcDbEntity
  8
電気錠
  6
Continuous
100
AcDbLine
 10
94.78602815414877
 20
398.9765900806414
 30
0.0
 11
94.6860281541493
 21
398.9765900806414
 31
0.0
  0
LINE
  5
588
102
{ACAD_REACTORS
330
1B6D
102
}
330
1F
100
AcDbEntity
  8
電気錠
  6
Continuous
100
AcDbLine
 10
31.35433986964915
 20
433.7590987816418
 30
0.0
 11
31.35433986964915
 21
404.7590987816418
 31
0.0
  0
ARC
  5
589
102
{ACAD_REACTORS
330
1B6D
102
}
330
1F
100
AcDbEntity
  8
電気錠
  6
Continuous
100
AcDbCircle
 10
34.35433986964915
 20
404.7590987816418
 30
0.0
 40
3.0
100
AcDbArc
 50
180.0
 51
270.0
  0
LINE
  5
58A
102
{ACAD_REACTORS
330
1B6D
102
}
330
1F
100
AcDbEntity
  8
電気錠
  6
Continuous
100
AcDbLine
 10
34.35433986964915
 20
399.759098781642
 30
0.0
 11
34.35433986964915
 21
401.7590987816418
 31
0.0
  0
INSERT
  5
58B
102
{ACAD_REACTORS
330
B0C
330
B24
330
11FF
330
1B6D
102
}
330
1F
100
AcDbEntity
  8
電気錠
100
AcDbBlockReference
  2
*U3
 10
210.3543398696491
 20
476.7590987816418
 30
0.0
 41
-1.0
 50
180.0
  0
ARC
  5
58C
102
{ACAD_REACTORS
330
1B6D
102
}
330
1F
100
AcDbEntity
  8
電気錠
  6
Continuous
100
AcDbCircle
 10
34.35433986964915
 20
433.7590987816418
 30
0.0
 40
3.0
100
AcDbArc
 50
90.0
 51
180.0
  0
LINE
  5
58D
102
{ACAD_REACTORS
330
1B6D
102
}
330
1F
100
AcDbEntity
  8
電気錠
  6
Continuous
100
AcDbLine
 10
34.35433986964915
 20
436.7590987816418
 30
0.0
 11
34.35433986964915
 21
438.759098781642
 31
0.0
  0
ARC
  5
58E
102
{ACAD_REACTORS
330
1B6D
102
}
330
1F
100
AcDbEntity
  8
電気錠
  6
Continuous
100
AcDbCircle
 10
81.35473174904916
 20
443.7590987816419
 30
0.0
 40
1.0
100
AcDbArc
 50
0.0
 51
90.0
  0
LINE
  5
58F
102
{ACAD_REACTORS
330
1233
330
1B6D
102
}
330
1F
100
AcDbEntity
  8
電気錠
  6
Continuous
100
AcDbLine
 10
81.35473174904916
 20
444.7590987816418
 30
0.0
 11
80.35473174905005
 21
444.7590987816418
 31
0.0
  0
LINE
  5
590
102
{ACAD_REACTORS
330
1217
330
1233
330
1B6D
102
}
330
1F
100
AcDbEntity
  8
電気錠
  6
Continuous
100
AcDbLine
 10
82.35473174904916
 20
438.759098781642
 30
0.0
 11
82.35473174904916
 21
443.7590987816419
 31
0.0
  0
LINE
  5
591
102
{ACAD_REACTORS
330
1217
330
1B6D
102
}
330
1F
100
AcDbEntity
  8
電気錠
  6
Continuous
100
AcDbLine
 10
80.35473174905005
 20
444.7590987816418
 30
0.0
 11
69.96242690365403
 21
438.759098781642
 31
0.0
  0
ARC
  5
597
102
{ACAD_REACTORS
330
1B6F
102
}
330
1F
100
AcDbEntity
  8
電気錠
  6
DASHED
100
AcDbCircle
 10
320.3543398696486
 20
277.000895120325
 30
0.0
 40
3.000000000000479
100
AcDbArc
 50
270.000000000013
 51
350.619515632873
  0
LINE
  5
598
102
{ACAD_REACTORS
330
1B6F
102
}
330
1F
100
AcDbEntity
  8
電気錠
  6
DASHED
100
AcDbLine
 10
320.3543398696492
 20
272.0008951203248
 30
0.0
 11
320.3543398696492
 21
274.0008951203248
 31
0.0
  0
LINE
  5
59A
102
{ACAD_REACTORS
330
1B6E
102
}
330
1F
100
AcDbEntity
  8
電気錠
  6
DASHED
100
AcDbLine
 10
296.1543398696502
 20
376.7953936022631
 30
0.0
 11
300.554339869649
 21
376.7953898537643
 31
0.0
  0
LINE
  5
59B
102
{ACAD_REACTORS
330
1B6E
102
}
330
1F
100
AcDbEntity
  8
電気錠
  6
DASHED
100
AcDbLine
 10
300.554339869649
 20
376.7953908722637
 30
0.0
 11
300.554339869649
 21
374.7956395701648
 31
0.0
  0
LINE
  5
59C
102
{ACAD_REACTORS
330
1B6E
102
}
330
1F
100
AcDbEntity
  8
電気錠
  6
DASHED
100
AcDbLine
 10
296.1543398696502
 20
376.7953908722637
 30
0.0
 11
296.1543398696502
 21
374.7956395701648
 31
0.0
  0
LINE
  5
59D
102
{ACAD_REACTORS
330
1B6E
102
}
330
1F
100
AcDbEntity
  8
電気錠
  6
DASHED
100
AcDbLine
 10
288.3543398696492
 20
376.7955960411645
 30
0.0
 11
288.3543398696492
 21
374.7958447390637
 31
0.0
  0
LINE
  5
59E
102
{ACAD_REACTORS
330
1B6E
102
}
330
1F
100
AcDbEntity
  8
電気錠
  6
DASHED
100
AcDbLine
 10
252.3543398696501
 20
376.7953704922637
 30
0.0
 11
252.3543398696501
 21
374.7956191901638
 31
0.0
  0
LINE
  5
59F
102
{ACAD_REACTORS
330
1B6F
102
}
330
1F
100
AcDbEntity
  8
電気錠
  6
Continuous
100
AcDbLine
 10
81.35473174904914
 20
265.8316710041003
 30
0.0
 11
80.35473174905002
 21
265.8316710041003
 31
0.0
  0
ARC
  5
5A0
102
{ACAD_REACTORS
330
127C
330
1B6F
102
}
330
1F
100
AcDbEntity
  8
電気錠
  6
Continuous
100
AcDbCircle
 10
81.35473174904914
 20
266.8316710041003
 30
0.0
 40
1.0
100
AcDbArc
 50
270.0
 51
0.0
  0
LINE
  5
5A1
102
{ACAD_REACTORS
330
1B6F
102
}
330
1F
100
AcDbEntity
  8
電気錠
  6
Continuous
100
AcDbLine
 10
80.35473174905002
 20
265.8316710041003
 30
0.0
 11
63.35512504554918
 21
275.6463985105006
 31
0.0
  0
LINE
  5
5A2
102
{ACAD_REACTORS
330
127C
330
1B6F
102
}
330
1F
100
AcDbEntity
  8
電気錠
  6
Continuous
100
AcDbLine
 10
82.35473174904914
 20
276.5119253771004
 30
0.0
 11
82.35473174904914
 21
266.8316710041003
 31
0.0
  0
LINE
  5
5A3
102
{ACAD_REACTORS
330
1294
330
1B6F
102
}
330
1F
100
AcDbEntity
  8
電気錠
  6
DASHED
100
AcDbLine
 10
63.35512504554918
 20
275.6463985105006
 30
0.0
 11
63.35512504554918
 21
276.5119253771004
 31
0.0
  0
LINE
  5
5A8
102
{ACAD_REACTORS
330
1B6F
102
}
330
1F
100
AcDbEntity
  8
電気錠
  6
DASHED
100
AcDbLine
 10
36.35433986964911
 20
274.0008951203249
 30
0.0
 11
36.35433986964911
 21
272.0008951203249
 31
0.0
  0
ARC
  5
5AD
102
{ACAD_REACTORS
330
1B6F
102
}
330
1F
100
AcDbEntity
  8
電気錠
  6
DASHED
100
AcDbCircle
 10
36.35433986964978
 20
277.0008951203255
 30
0.0
 40
3.000000000000681
100
AcDbArc
 50
189.3804843671403
 51
269.999999999987
  0
LINE
  5
5B2
102
{ACAD_REACTORS
330
1B6E
102
}
330
1F
100
AcDbEntity
  8
電気錠
  6
Continuous
100
AcDbLine
 10
31.42733827734981
 20
374.7958678880631
 30
0.0
 11
35.37229234364885
 21
374.7958678880631
 31
0.0
  0
LINE
  5
5B3
102
{ACAD_REACTORS
330
1B6E
102
}
330
1F
100
AcDbEntity
  8
電気錠
  6
Continuous
100
AcDbLine
 10
31.42733827734981
 20
374.7958678880631
 30
0.0
 11
31.42733827734981
 21
376.7956191901638
 31
0.0
  0
LINE
  5
5B4
102
{ACAD_REACTORS
330
1B6E
102
}
330
1F
100
AcDbEntity
  8
電気錠
  6
DASHED
100
AcDbLine
 10
46.25677451044963
 20
376.7956037644633
 30
0.0
 11
46.25677451044963
 21
374.7958524624636
 31
0.0
  0
LINE
  5
5B5
102
{ACAD_REACTORS
330
1B6E
102
}
330
1F
100
AcDbEntity
  8
電気錠
  6
DASHED
100
AcDbLine
 10
50.65677451045019
 20
376.7956037644633
 30
0.0
 11
50.65677451045019
 21
374.7958524624636
 31
0.0
  0
LINE
  5
5B6
102
{ACAD_REACTORS
330
1B6E
102
}
330
1F
100
AcDbEntity
  8
電気錠
  6
DASHED
100
AcDbLine
 10
46.25677451044963
 20
376.7956064944637
 30
0.0
 11
50.65677451045019
 21
376.7956027460631
 31
0.0
  0
LINE
  5
5B8
330
1F
100
AcDbEntity
  8
寸法線
  6
BORDER
100
AcDbLine
 10
177.35433986965
 20
444.5206129848301
 30
0.0
 11
177.35433986965
 21
261.7956191901638
 31
0.0
  0
LINE
  5
5BB
102
{ACAD_REACTORS
330
1B6E
102
}
330
1F
100
AcDbEntity
  8
電気錠
  6
DASHED
100
AcDbLine
 10
83.85473174904916
 20
364.7956191901638
 30
0.0
 11
63.35473174904915
 21
364.7956191901638
 31
0.0
  0
LINE
  5
5BC
102
{ACAD_REACTORS
330
1B6E
102
}
330
1F
100
AcDbEntity
  8
電気錠
  6
Continuous
100
AcDbLine
 10
323.1931751897499
 20
376.7953704922637
 30
0.0
 11
323.1931751897499
 21
374.7956191901638
 31
0.0
  0
LINE
  5
5BD
102
{ACAD_REACTORS
330
1B6E
102
}
330
1F
100
AcDbEntity
  8
電気錠
  6
Continuous
100
AcDbLine
 10
318.2661735973487
 20
374.7956191901638
 30
0.0
 11
323.1931751897499
 21
374.7956191901638
 31
0.0
  0
LINE
  5
5C4
102
{ACAD_REACTORS
330
1B6D
102
}
330
1F
100
AcDbEntity
  8
電気錠
  6
Continuous
100
AcDbLine
 10
34.26613330674888
 20
438.759098781642
 30
0.0
 11
320.3543398696492
 21
438.7590987816418
 31
0.0
  0
INSERT
  5
5C5
102
{ACAD_REACTORS
330
B0C
330
1254
330
1B6D
102
}
330
1F
100
AcDbEntity
  8
電気錠
100
AcDbBlockReference
  2
*U4
 10
210.3543398696491
 20
476.7590987816418
 30
0.0
 41
-1.0
 50
180.0
  0
LINE
  5
5C6
102
{ACAD_REACTORS
330
1B6D
102
}
330
1F
100
AcDbEntity
  8
電気錠
  6
DASHED
100
AcDbLine
 10
34.35433986964915
 20
401.7590987816418
 30
0.0
 11
320.3543398696492
 21
401.7590987816418
 31
0.0
  0
LINE
  5
5C7
102
{ACAD_REACTORS
330
1B6E
102
}
330
1F
100
AcDbEntity
  8
電気錠
  6
DASHED
100
AcDbLine
 10
34.35433986964915
 20
374.7958678880631
 30
0.0
 11
318.35433986965
 21
374.7958678880631
 31
0.0
  0
LINE
  5
5C8
102
{ACAD_REACTORS
330
1B6E
102
}
330
1F
100
AcDbEntity
  8
電気錠
  6
Continuous
100
AcDbLine
 10
31.42733827734981
 20
376.7956191901638
 30
0.0
 11
323.3543398696501
 21
376.7956191901638
 31
0.0
  0
LINE
  5
5C9
102
{ACAD_REACTORS
330
1B6E
102
}
330
1F
100
AcDbEntity
  8
電気錠
  6
Continuous
100
AcDbLine
 10
31.35433986964915
 20
376.7956191901638
 30
0.0
 11
323.2813414619494
 21
376.7953704922637
 31
0.0
  0
INSERT
  5
5CA
102
{ACAD_REACTORS
330
9A9
330
1B6E
102
}
330
1F
100
AcDbEntity
  8
電気錠
100
AcDbBlockReference
  2
*U6
 10
210.3543398696491
 20
366.7956191901638
 30
0.0
  0
LINE
  5
5CB
102
{ACAD_REACTORS
330
1B6D
102
}
330
1F
100
AcDbEntity
  8
電気錠
  6
DASHED
100
AcDbLine
 10
34.35433986964915
 20
436.7590987816418
 30
0.0
 11
320.3543398696492
 21
436.7590987816418
 31
0.0
  0
LINE
  5
5CC
102
{ACAD_REACTORS
330
1294
330
1B6F
102
}
330
1F
100
AcDbEntity
  8
電気錠
  6
DASHED
100
AcDbLine
 10
82.35473174904914
 20
272.0008951203249
 30
0.0
 11
320.3543398696492
 21
272.0008951203248
 31
0.0
  0
LINE
  5
5CD
102
{ACAD_REACTORS
330
1B6F
102
}
330
1F
100
AcDbEntity
  8
電気錠
  6
DASHED
100
AcDbLine
 10
82.35473174904914
 20
274.0008951203249
 30
0.0
 11
320.3543398696492
 21
274.0008951203248
 31
0.0
  0
MTEXT
  5
5D1
330
1F
100
AcDbEntity
  8
補足
100
AcDbMText
 10
332.9054666885166
 20
488.1565936097801
 30
0.0
 40
5.0
 41
82.09991240626502
 71
     3
 72
     5
  1
(窓開口終端側)
  7
BIGFONT
 73
     1
 44
1.0
1001
ACAD
1000
MTEXTBEGIN
1070
    73
1070
     1
1070
    44
1040
1.0
1070
    74
1070
     0
1000
MTEXTEND
1000
ACAD_MTEXT_DEFINED_HEIGHT_BEGIN
1070
    46
1040
6.242553872839577
1000
ACAD_MTEXT_DEFINED_HEIGHT_END
  0
DIMENSION
  5
7F0
330
1F
100
AcDbEntity
  8
寸法線
100
AcDbDimension
  2
*D7
 10
327.3543398696491
 20
245.7157791448384
 30
0.0
 11
178.3543398696491
 21
250.3407791448384
 31
0.0
 70
    32
 71
     5
 42
298.0
  3
ISO-25
100
AcDbAlignedDimension
 13
29.35433986964909
 23
276.5119253771004
 33
0.0
 14
327.3543398696491
 24
276.5119253771003
 34
0.0
100
AcDbRotatedDimension
1001
ACAD
1000
DSTYLE
1002
{
1070
   140
1040
8.0
1002
}
  0
LINE
  5
8C2
330
1F
100
AcDbEntity
  8
補足
100
AcDbLine
 10
326.3543580854933
 20
478.2664235484777
 30
0.0
 11
326.3543398696492
 21
438.7590987816418
 31
0.0
  0
LINE
  5
8C3
330
1F
100
AcDbEntity
  8
補足
100
AcDbLine
 10
93.77260290306672
 20
467.7770174790793
 30
0.0
 11
80.35473174905005
 21
444.7590987816418
 31
0.0
  0
LINE
  5
8C4
330
1F
100
AcDbEntity
  8
補足
100
AcDbLine
 10
162.6548301137114
 20
467.6143886826561
 30
0.0
 11
146.3540773093756
 21
423.2670364967852
 31
0.0
  0
LINE
  5
8C5
330
1F
100
AcDbEntity
  8
補足
100
AcDbLine
 10
257.8732718912048
 20
464.8944589651659
 30
0.0
 11
270.5967270305264
 21
422.2260526606635
 31
0.0
  0
MTEXT
  5
8CB
330
1F
100
AcDbEntity
  8
補足
100
AcDbMText
 10
316.5330560851738
 20
472.1360997855572
 30
0.0
 40
5.0
 41
59.74855413319119
 71
     3
 72
     5
  1
止め穴
  7
BIGFONT
 73
     1
 44
1.0
1001
ACAD
1000
MTEXTBEGIN
1070
    73
1070
     1
1070
    44
1040
1.0
1070
    74
1070
     0
1000
MTEXTEND
1000
ACAD_MTEXT_DEFINED_HEIGHT_BEGIN
1070
    46
1040
6.242553872839577
1000
ACAD_MTEXT_DEFINED_HEIGHT_END
  0
LINE
  5
8CC
330
1F
100
AcDbEntity
  8
補足
100
AcDbLine
 10
313.6440717749657
 20
462.8545119966287
 30
0.0
 11
298.3543398696491
 21
430.1340987816418
 31
0.0
  0
LINE
  5
8E5
102
{ACAD_REACTORS
330
1B6F
102
}
330
1F
100
AcDbEntity
  8
電気錠
  6
Continuous
100
AcDbLine
 10
30.3543398696491
 20
313.0119433069002
 30
0.0
 11
326.3543398696492
 21
313.0119433069002
 31
0.0
  0
LINE
  5
8E6
102
{ACAD_REACTORS
330
1B6F
102
}
330
1F
100
AcDbEntity
  8
電気錠
  6
Continuous
100
AcDbLine
 10
30.3543398696491
 20
315.0117871902002
 30
0.0
 11
326.3543398696492
 21
315.0117871902001
 31
0.0
  0
LINE
  5
8E7
102
{ACAD_REACTORS
330
1B6F
102
}
330
1F
100
AcDbEntity
  8
電気錠
  6
Continuous
100
AcDbLine
 10
327.3543398696491
 20
276.5119253771003
 30
0.0
 11
29.35433986964909
 21
276.5119253771004
 31
0.0
  0
LINE
  5
8E8
102
{ACAD_REACTORS
330
1B6F
102
}
330
1F
100
AcDbEntity
  8
電気錠
  6
Continuous
100
AcDbLine
 10
325.3543398696491
 20
315.0008951203248
 30
0.0
 11
31.3543398696491
 21
315.0008951203249
 31
0.0
  0
LINE
  5
8E9
102
{ACAD_REACTORS
330
1B6F
102
}
330
1F
100
AcDbEntity
  8
電気錠
  6
Continuous
100
AcDbLine
 10
29.35433986964909
 20
314.0119253771004
 30
0.0
 11
29.35433986964909
 21
272.0119253771003
 31
0.0
  0
ARC
  5
8EA
102
{ACAD_REACTORS
330
1B6F
102
}
330
1F
100
AcDbEntity
  8
電気錠
  6
Continuous
100
AcDbCircle
 10
30.3543398696491
 20
312.0119253771004
 30
0.0
 40
1.0
100
AcDbArc
 50
90.0
 51
180.0
  0
ARC
  5
8EB
102
{ACAD_REACTORS
330
1B6F
102
}
330
1F
100
AcDbEntity
  8
電気錠
  6
Continuous
100
AcDbCircle
 10
30.3543398696491
 20
314.0119253771004
 30
0.0
 40
1.0
100
AcDbArc
 50
90.0
 51
180.0
  0
LINE
  5
8EC
102
{ACAD_REACTORS
330
1B6F
102
}
330
1F
100
AcDbEntity
  8
電気錠
  6
Continuous
100
AcDbLine
 10
29.35433986964909
 20
272.0008951203249
 30
0.0
 11
31.85438197916602
 21
272.0008951203249
 31
0.0
  0
LINE
  5
8ED
102
{ACAD_REACTORS
330
1B6F
102
}
330
1F
100
AcDbEntity
  8
電気錠
  6
Continuous
100
AcDbLine
 10
31.85438197916602
 20
272.0119253771003
 30
0.0
 11
31.85438197916602
 21
276.5119253771004
 31
0.0
  0
LINE
  5
8EE
102
{ACAD_REACTORS
330
1B6F
102
}
330
1F
100
AcDbEntity
  8
電気錠
  6
Continuous
100
AcDbLine
 10
327.3543398696491
 20
272.0119253771003
 30
0.0
 11
324.8543398696492
 21
272.0119253771003
 31
0.0
  0
LINE
  5
8EF
102
{ACAD_REACTORS
330
1B6F
102
}
330
1F
100
AcDbEntity
  8
電気錠
  6
Continuous
100
AcDbLine
 10
327.3543819791659
 20
272.0008621091003
 30
0.0
 11
325.4978454823491
 21
272.0008621091003
 31
0.0
  0
LINE
  5
8F0
102
{ACAD_REACTORS
330
1B6F
102
}
330
1F
100
AcDbEntity
  8
電気錠
  6
Continuous
100
AcDbLine
 10
324.8543398696492
 20
276.5119253771003
 30
0.0
 11
324.8543398696492
 21
272.0119253771003
 31
0.0
  0
ARC
  5
8F1
102
{ACAD_REACTORS
330
1B6F
102
}
330
1F
100
AcDbEntity
  8
電気錠
  6
Continuous
100
AcDbCircle
 10
326.3543398696492
 20
314.0119253771003
 30
0.0
 40
1.0
100
AcDbArc
 50
0.0
 51
90.0
  0
ARC
  5
8F2
102
{ACAD_REACTORS
330
1B6F
102
}
330
1F
100
AcDbEntity
  8
電気錠
  6
Continuous
100
AcDbCircle
 10
326.3543398696492
 20
312.0120814938003
 30
0.0
 40
0.999779232
100
AcDbArc
 50
359.9999986033943
 51
90.0
  0
LINE
  5
8F3
102
{ACAD_REACTORS
330
1B6F
102
}
330
1F
100
AcDbEntity
  8
電気錠
  6
Continuous
100
AcDbLine
 10
327.3543398696491
 20
314.0119253771003
 30
0.0
 11
327.3543398696491
 21
272.0119253771003
 31
0.0
  0
DIMENSION
  5
93B
330
1F
100
AcDbEntity
  8
寸法線
100
AcDbDimension
  2
*D8
 10
219.3543398696491
 20
287.4291120839239
 30
0.0
 11
172.0750137340551
 21
287.4291120839239
 31
0.0
 70
   160
  1
穴ピッチ 82
 71
     5
 42
82.0
  3
ISO-25
100
AcDbAlignedDimension
 13
137.3543398696491
 23
292.6153648171638
 33
0.0
 14
219.3543398696491
 24
292.6153648171638
 34
0.0
100
AcDbRotatedDimension
1001
ACAD
1000
DSTYLE
1002
{
1070
   140
1040
5.0
1002
}
  0
DIMENSION
  5
95C
330
1F
100
AcDbEntity
  8
寸法線
100
AcDbDimension
  2
*D9
 10
217.2659076266306
 20
298.7918100293237
 30
0.0
 11
251.9906190871474
 21
302.4517046536914
 31
0.0
 70
   163
  1
2-φ4.2
 71
     5
 42
4.200000000001637
  3
ISO-25
100
AcDbDiametricDimension
 15
221.4427721126663
 25
299.2320407248771
 35
0.0
 40
0.0
1001
ACAD_DSTYLE_DIMRADIAL_EXTENSION
1070
   387
1070
     1
1070
   388
1040
0.0
1070
   390
1040
0.0
1001
ACAD
1000
DSTYLE
1002
{
1070
   279
1070
     1
1070
   140
1040
5.0
1070
   288
1070
     1
1002
}
  0
DIMENSION
  5
992
102
{ACAD_XDICTIONARY
360
99F
102
}
102
{ACAD_REACTORS
330
9A9
102
}
330
1F
100
AcDbEntity
  8
寸法線
100
AcDbDimension
  2
*D10
 10
351.8479772233247
 20
338.7953704300638
 30
0.0
 11
347.2229772233246
 21
357.7953704300638
 31
0.0
 70
    32
 71
     5
 42
37.99999999999994
  3
ISO-25
100
AcDbAlignedDimension
 13
325.1543398696492
 23
376.7953704300638
 33
0.0
 14
325.1543398696492
 24
338.7953704300638
 34
0.0
 50
90.0
100
AcDbRotatedDimension
1001
ACAD
1000
DSTYLE
1002
{
1070
   140
1040
8.0
1002
}
  0
DIMENSION
  5
9B3
102
{ACAD_XDICTIONARY
360
9C0
102
}
102
{ACAD_REACTORS
330
9CA
102
}
330
1F
100
AcDbEntity
  8
寸法線
100
AcDbDimension
  2
*D11
 10
307.7782726057307
 20
216.2454349432421
 30
0.0
 11
286.3478216233135
 21
218.6204349432421
 31
0.0
 70
    32
  1
(43)
 71
     5
 42
42.86090196483439
  3
ISO-25
100
AcDbAlignedDimension
 13
264.9173706408963
 23
189.3106418504586
 33
0.0
 14
307.7782726057307
 24
208.1947554904912
 34
0.0
 50
180.0
100
AcDbRotatedDimension
1001
ACAD
1000
DSTYLE
1002
{
1070
   140
1040
3.5
1002
}
  0
DIMENSION
  5
A19
102
{ACAD_XDICTIONARY
360
A28
102
}
102
{ACAD_REACTORS
330
A34
102
}
330
1F
100
AcDbEntity
  8
寸法線
100
AcDbDimension
  2
*D12
 10
307.7782726057307
 20
201.5359771384589
 30
0.0
 11
291.8199392723973
 21
201.5359771384589
 31
0.0
 70
   160
  1
(4.5)
 71
     5
 42
4.500000000000056
  3
ISO-25
100
AcDbAlignedDimension
 13
303.2782726057306
 23
171.1947554904903
 33
0.0
 14
307.7782726057307
 24
198.6947554904903
 34
0.0
 50
180.0
100
AcDbRotatedDimension
1001
ACAD
1000
DSTYLE
1002
{
1070
   140
1040
3.0
1002
}
  0
DIMENSION
  5
A35
102
{ACAD_XDICTIONARY
360
A42
102
}
102
{ACAD_REACTORS
330
A4C
102
}
330
1F
100
AcDbEntity
  8
寸法線
100
AcDbDimension
  2
*D13
 10
313.2782726057306
 20
174.5430049904581
 30
0.0
 11
323.9096684979953
 21
174.5430049904581
 31
0.0
 70
   160
 71
     5
 42
10.0
  3
ISO-25
100
AcDbAlignedDimension
 13
303.2782726057306
 23
186.4947554904914
 33
0.0
 14
313.2782726057306
 24
186.4947554904914
 34
0.0
 50
180.0
100
AcDbRotatedDimension
1001
ACAD
1000
DSTYLE
1002
{
1070
   140
1040
3.5
1002
}
  0
DIMENSION
  5
A57
102
{ACAD_XDICTIONARY
360
A64
102
}
102
{ACAD_REACTORS
330
A6E
102
}
330
1F
100
AcDbEntity
  8
寸法線
100
AcDbDimension
  2
*D14
 10
323.2566558299307
 20
209.1947554904912
 30
0.0
 11
320.589989163264
 21
202.8447554904913
 31
0.0
 70
    32
 71
     5
 42
12.69999999999979
  3
ISO-25
100
AcDbAlignedDimension
 13
313.2782726057306
 23
196.4947554904914
 33
0.0
 14
306.1532726057306
 24
209.1947554904912
 34
0.0
 50
270.0
100
AcDbRotatedDimension
1001
ACAD
1000
DSTYLE
1002
{
1070
   140
1040
3.5
1002
}
  0
DIMENSION
  5
A6F
102
{ACAD_XDICTIONARY
360
A7C
102
}
102
{ACAD_REACTORS
330
A86
102
}
330
1F
100
AcDbEntity
  8
寸法線
100
AcDbDimension
  2
*D15
 10
323.2566558299307
 20
186.4947554904913
 30
0.0
 11
320.8816558299306
 21
191.4947554904914
 31
0.0
 70
    32
 71
     5
 42
10.0
  3
ISO-25
100
AcDbAlignedDimension
 13
313.2782726057306
 23
196.4947554904914
 33
0.0
 14
313.2782726057306
 24
186.4947554904914
 34
0.0
 50
270.0
100
AcDbRotatedDimension
1001
ACAD
1000
DSTYLE
1002
{
1070
   140
1040
3.5
1002
}
  0
DIMENSION
  5
AF5
102
{ACAD_XDICTIONARY
360
B02
102
}
102
{ACAD_REACTORS
330
B0C
102
}
330
1F
100
AcDbEntity
  8
寸法線
100
AcDbDimension
  2
*D16
 10
28.35433986964915
 20
409.2600725984127
 30
0.0
 11
38.35433986964915
 21
411.8850725984128
 31
0.0
 70
    32
  1
(20)
 71
     5
 42
20.0
  3
ISO-25
100
AcDbAlignedDimension
 13
48.35433986964915
 23
430.7590987816418
 33
0.0
 14
28.35433986964915
 24
438.7590987816418
 34
0.0
 50
180.0
100
AcDbRotatedDimension
1001
ACAD
1000
DSTYLE
1002
{
1070
   140
1040
4.0
1002
}
  0
DIMENSION
  5
B0D
102
{ACAD_XDICTIONARY
360
B1A
102
}
102
{ACAD_REACTORS
330
B24
102
}
330
1F
100
AcDbEntity
  8
寸法線
100
AcDbDimension
  2
*D17
 10
298.3543398696491
 20
449.0217442100316
 30
0.0
 11
186.6127954954101
 21
449.0217442100316
 31
0.0
 70
   160
  1
穴ピッチ 250
 71
     5
 42
250.0
  3
ISO-25
100
AcDbAlignedDimension
 13
48.35433986964915
 23
430.7590987816418
 33
0.0
 14
298.3543398696491
 24
430.7590987816418
 34
0.0
100
AcDbRotatedDimension
1001
ACAD
1000
DSTYLE
1002
{
1070
   140
1040
5.0
1002
}
  0
DIMENSION
  5
B25
330
1F
100
AcDbEntity
  8
寸法線
100
AcDbDimension
  2
*D18
 10
252.3543398696501
 20
388.1894597975593
 30
0.0
 11
270.3543398696496
 21
390.5644597975593
 31
0.0
 70
    32
 71
     5
 42
35.99999999999912
  3
ISO-25
100
AcDbAlignedDimension
 13
288.3543398696492
 23
410.2590987816418
 33
0.0
 14
252.3543398696501
 24
410.2590987816418
 34
0.0
 50
180.0
100
AcDbRotatedDimension
1001
ACAD
1000
DSTYLE
1002
{
1070
   140
1040
3.5
1002
}
  0
DIMENSION
  5
B58
102
{ACAD_XDICTIONARY
360
B65
102
}
102
{ACAD_REACTORS
330
B6F
102
}
330
1F
100
AcDbEntity
  8
寸法線
100
AcDbDimension
  2
*D19
 10
243.7838254048643
 20
430.2590987816418
 30
0.0
 11
241.4088254048643
 21
419.2590987816418
 31
0.0
 70
    32
 71
     5
 42
22.0
  3
ISO-25
100
AcDbAlignedDimension
 13
254.3543398696491
 23
408.2590987816418
 33
0.0
 14
254.3543398696491
 24
430.2590987816418
 34
0.0
 50
90.0
100
AcDbRotatedDimension
1001
ACAD
1000
DSTYLE
1002
{
1070
   140
1040
3.5
1002
}
  0
DIMENSION
  5
BA4
330
1F
100
AcDbEntity
  8
寸法線
100
AcDbDimension
  2
*D20
 10
326.3543398696492
 20
388.2140503944338
 30
0.0
 11
312.3543398696492
 21
390.5890503944338
 31
0.0
 70
    32
 71
     5
 42
28.00000000000006
  3
ISO-25
100
AcDbAlignedDimension
 13
298.3543398696491
 23
405.4937584025733
 33
0.0
 14
326.3543398696492
 24
398.5818744152202
 34
0.0
 50
180.0
100
AcDbRotatedDimension
1001
ACAD
1000
DSTYLE
1002
{
1070
   140
1040
3.5
1002
}
  0
DIMENSION
  5
BBC
330
1F
100
AcDbEntity
  8
寸法線
100
AcDbDimension
  2
*D21
 10
298.3543398696491
 20
388.2140503944338
 30
0.0
 11
293.3543398696492
 21
390.5890503944338
 31
0.0
 70
    32
 71
     5
 42
9.999999999999943
  3
ISO-25
100
AcDbAlignedDimension
 13
288.3543398696492
 23
410.2590987816418
 33
0.0
 14
298.3543398696491
 24
404.8687584025732
 34
0.0
 50
180.0
100
AcDbRotatedDimension
1001
ACAD
1000
DSTYLE
1002
{
1070
   140
1040
3.5
1002
}
  0
DIMENSION
  5
CB6
330
1F
100
AcDbEntity
  8
寸法線
100
AcDbDimension
  2
*D22
 10
337.2310857952034
 20
315.0119253771003
 30
0.0
 11
334.6060857952033
 21
307.0119253771003
 31
0.0
 70
    32
 71
     5
 42
16.0
  3
ISO-25
100
AcDbAlignedDimension
 13
226.8543398696491
 23
299.0119253771003
 33
0.0
 14
326.3543398696492
 24
315.0119253771003
 34
0.0
 50
90.0
100
AcDbRotatedDimension
1001
ACAD
1000
DSTYLE
1002
{
1070
   140
1040
4.0
1002
}
  0
LINE
  5
1062
330
1F
100
AcDbEntity
  8
0
100
AcDbLine
 10
0.0000000000000462
 20
0.0000000000000391
 30
0.0
 11
370.45
 21
0.0000000000000391
 31
0.0
  0
LINE
  5
1063
330
1F
100
AcDbEntity
  8
0
100
AcDbLine
 10
370.45
 20
0.0000000000000391
 30
0.0
 11
370.45
 21
0.0000000000000391
 31
0.0
  0
LINE
  5
1064
330
1F
100
AcDbEntity
  8
0
100
AcDbLine
 10
370.45
 20
0.0000000000000391
 30
0.0
 11
370.45
 21
523.4999999999993
 31
0.0
  0
LINE
  5
1065
330
1F
100
AcDbEntity
  8
0
100
AcDbLine
 10
370.45
 20
502.4497790018178
 30
0.0
 11
0.0000000000002274
 21
502.4497790018178
 31
0.0
  0
LINE
  5
1066
330
1F
100
AcDbEntity
  8
0
100
AcDbLine
 10
0.0000000000002274
 20
523.4999999999993
 30
0.0
 11
0.0000000000000462
 21
0.0000000000000391
 31
0.0
  0
DIMENSION
  5
11CC
330
1F
100
AcDbEntity
  8
寸法線
100
AcDbDimension
  2
*D23
 10
307.1822288180888
 20
405.5590987816418
 30
0.0
 11
304.515562151422
 21
419.2590987816418
 31
0.0
 70
    32
 71
     5
 42
27.39999999999998
  3
ISO-25
100
AcDbAlignedDimension
 13
298.3543398696491
 23
432.9590987816418
 33
0.0
 14
298.3543398696491
 24
405.5590987816418
 34
0.0
 50
90.0
100
AcDbRotatedDimension
1001
ACAD
1000
DSTYLE
1002
{
1070
   140
1040
3.5
1002
}
  0
DIMENSION
  5
11E4
102
{ACAD_XDICTIONARY
360
11F3
102
}
102
{ACAD_REACTORS
330
11FF
102
}
330
1F
100
AcDbEntity
  8
寸法線
100
AcDbDimension
  2
*D24
 10
46.15433986964915
 20
426.9346953945751
 30
0.0
 11
36.73767320298249
 21
426.9346953945751
 31
0.0
 70
   160
 71
     5
 42
4.400000000000005
  3
ISO-25
100
AcDbAlignedDimension
 13
50.55433986964915
 23
430.7590987816418
 33
0.0
 14
46.15433986964915
 24
430.7590987816418
 34
0.0
 50
180.0
100
AcDbRotatedDimension
1001
ACAD
1000
DSTYLE
1002
{
1070
   140
1040
3.5
1002
}
  0
DIMENSION
  5
1200
102
{ACAD_XDICTIONARY
360
120D
102
}
102
{ACAD_REACTORS
330
1217
102
}
330
1F
100
AcDbEntity
  8
寸法線
100
AcDbDimension
  2
*D25
 10
82.35473174904916
 20
427.6842128519028
 30
0.0
 11
76.1585793263516
 21
430.0592128519028
 31
0.0
 70
    32
  1
(12)
 71
     5
 42
12.39230484539513
  3
ISO-25
100
AcDbAlignedDimension
 13
69.96242690365403
 23
438.759098781642
 33
0.0
 14
82.35473174904916
 24
438.759098781642
 34
0.0
100
AcDbRotatedDimension
1001
ACAD
1000
DSTYLE
1002
{
1070
   140
1040
3.5
1002
}
  0
DIMENSION
  5
1218
102
{ACAD_XDICTIONARY
360
1227
102
}
102
{ACAD_REACTORS
330
1233
102
}
330
1F
100
AcDbEntity
  8
寸法線
100
AcDbDimension
  2
*D26
 10
88.51348025026991
 20
444.7590987816418
 30
0.0
 11
86.13848025026985
 21
441.7590987816419
 31
0.0
 70
    32
 71
     5
 42
5.999999999999829
  3
ISO-25
100
AcDbAlignedDimension
 13
82.35473174904916
 23
438.759098781642
 33
0.0
 14
81.35473174904916
 24
444.7590987816418
 34
0.0
 50
90.0
100
AcDbRotatedDimension
1001
ACAD
1000
DSTYLE
1002
{
1070
   140
1040
3.5
1002
}
  0
DIMENSION
  5
123D
102
{ACAD_XDICTIONARY
360
124A
102
}
102
{ACAD_REACTORS
330
1254
102
}
330
1F
100
AcDbEntity
  8
寸法線
100
AcDbDimension
  2
*D27
 10
28.35433986964915
 20
419.3885637413331
 30
0.0
 11
63.40711694342189
 21
419.3885637413331
 31
0.0
 70
   160
 71
     5
 42
54.00039187940001
  3
ISO-25
100
AcDbAlignedDimension
 13
82.35473174904916
 23
443.7590987816419
 33
0.0
 14
28.35433986964915
 24
438.7590987816418
 34
0.0
 50
180.0
100
AcDbRotatedDimension
1001
ACAD
1000
DSTYLE
1002
{
1070
   140
1040
3.5
1002
}
  0
LINE
  5
125C
102
{ACAD_REACTORS
330
1B6F
102
}
330
1F
100
AcDbEntity
  8
電気錠
  6
DASHED
100
AcDbLine
 10
36.35433986964911
 20
274.0008951203249
 30
0.0
 11
66.20522052135561
 21
274.0008951203249
 31
0.0
  0
LINE
  5
1264
102
{ACAD_REACTORS
330
1B6F
102
}
330
1F
100
AcDbEntity
  8
電気錠
  6
DASHED
100
AcDbLine
 10
36.35433976567635
 20
272.000894902791
 30
0.0
 11
69.66932251326728
 21
272.000894902791
 31
0.0
  0
DIMENSION
  5
1265
102
{ACAD_XDICTIONARY
360
1272
102
}
102
{ACAD_REACTORS
330
127C
102
}
330
1F
100
AcDbEntity
  8
寸法線
100
AcDbDimension
  2
*D28
 10
56.56587250532102
 20
276.5119253771004
 30
0.0
 11
56.56587250532098
 21
284.3595373579548
 31
0.0
 70
   160
  1
(10)
 71
     5
 42
10.68025437300008
  3
ISO-25
100
AcDbAlignedDimension
 13
81.35473174904914
 23
265.8316710041003
 33
0.0
 14
82.35473174904914
 24
276.5119253771004
 34
0.0
 50
90.0
100
AcDbRotatedDimension
1001
ACAD
1000
DSTYLE
1002
{
1070
   140
1040
3.5
1002
}
  0
DIMENSION
  5
127D
102
{ACAD_XDICTIONARY
360
128A
102
}
102
{ACAD_REACTORS
330
1294
102
}
330
1F
100
AcDbEntity
  8
寸法線
100
AcDbDimension
  2
*D29
 10
82.35473174904914
 20
258.1719695195443
 30
0.0
 11
72.85492839729916
 21
260.5469695195443
 31
0.0
 70
    32
 71
     5
 42
18.99960670349996
  3
ISO-25
100
AcDbAlignedDimension
 13
63.35512504554918
 23
275.6463985105006
 33
0.0
 14
82.35473174904914
 24
272.0008951203249
 34
0.0
100
AcDbRotatedDimension
1001
ACAD
1000
DSTYLE
1002
{
1070
   140
1040
3.5
1002
}
  0
MTEXT
  5
17BC
330
1F
100
AcDbEntity
  8
補足
100
AcDbMText
 10
229.0679957606103
 20
264.2972808169974
 30
0.0
 40
5.0
 41
57.60420509074203
 71
     1
 72
     5
  1
カバー固定穴
  7
BIGFONT
 73
     1
 44
1.0
1001
ACAD
1000
MTEXTBEGIN
1070
    73
1070
     1
1070
    44
1040
1.0
1070
    74
1070
     0
1000
MTEXTEND
  0
LINE
  5
17C4
330
1F
100
AcDbEntity
  8
補足
100
AcDbLine
 10
221.8382473255409
 20
297.0764997020642
 30
0.0
 11
225.7918611938435
 21
258.647752687328
 31
0.0
  0
DIMENSION
  5
1820
330
1F
100
AcDbEntity
  8
寸法線
100
AcDbDimension
  2
*D30
 10
256.590533672775
 20
171.1947554904903
 30
0.0
 11
254.2155336727749
 21
190.1947554904907
 31
0.0
 70
    32
 71
     5
 42
38.00000000000088
  3
ISO-25
100
AcDbAlignedDimension
 13
267.7782726057306
 23
209.1947554904912
 33
0.0
 14
303.2782726057306
 24
171.1947554904903
 34
0.0
 50
270.0
100
AcDbRotatedDimension
1001
ACAD
1000
DSTYLE
1002
{
1070
   140
1040
3.5
1002
}
  0
LINE
  5
197C
330
1F
100
AcDbEntity
  8
寸法線
  6
BORDER
100
AcDbLine
 10
219.3543398696491
 20
291.5119253771003
 30
0.0
 11
219.3543398696491
 21
306.5119253771003
 31
0.0
  0
CIRCLE
  5
197D
102
{ACAD_REACTORS
330
1B6F
102
}
330
1F
100
AcDbEntity
  8
電気錠
  6
Continuous
100
AcDbCircle
 10
219.3543398696491
 20
299.0119253771003
 30
0.0
 40
2.1
  0
CIRCLE
  5
197E
102
{ACAD_REACTORS
330
1B6F
102
}
330
1F
100
AcDbEntity
  8
電気錠
  6
Continuous
100
AcDbCircle
 10
219.3543398696491
 20
299.0119253771003
 30
0.0
 40
5.0
  0
LINE
  5
197F
330
1F
100
AcDbEntity
  8
寸法線
  6
BORDER
100
AcDbLine
 10
211.8543398696491
 20
299.0119253771003
 30
0.0
 11
226.8543398696491
 21
299.0119253771003
 31
0.0
  0
LINE
  5
1991
330
1F
100
AcDbEntity
  8
寸法線
  6
BORDER
100
AcDbLine
 10
137.3543398696491
 20
291.5119253771003
 30
0.0
 11
137.3543398696491
 21
306.5119253771003
 31
0.0
  0
CIRCLE
  5
1992
102
{ACAD_REACTORS
330
1B6F
102
}
330
1F
100
AcDbEntity
  8
電気錠
  6
Continuous
100
AcDbCircle
 10
137.3543398696491
 20
299.0119253771003
 30
0.0
 40
2.1
  0
CIRCLE
  5
1993
102
{ACAD_REACTORS
330
1B6F
102
}
330
1F
100
AcDbEntity
  8
電気錠
  6
Continuous
100
AcDbCircle
 10
137.3543398696491
 20
299.0119253771003
 30
0.0
 40
5.0
  0
LINE
  5
1994
330
1F
100
AcDbEntity
  8
寸法線
  6
BORDER
100
AcDbLine
 10
129.8543398696491
 20
299.0119253771003
 30
0.0
 11
144.8543398696491
 21
299.0119253771003
 31
0.0
  0
MTEXT
  5
19B4
330
1F
100
AcDbEntity
  8
補足
100
AcDbMText
 10
25.71410815387378
 20
116.4241894789094
 30
0.0
 40
7.0
 41
97.60864549221331
 71
     1
 72
     5
  1
{\fMS PGothic|b0|i0|c128|p50;受座}
 73
     1
 44
1.0
1001
ACAD
1000
MTEXTBEGIN
1070
    73
1070
     1
1070
    44
1040
1.0
1070
    74
1070
     0
1000
MTEXTEND
  0
DIMENSION
  5
1D7F
330
1F
100
AcDbEntity
  8
寸法線
100
AcDbDimension
  2
*D31
 10
352.4553311716058
 20
272.0008621091003
 30
0.0
 11
347.8303311716058
 21
293.5063937431004
 31
0.0
 70
    32
  1
43
 71
     5
 42
43.01106326799998
  3
ISO-25
100
AcDbAlignedDimension
 13
326.3543398696492
 23
315.0119253771003
 33
0.0
 14
327.3543819791659
 24
272.0008621091003
 34
0.0
 50
90.0
100
AcDbRotatedDimension
1001
ACAD
1000
DSTYLE
1002
{
1070
   140
1040
8.0
1002
}
  0
LINE
  5
22E1
330
1F
100
AcDbEntity
  8
補足
100
AcDbLine
 10
82.35469999999997
 20
380.5390385223334
 30
0.0
 11
82.35473174904914
 21
332.8031032958283
 31
0.0
  0
MTEXT
  5
22E9
330
1F
100
AcDbEntity
  8
補足
100
AcDbMText
 10
85.11031901157824
 20
388.7954576732497
 30
0.0
 40
5.0
 41
14.51541514712792
 71
     3
 72
     5
  1
Ａ
  7
BIGFONT
 73
     1
 44
1.0
1001
ACAD
1000
MTEXTBEGIN
1070
    73
1070
     1
1070
    44
1040
1.0
1070
    74
1070
     0
1000
MTEXTEND
1000
ACAD_MTEXT_DEFINED_HEIGHT_BEGIN
1070
    46
1040
5.650556946984123
1000
ACAD_MTEXT_DEFINED_HEIGHT_END
  0
MTEXT
  5
22F1
330
1F
100
AcDbEntity
  8
補足
100
AcDbMText
 10
86.55586686696782
 20
330.890582082075
 30
0.0
 40
5.0
 41
14.51541514712792
 71
     3
 72
     5
  1
Ａ’
  7
BIGFONT
 73
     1
 44
1.0
1001
ACAD
1000
MTEXTBEGIN
1070
    73
1070
     1
1070
    44
1040
1.0
1070
    74
1070
     0
1000
MTEXTEND
1000
ACAD_MTEXT_DEFINED_HEIGHT_BEGIN
1070
    46
1040
5.650556946984123
1000
ACAD_MTEXT_DEFINED_HEIGHT_END
  0
MTEXT
  5
2332
330
1F
100
AcDbEntity
  8
補足
100
AcDbMText
 10
266.2242153548518
 20
234.2826937661702
 30
0.0
 40
5.0
 41
57.60420509074203
 71
     1
 72
     5
  1
Ａ－Ａ' 断面
  7
BIGFONT
 73
     1
 44
1.0
1001
ACAD
1000
MTEXTBEGIN
1070
    73
1070
     1
1070
    44
1040
1.0
1070
    74
1070
     0
1000
MTEXTEND
  0
TEXT
  5
24C9
330
1F
100
AcDbEntity
  8
補足
100
AcDbText
 10
316.4374088232094
 20
36.6187073719459
 30
0.0
 40
7.349999999999996
  1
1109.v3-4
  7
BIGFONT
100
AcDbText
  0
LINE
  5
24CA
330
1F
100
AcDbEntity
  8
電気錠
  6
Continuous
100
AcDbLine
 10
323.7289024319036
 20
80.8606282668682
 30
0.0
 11
315.7289364262053
 21
80.8606282668682
 31
0.0
  0
LINE
  5
24CB
330
1F
100
AcDbEntity
  8
電気錠
  6
Continuous
100
AcDbLine
 10
315.7289364262053
 20
94.8606282668682
 30
0.0
 11
323.7289024319036
 21
94.8606282668682
 31
0.0
  0
LINE
  5
24CC
330
1F
100
AcDbEntity
  8
電気錠
  6
Continuous
100
AcDbLine
 10
323.7289024319036
 20
94.8606282668682
 30
0.0
 11
323.7289024319036
 21
80.8606282668682
 31
0.0
  0
LINE
  5
24CD
330
1F
100
AcDbEntity
  8
電気錠
  6
Continuous
100
AcDbLine
 10
315.7289364262053
 20
80.8606282668682
 30
0.0
 11
315.7289364262053
 21
94.8606282668682
 31
0.0
  0
LINE
  5
24CE
330
1F
100
AcDbEntity
  8
電気錠
  6
Continuous
100
AcDbLine
 10
305.7289364262055
 20
94.8606282668682
 30
0.0
 11
305.7289364262055
 21
80.8606282668682
 31
0.0
  0
LINE
  5
24CF
330
1F
100
AcDbEntity
  8
電気錠
  6
Continuous
100
AcDbLine
 10
315.7289364262053
 20
94.8606282668682
 30
0.0
 11
305.7289364262055
 21
94.8606282668682
 31
0.0
  0
LINE
  5
24D0
330
1F
100
AcDbEntity
  8
電気錠
  6
Continuous
100
AcDbLine
 10
305.7289364262055
 20
80.8606282668682
 30
0.0
 11
315.7289364262053
 21
80.8606282668682
 31
0.0
  0
DIMENSION
  5
24D2
330
1F
100
AcDbEntity
  8
寸法線
100
AcDbDimension
  2
*D32
 10
323.7289024319036
 20
66.96311549103268
 30
0.0
 11
314.7289194290546
 21
69.33811549103268
 31
0.0
 70
    32
 71
     5
 42
17.99996600569807
  3
ISO-25
100
AcDbAlignedDimension
 13
305.7289364262055
 23
80.8606282668682
 33
0.0
 14
323.7289024319036
 24
80.8606282668682
 34
0.0
100
AcDbRotatedDimension
1001
ACAD
1000
DSTYLE
1002
{
1070
   140
1040
3.5
1002
}
  0
DIMENSION
  5
24D4
330
1F
100
AcDbEntity
  8
寸法線
100
AcDbDimension
  2
*D33
 10
332.7248622499976
 20
94.8606282668682
 30
0.0
 11
330.0998622499976
 21
87.86062826686826
 31
0.0
 70
    32
 71
     5
 42
14.0
  3
ISO-25
100
AcDbAlignedDimension
 13
323.7289024319036
 23
80.8606282668682
 33
0.0
 14
323.7289024319036
 24
94.8606282668682
 34
0.0
 50
90.0
100
AcDbRotatedDimension
1001
ACAD
1000
DSTYLE
1002
{
1070
   140
1040
4.0
1002
}
  0
DIMENSION
  5
2505
330
1F
100
AcDbEntity
  8
寸法線
100
AcDbDimension
  2
*D34
 10
315.7289364262053
 20
99.37592061826899
 30
0.0
 11
310.7289364262054
 21
101.750920618269
 31
0.0
 70
    32
 71
     5
 42
9.999999999999772
  3
ISO-25
100
AcDbAlignedDimension
 13
305.7289364262055
 23
94.8606282668682
 33
0.0
 14
315.7289364262053
 24
94.8606282668682
 34
0.0
100
AcDbRotatedDimension
1001
ACAD
1000
DSTYLE
1002
{
1070
   140
1040
3.5
1002
}
  0
DIMENSION
  5
27F4
330
1F
100
AcDbEntity
  8
寸法線
100
AcDbDimension
  2
*D35
 10
82.36717443467501
 20
107.4856718048958
 30
0.0
 11
172.367174434675
 21
112.1106718048958
 31
0.0
 70
    32
 71
     5
 42
180.0000000000001
  3
ISO-25
100
AcDbAlignedDimension
 13
262.3671744346751
 23
55.30882546711393
 33
0.0
 14
82.36717443467501
 24
55.30882546711393
 34
0.0
 50
180.0
100
AcDbRotatedDimension
1001
ACAD
1000
DSTYLE
1002
{
1070
   140
1040
8.0
1002
}
  0
DIMENSION
  5
27F5
330
1F
100
AcDbEntity
  8
寸法線
100
AcDbDimension
  2
*D36
 10
56.94038940052951
 20
55.30882546711394
 30
0.0
 11
54.31538940052949
 21
51.30883599874169
 31
0.0
 70
    32
 71
     5
 42
7.999978936744525
  3
ISO-25
100
AcDbAlignedDimension
 13
82.36717443467501
 23
47.3088465303694
 33
0.0
 14
81.74217443467501
 24
55.30882546711393
 34
0.0
 50
90.0
100
AcDbRotatedDimension
1001
ACAD
1000
DSTYLE
1002
{
1070
   140
1040
4.0
1002
}
  0
DIMENSION
  5
27F6
330
1F
100
AcDbEntity
  8
寸法線
100
AcDbDimension
  2
*D37
 10
146.2116925640596
 20
87.19810535211934
 30
0.0
 11
119.462548591095
 21
96.03786327901298
 31
0.0
 70
   163
  1
2-M4ｻﾗ
 71
     5
 42
4.20000000000131
  3
ISO-25
100
AcDbDiametricDimension
 15
142.2238089672136
 25
88.515976521095
 35
0.0
 40
0.0
1001
ACAD_DSTYLE_DIMRADIAL_EXTENSION
1070
   387
1070
     1
1070
   388
1040
0.0
1070
   390
1040
0.0
1001
ACAD
1000
DSTYLE
1002
{
1070
   279
1070
     1
1070
   140
1040
5.0
1070
   288
1070
     1
1002
}
  0
DIMENSION
  5
27F7
330
1F
100
AcDbEntity
  8
寸法線
100
AcDbDimension
  2
*D38
 10
144.2406966444468
 20
68.96710156653575
 30
0.0
 11
167.3772231544571
 21
68.96710156653575
 31
0.0
 70
   160
  1
穴ピッチ 50
 71
     5
 42
50.0
  3
ISO-25
100
AcDbAlignedDimension
 13
194.2406966444469
 23
87.86062826686821
 33
0.0
 14
144.2406966444468
 24
87.86062826686821
 34
0.0
 50
180.0
100
AcDbRotatedDimension
1001
ACAD
1000
DSTYLE
1002
{
1070
   140
1040
5.0
1002
}
  0
LINE
  5
27F8
330
1F
100
AcDbEntity
  8
電気錠
  6
Continuous
100
AcDbLine
 10
262.3671744346751
 20
55.30882546711393
 30
0.0
 11
262.3671744346751
 21
47.3088465303694
 31
0.0
  0
LINE
  5
27F9
330
1F
100
AcDbEntity
  8
電気錠
  6
DASHED
100
AcDbLine
 10
142.136600582575
 20
52.36416954091396
 30
0.0
 11
139.136600582575
 21
55.36416954091397
 31
0.0
  0
LINE
  5
27FA
330
1F
100
AcDbEntity
  8
電気錠
  6
DASHED
100
AcDbLine
 10
142.136600582575
 20
47.3088465303694
 30
0.0
 11
142.136600582575
 21
52.36416954091396
 31
0.0
  0
LINE
  5
27FB
330
1F
100
AcDbEntity
  8
電気錠
  6
DASHED
100
AcDbLine
 10
146.636600582575
 20
52.36416954091396
 30
0.0
 11
149.6366005825751
 21
55.36416954091397
 31
0.0
  0
LINE
  5
27FC
330
1F
100
AcDbEntity
  8
電気錠
  6
DASHED
100
AcDbLine
 10
146.636600582575
 20
52.36416954091396
 30
0.0
 11
146.636600582575
 21
47.3088465303694
 31
0.0
  0
LINE
  5
27FD
330
1F
100
AcDbEntity
  8
電気錠
  6
Continuous
100
AcDbLine
 10
82.36717443467501
 20
49.30882546711393
 30
0.0
 11
82.36717443467501
 21
55.30882546711393
 31
0.0
  0
LINE
  5
27FE
330
1F
100
AcDbEntity
  8
電気錠
  6
Continuous
100
AcDbLine
 10
82.36717443467501
 20
47.3088465303694
 30
0.0
 11
82.36717443467501
 21
55.30882546711393
 31
0.0
  0
LINE
  5
27FF
330
1F
100
AcDbEntity
  8
電気錠
  6
Continuous
100
AcDbLine
 10
248.8671744346751
 20
55.30882546711393
 30
0.0
 11
231.8671744346752
 21
65.30882546711393
 31
0.0
  0
LINE
  5
2800
330
1F
100
AcDbEntity
  8
電気錠
  6
Continuous
100
AcDbLine
 10
108.867174434675
 20
55.30882546711393
 30
0.0
 11
91.867174434675
 21
65.30882546711393
 31
0.0
  0
LINE
  5
2801
330
1F
100
AcDbEntity
  8
電気錠
  6
Continuous
100
AcDbLine
 10
90.367174434675
 20
64.80882546711399
 30
0.0
 11
90.367174434675
 21
55.30882546711393
 31
0.0
  0
ARC
  5
2802
330
1F
100
AcDbEntity
  8
電気錠
  6
Continuous
100
AcDbCircle
 10
90.86717443467501
 20
64.80882546711399
 30
0.0
 40
0.5
100
AcDbArc
 50
90.0
 51
180.0
  0
LINE
  5
2803
330
1F
100
AcDbEntity
  8
電気錠
  6
Continuous
100
AcDbLine
 10
90.86717443467501
 20
65.30882546711393
 30
0.0
 11
91.867174434675
 21
65.30882546711393
 31
0.0
  0
LINE
  5
2804
330
1F
100
AcDbEntity
  8
電気錠
  6
Continuous
100
AcDbLine
 10
90.367174434675
 20
55.30882546711393
 30
0.0
 11
90.367174434675
 21
64.80882546711399
 31
0.0
  0
LINE
  5
2805
330
1F
100
AcDbEntity
  8
電気錠
  6
Continuous
100
AcDbLine
 10
90.367174434675
 20
64.80882546711399
 30
0.0
 11
90.367174434675
 21
55.30882546711393
 31
0.0
  0
LINE
  5
2806
330
1F
100
AcDbEntity
  8
電気錠
  6
Continuous
100
AcDbLine
 10
90.86717443467501
 20
65.30882546711393
 30
0.0
 11
91.867174434675
 21
65.30882546711393
 31
0.0
  0
ARC
  5
2807
330
1F
100
AcDbEntity
  8
電気錠
  6
Continuous
100
AcDbCircle
 10
90.86717443467501
 20
64.80882546711399
 30
0.0
 40
0.5
100
AcDbArc
 50
90.0
 51
180.0
  0
LINE
  5
2808
330
1F
100
AcDbEntity
  8
電気錠
  6
Continuous
100
AcDbLine
 10
108.867174434675
 20
55.30882546711393
 30
0.0
 11
91.867174434675
 21
65.30882546711393
 31
0.0
  0
LINE
  5
2809
330
1F
100
AcDbEntity
  8
電気錠
  6
Continuous
100
AcDbLine
 10
108.867174434675
 20
55.30882546711393
 30
0.0
 11
91.867174434675
 21
65.30882546711393
 31
0.0
  0
LINE
  5
280A
330
1F
100
AcDbEntity
  8
電気錠
  6
Continuous
100
AcDbLine
 10
248.8671744346751
 20
55.30882546711393
 30
0.0
 11
231.8671744346752
 21
65.30882546711393
 31
0.0
  0
ARC
  5
280B
330
1F
100
AcDbEntity
  8
電気錠
  6
Continuous
100
AcDbCircle
 10
230.8671744346753
 20
64.80882546711399
 30
0.0
 40
0.5
100
AcDbArc
 50
90.0
 51
180.0
  0
LINE
  5
280C
330
1F
100
AcDbEntity
  8
電気錠
  6
Continuous
100
AcDbLine
 10
230.8671744346753
 20
65.30882546711393
 30
0.0
 11
231.8671744346752
 21
65.30882546711393
 31
0.0
  0
LINE
  5
280D
330
1F
100
AcDbEntity
  8
電気錠
  6
Continuous
100
AcDbLine
 10
230.3671744346752
 20
55.30882546711393
 30
0.0
 11
230.3671744346752
 21
64.80882546711399
 31
0.0
  0
LINE
  5
280E
330
1F
100
AcDbEntity
  8
電気錠
  6
Continuous
100
AcDbLine
 10
230.8671744346753
 20
65.30882546711393
 30
0.0
 11
231.8671744346752
 21
65.30882546711393
 31
0.0
  0
ARC
  5
280F
330
1F
100
AcDbEntity
  8
電気錠
  6
Continuous
100
AcDbCircle
 10
230.8671744346753
 20
64.80882546711399
 30
0.0
 40
0.5
100
AcDbArc
 50
90.0
 51
180.0
  0
LINE
  5
2810
330
1F
100
AcDbEntity
  8
電気錠
  6
Continuous
100
AcDbLine
 10
248.8671744346751
 20
55.30882546711393
 30
0.0
 11
231.8671744346752
 21
65.30882546711393
 31
0.0
  0
LINE
  5
2811
330
1F
100
AcDbEntity
  8
電気錠
  6
Continuous
100
AcDbLine
 10
82.36717443467501
 20
47.3088465303694
 30
0.0
 11
262.3671744346751
 21
47.3088465303694
 31
0.0
  0
LINE
  5
2812
330
1F
100
AcDbEntity
  8
電気錠
  6
Continuous
100
AcDbLine
 10
82.36717443467501
 20
55.30882546711393
 30
0.0
 11
262.3671744346751
 21
55.30882546711393
 31
0.0
  0
LINE
  5
2813
330
1F
100
AcDbEntity
  8
電気錠
  6
Continuous
100
AcDbLine
 10
230.3671744346752
 20
55.30882546711393
 30
0.0
 11
230.3671744346752
 21
64.80882546711399
 31
0.0
  0
LINE
  5
2814
330
1F
100
AcDbEntity
  8
電気錠
  6
Continuous
100
AcDbLine
 10
230.3671744346752
 20
64.80882546711399
 30
0.0
 11
230.3671744346752
 21
55.30882546711393
 31
0.0
  0
LINE
  5
2815
330
1F
100
AcDbEntity
  8
電気錠
  6
Continuous
100
AcDbLine
 10
230.3671744346752
 20
55.30882546711393
 30
0.0
 11
230.3671744346752
 21
64.80882546711399
 31
0.0
  0
ARC
  5
2816
330
1F
100
AcDbEntity
  8
電気錠
  6
Continuous
100
AcDbCircle
 10
89.32039453264691
 20
87.86108197826814
 30
0.0
 40
7.0
100
AcDbArc
 50
90.0
 51
270.0
  0
ARC
  5
2817
330
1F
100
AcDbEntity
  8
電気錠
  6
Continuous
100
AcDbCircle
 10
255.2406966444469
 20
87.86062826686821
 30
0.0
 40
7.0
100
AcDbArc
 50
270.0
 51
90.0
  0
LINE
  5
2818
330
1F
100
AcDbEntity
  8
電気錠
  6
Continuous
100
AcDbLine
 10
231.2406966444469
 20
80.86062826686822
 30
0.0
 11
231.2406966444469
 21
94.86062826686822
 31
0.0
  0
LINE
  5
2819
330
1F
100
AcDbEntity
  8
電気錠
  6
Continuous
100
AcDbLine
 10
248.2406966444469
 20
94.86062826686822
 30
0.0
 11
248.2406966444469
 21
80.86062826686822
 31
0.0
  0
LINE
  5
281A
330
1F
100
AcDbEntity
  8
電気錠
  6
Continuous
100
AcDbLine
 10
248.2406966444469
 20
94.86062826686822
 30
0.0
 11
231.2406966444469
 21
94.86062826686822
 31
0.0
  0
LINE
  5
281B
330
1F
100
AcDbEntity
  8
電気錠
  6
Continuous
100
AcDbLine
 10
248.2406966444469
 20
80.86062826686822
 30
0.0
 11
231.2406966444469
 21
80.86062826686822
 31
0.0
  0
LINE
  5
281C
330
1F
100
AcDbEntity
  8
電気錠
  6
Continuous
100
AcDbLine
 10
255.2406966444469
 20
94.86062826686822
 30
0.0
 11
89.24069664444687
 21
94.86062826686822
 31
0.0
  0
LINE
  5
281D
330
1F
100
AcDbEntity
  8
電気錠
  6
Continuous
100
AcDbLine
 10
255.2406966444469
 20
80.86062826686822
 30
0.0
 11
89.24069664444687
 21
80.86062826686822
 31
0.0
  0
CIRCLE
  5
281E
330
1F
100
AcDbEntity
  8
電気錠
  6
Continuous
100
AcDbCircle
 10
144.3671846534951
 20
87.86062826686821
 30
0.0
 40
2.25
  0
CIRCLE
  5
281F
330
1F
100
AcDbEntity
  8
電気錠
  6
Continuous
100
AcDbCircle
 10
144.3671846534951
 20
87.86062826686821
 30
0.0
 40
5.25
  0
CIRCLE
  5
2820
330
1F
100
AcDbEntity
  8
電気錠
  6
Continuous
100
AcDbCircle
 10
194.2406966444469
 20
87.86062826686821
 30
0.0
 40
5.25
  0
CIRCLE
  5
2821
330
1F
100
AcDbEntity
  8
電気錠
  6
Continuous
100
AcDbCircle
 10
194.2406966444469
 20
87.86062826686821
 30
0.0
 40
2.25
  0
LINE
  5
2822
330
1F
100
AcDbEntity
  8
電気錠
  6
Continuous
100
AcDbLine
 10
108.2406966444468
 20
80.86062826686822
 30
0.0
 11
91.24069664444688
 21
80.86062826686822
 31
0.0
  0
LINE
  5
2823
330
1F
100
AcDbEntity
  8
電気錠
  6
Continuous
100
AcDbLine
 10
91.24069664444688
 20
80.86062826686822
 30
0.0
 11
91.24069664444688
 21
94.86062826686822
 31
0.0
  0
LINE
  5
2824
330
1F
100
AcDbEntity
  8
電気錠
  6
Continuous
100
AcDbLine
 10
108.2406966444468
 20
94.86062826686822
 30
0.0
 11
108.2406966444468
 21
80.86062826686822
 31
0.0
  0
LINE
  5
2825
330
1F
100
AcDbEntity
  8
電気錠
  6
Continuous
100
AcDbLine
 10
108.2406966444468
 20
94.86062826686822
 30
0.0
 11
91.24069664444688
 21
94.86062826686822
 31
0.0
  0
DIMENSION
  5
2826
330
1F
100
AcDbEntity
  8
寸法線
100
AcDbDimension
  2
*D39
 10
82.36717443467501
 20
69.01889202460228
 30
0.0
 11
113.367179544085
 21
71.39389202460228
 31
0.0
 70
    32
 71
     5
 42
62.00001021882008
  3
ISO-25
100
AcDbAlignedDimension
 13
144.3671846534951
 23
87.80765769667704
 33
0.0
 14
82.36717443467501
 24
55.30882546711393
 34
0.0
 50
180.0
100
AcDbRotatedDimension
1001
ACAD
1000
DSTYLE
1002
{
1070
   140
1040
3.5
1002
}
  0
LINE
  5
2827
330
1F
100
AcDbEntity
  8
電気錠
100
AcDbLine
 10
90.367174434675
 20
55.30882546711393
 30
0.0
 11
230.3671744346752
 21
55.30882546711393
 31
0.0
  0
LINE
  5
2828
330
1F
100
AcDbEntity
  8
電気錠
  6
DASHED
100
AcDbLine
 10
192.3624458543766
 20
52.30882546711393
 30
0.0
 11
189.3624458543765
 21
55.30882546711393
 31
0.0
  0
LINE
  5
2829
330
1F
100
AcDbEntity
  8
電気錠
  6
DASHED
100
AcDbLine
 10
192.3624458543766
 20
47.25350245656938
 30
0.0
 11
192.3624458543766
 21
52.30882546711393
 31
0.0
  0
LINE
  5
282A
330
1F
100
AcDbEntity
  8
電気錠
  6
DASHED
100
AcDbLine
 10
196.8624458543765
 20
52.30882546711393
 30
0.0
 11
199.8624458543767
 21
55.30882546711393
 31
0.0
  0
LINE
  5
282B
330
1F
100
AcDbEntity
  8
電気錠
  6
DASHED
100
AcDbLine
 10
196.8624458543765
 20
52.30882546711393
 30
0.0
 11
196.8624458543765
 21
47.25350245656938
 31
0.0
  0
MTEXT
  5
2A90
330
1F
100
AcDbEntity
  8
電気錠
100
AcDbMText
 10
185.2250000000001
 20
512.9748895009085
 30
0.0
 40
7.0
 41
200.0
 71
     5
 72
     5
  1
{\fMS PMincho|b0|i0|c128|p18;ケアロック《３モード》右勝手_シルバー}
 73
     1
 44
1.0
1001
ACAD
1000
MTEXTBEGIN
1070
    73
1070
     1
1070
    44
1040
1.0
1070
    74
1070
     0
1000
MTEXTEND
  0
MTEXT
  5
2A92
330
1F
100
AcDbEntity
  8
電気錠
100
AcDbMText
 10
365.45
 20
512.9748895009085
 30
0.0
 40
7.0
 41
50.0
 71
     6
 72
     5
  1
{\fMS PMincho|b0|i0|c128|p18;WP0270-02SL}
 73
     1
 44
1.0
1001
ACAD
1000
MTEXTBEGIN
1070
    73
1070
     1
1070
    44
1040
1.0
1070
    74
1070
     0
1000
MTEXTEND
  0
LINE
  5
2A93
330
1F
100
AcDbEntity
  8
0
100
AcDbLine
 10
46.76766519963599
 20
209.7434963140059
 30
0.0
 11
235.7176651996358
 21
209.7434963140059
 31
0.0
  0
TEXT
  5
2A94
330
1F
100
AcDbEntity
  8
0
100
AcDbText
 10
113.883366068313
 20
212.3434963140057
 30
0.0
 40
7.0
  1
シルバー
  7
BIGFONT
100
AcDbText
  0
TEXT
  5
2A95
330
1F
100
AcDbEntity
  8
0
100
AcDbText
 10
52.57772073360024
 20
212.3434963140057
 30
0.0
 40
7.0
  1
カバー色
  7
BIGFONT
100
AcDbText
  0
ENDSEC
  0
SECTION
  2
OBJECTS
  0
DICTIONARY
  5
C
330
0
100
AcDbDictionary
281
     1
  3
ACAD_COLOR
350
6B
  3
ACAD_GROUP
350
D
  3
ACAD_LAYOUT
350
1A
  3
ACAD_MATERIAL
350
6A
  3
ACAD_MLEADERSTYLE
350
12D
  3
ACAD_MLINESTYLE
350
17
  3
ACAD_PLOTSETTINGS
350
19
  3
ACAD_PLOTSTYLENAME
350
E
  3
ACAD_SCALELIST
350
10C
  3
ACAD_TABLESTYLE
350
7E
  3
ACAD_VISUALSTYLE
350
EF
  3
ACDB_RECOMPOSE_DATA
350
15D
  3
AcDbVariableDictionary
350
5E
  3
DWGPROPS
350
2AA2
  0
DICTIONARY
  5
17DD
330
8
100
AcDbDictionary
280
     1
281
     1
  0
DICTIONARY
  5
1887
330
2
100
AcDbDictionary
280
     1
281
     1
  3
ACAD_LAYERFILTERS
360
1C6B
  3
ACLYDICTIONARY
360
1C6A
  0
DICTIONARY
  5
13C
330
10
100
AcDbDictionary
280
     1
281
     1
  3
ADSK_XREC_LAYER_RECONCILED
360
157F
  0
DICTIONARY
  5
1580
330
327
100
AcDbDictionary
280
     1
281
     1
  3
ADSK_XREC_LAYER_RECONCILED
360
1581
  0
DICTIONARY
  5
1582
330
328
100
AcDbDictionary
280
     1
281
     1
  3
ADSK_XREC_LAYER_RECONCILED
360
1583
  0
DICTIONARY
  5
8F5
330
1F
100
AcDbDictionary
280
     1
281
     1
  3
ACAD_SORTENTS
360
8F6
  0
DICTIONARY
  5
99F
330
992
100
AcDbDictionary
280
     1
281
     1
  3
ACAD_DIMASSOC
360
9A9
  0
DICTIONARY
  5
9C0
330
9B3
100
AcDbDictionary
280
     1
281
     1
  3
ACAD_DIMASSOC
360
9CA
  0
DICTIONARY
  5
A28
330
A19
100
AcDbDictionary
280
     1
281
     1
  3
ACAD_DIMASSOC
360
A34
  0
DICTIONARY
  5
A42
330
A35
100
AcDbDictionary
280
     1
281
     1
  3
ACAD_DIMASSOC
360
A4C
  0
DICTIONARY
  5
A64
330
A57
100
AcDbDictionary
280
     1
281
     1
  3
ACAD_DIMASSOC
360
A6E
  0
DICTIONARY
  5
A7C
330
A6F
100
AcDbDictionary
280
     1
281
     1
  3
ACAD_DIMASSOC
360
A86
  0
DICTIONARY
  5
B02
330
AF5
100
AcDbDictionary
280
     1
281
     1
  3
ACAD_DIMASSOC
360
B0C
  0
DICTIONARY
  5
B1A
330
B0D
100
AcDbDictionary
280
     1
281
     1
  3
ACAD_DIMASSOC
360
B24
  0
DICTIONARY
  5
B65
330
B58
100
AcDbDictionary
280
     1
281
     1
  3
ACAD_DIMASSOC
360
B6F
  0
DICTIONARY
  5
11F3
330
11E4
100
AcDbDictionary
280
     1
281
     1
  3
ACAD_DIMASSOC
360
11FF
  0
DICTIONARY
  5
120D
330
1200
100
AcDbDictionary
280
     1
281
     1
  3
ACAD_DIMASSOC
360
1217
  0
DICTIONARY
  5
1227
330
1218
100
AcDbDictionary
280
     1
281
     1
  3
ACAD_DIMASSOC
360
1233
  0
DICTIONARY
  5
124A
330
123D
100
AcDbDictionary
280
     1
281
     1
  3
ACAD_DIMASSOC
360
1254
  0
DICTIONARY
  5
1272
330
1265
100
AcDbDictionary
280
     1
281
     1
  3
ACAD_DIMASSOC
360
127C
  0
DICTIONARY
  5
128A
330
127D
100
AcDbDictionary
280
     1
281
     1
  3
ACAD_DIMASSOC
360
1294
  0
DICTIONARY
  5
6B
102
{ACAD_REACTORS
330
C
102
}
330
C
100
AcDbDictionary
281
     1
  0
DICTIONARY
  5
D
102
{ACAD_REACTORS
330
C
102
}
330
C
100
AcDbDictionary
281
     1
  3
*A1
350
1B52
  3
*A2
350
1B53
  3
*A3
350
1B54
  3
*A4
350
1B6C
  3
*A5
350
1B6D
  3
*A6
350
1B6E
  3
*A7
350
1B6F
  0
DICTIONARY
  5
1A
102
{ACAD_REACTORS
330
C
102
}
330
C
100
AcDbDictionary
281
     1
  3
Model
350
22
  3
レイアウト1
350
D3
  3
レイアウト2
350
D7
  0
DICTIONARY
  5
6A
102
{ACAD_REACTORS
330
C
102
}
330
C
100
AcDbDictionary
281
     1
  3
ByBlock
350
ED
  3
ByLayer
350
EC
  3
Global
350
EE
  0
DICTIONARY
  5
12D
102
{ACAD_REACTORS
330
C
102
}
330
C
100
AcDbDictionary
281
     1
  3
Annotative
350
13B
  3
Standard
350
12E
  0
DICTIONARY
  5
17
102
{ACAD_REACTORS
330
C
102
}
330
C
100
AcDbDictionary
281
     1
  3
Standard
350
18
  0
DICTIONARY
  5
19
102
{ACAD_REACTORS
330
C
102
}
330
C
100
AcDbDictionary
281
     1
  0
ACDBDICTIONARYWDFLT
  5
E
102
{ACAD_REACTORS
330
C
102
}
330
C
100
AcDbDictionary
281
     1
  3
Normal
350
F
100
AcDbDictionaryWithDefault
340
F
  0
DICTIONARY
  5
10C
102
{ACAD_REACTORS
330
C
102
}
330
C
100
AcDbDictionary
281
     1
  3
A0
350
10D
  3
A1
350
188
  3
A2
350
189
  3
A3
350
18A
  3
A4
350
18B
  3
A5
350
18C
  3
A6
350
18D
  3
A7
350
18E
  3
A8
350
18F
  3
A9
350
190
  3
B0
350
191
  3
B1
350
192
  3
B2
350
193
  3
B3
350
194
  3
B4
350
195
  3
B5
350
196
  3
B6
350
197
  3
B7
350
198
  3
B8
350
199
  3
B9
350
19A
  3
C0
350
19B
  3
C1
350
19C
  3
C2
350
19D
  3
C3
350
19E
  3
C4
350
19F
  3
C5
350
1A0
  3
C6
350
1A1
  3
C7
350
1A2
  3
C8
350
1A3
  3
C9
350
1A4
  3
D0
350
1A5
  3
D1
350
1A6
  3
D2
350
1A7
  0
DICTIONARY
  5
7E
102
{ACAD_REACTORS
330
C
102
}
330
C
100
AcDbDictionary
281
     1
  3
Standard
350
7F
  0
DICTIONARY
  5
EF
102
{ACAD_REACTORS
330
C
102
}
330
C
100
AcDbDictionary
281
     1
  3
2dWireframe
350
F5
  3
3D Hidden
350
F7
  3
3dWireframe
350
F6
  3
Basic
350
F4
  3
Brighten
350
FB
  3
ColorChange
350
FF
  3
Conceptual
350
F8
  3
Dim
350
FA
  3
Facepattern
350
FE
  3
Flat
350
F0
  3
FlatWithEdges
350
F1
  3
Gouraud
350
F2
  3
GouraudWithEdges
350
F3
  3
Linepattern
350
FD
  3
Realistic
350
F9
  3
Thicken
350
FC
  0
XRECORD
  5
15D
102
{ACAD_REACTORS
330
C
102
}
330
C
100
AcDbXrecord
280
     1
 90
        1
330
7F
  0
DICTIONARY
  5
5E
102
{ACAD_REACTORS
330
C
102
}
330
C
100
AcDbDictionary
281
     1
  3
CANNOSCALE
350
146
  3
CMLEADERSTYLE
350
145
  3
CTABLESTYLE
350
84
  3
DIMASSOC
350
5F
  3
HIDETEXT
350
63
  3
INDEXCTL
350
15A2
  3
LIGHTINGUNITS
350
15A0
  3
MSLTSCALE
350
159F
  3
PSOLHEIGHT
350
2AA0
  3
PSOLWIDTH
350
2A9F
  3
SORTENTS
350
15A1
  0
XRECORD
  5
2AA2
102
{ACAD_REACTORS
330
C
102
}
330
C
100
AcDbXrecord
280
     1
  1
DWGPROPS COOKIE
  2

  3

  4

  6

  7

  8
Takeshi_Nakagawa
  9

300
=
301
=
302
=
303
=
304
=
305
=
306
=
307
=
308
=
309
=
 40
10.20917070601852
 41
2455682.522393299
 42
2456553.620752859
  1

 90
        0
  0
DICTIONARY
  5
1C6B
102
{ACAD_REACTORS
330
1887
102
}
330
1887
100
AcDbDictionary
281
     1
  0
DICTIONARY
  5
1C6A
102
{ACAD_REACTORS
330
1887
102
}
330
1887
100
AcDbDictionary
281
     1
1001
ACAD
1000
<All
  0
XRECORD
  5
157F
102
{ACAD_REACTORS
330
13C
102
}
330
13C
100
AcDbXrecord
280
     1
290
     1
  0
XRECORD
  5
1581
102
{ACAD_REACTORS
330
1580
102
}
330
1580
100
AcDbXrecord
280
     1
290
     1
  0
XRECORD
  5
1583
102
{ACAD_REACTORS
330
1582
102
}
330
1582
100
AcDbXrecord
280
     1
290
     1
  0
SORTENTSTABLE
  5
8F6
102
{ACAD_REACTORS
330
8F5
102
}
330
8F5
100
AcDbSortentsTable
330
1F
331
583
  5
583
331
8E9
  5
8C4
331
BA4
  5
11E4
331
B0D
  5
1065
331
BBC
  5
1200
331
B25
  5
1066
331
58B
  5
58B
331
51C
  5
51C
331
8F1
  5
8E8
331
5CA
  5
5CA
331
524
  5
524
331
485
  5
485
331
52C
  5
52C
331
48D
  5
48D
331
59B
  5
59B
331
495
  5
495
331
5A3
  5
5A3
331
1820
  5
1A69
331
1064
  5
1264
331
A57
  5
1062
331
11CC
  5
1441
331
11E4
  5
1442
331
564
  5
564
331
49D
  5
49D
331
8C2
  5
992
331
4A5
  5
4A5
331
56C
  5
56C
331
5B3
  5
5B3
331
515
  5
515
331
57C
  5
57C
331
5BB
  5
5BB
331
584
  5
584
331
8EA
  5
8C5
331
A6F
  5
1063
331
58C
  5
58C
331
51D
  5
51D
331
8F2
  5
8E9
331
5CB
  5
5CB
331
525
  5
525
331
486
  5
486
331
52D
  5
52D
331
48E
  5
48E
331
59C
  5
59C
331
496
  5
496
331
55D
  5
55D
331
1065
  5
1265
331
A19
  5
BBC
331
565
  5
565
331
8C3
  5
9B3
331
992
  5
B58
331
8CB
  5
A57
331
56D
  5
56D
331
5B4
  5
5B4
331
516
  5
516
331
57D
  5
57D
331
5BC
  5
5BC
331
1991
  5
8ED
331
585
  5
585
331
8EB
  5
8CB
331
CB6
  5
1218
331
8F3
  5
8EA
331
5C4
  5
5C4
331
58D
  5
58D
331
51E
  5
51E
331
5CC
  5
5CC
331
526
  5
526
331
487
  5
487
331
93B
  5
B0D
331
52E
  5
52E
331
48F
  5
48F
331
59D
  5
59D
331
497
  5
497
331
55E
  5
55E
331
1066
  5
127D
331
125C
  5
1446
331
1264
  5
1448
331
8C4
  5
A19
331
566
  5
566
331
5AD
  5
5AD
331
8CC
  5
A6F
331
56E
  5
56E
331
5B5
  5
5B5
331
517
  5
517
331
57E
  5
57E
331
5BD
  5
5BD
331
1992
  5
8EE
331
8EC
  5
8CC
331
123D
  5
1445
331
5C5
  5
5C5
331
58E
  5
58E
331
51F
  5
51F
331
5CD
  5
5CD
331
527
  5
527
331
488
  5
488
331
490
  5
490
331
59E
  5
59E
331
95C
  5
B25
331
55F
  5
55F
331
9B3
  5
BA4
331
B58
  5
11CC
331
1265
  5
1449
331
498
  5
498
331
8C5
  5
A35
331
567
  5
567
331
5B6
  5
5B6
331
510
  5
510
331
56F
  5
56F
331
57F
  5
57F
331
8E5
  5
5D1
331
1993
  5
8EF
331
587
  5
587
331
8ED
  5
8CD
331
17BC
  5
1A67
331
127D
  5
144A
331
17C4
  5
1A68
331
518
  5
518
331
5C6
  5
5C6
331
58F
  5
58F
331
520
  5
520
331
528
  5
528
331
489
  5
489
331
597
  5
597
331
491
  5
491
331
59F
  5
59F
331
197C
  5
8F1
331
499
  5
499
331
560
  5
560
331
568
  5
568
331
511
  5
511
331
580
  5
580
331
8E6
  5
7F0
331
8EE
  5
8E5
331
1994
  5
8F0
331
19B4
  5
1A6A
331
1200
  5
1443
331
519
  5
519
331
588
  5
588
331
521
  5
521
331
590
  5
590
331
5C7
  5
5C7
331
529
  5
529
331
48A
  5
48A
331
598
  5
598
331
5A0
  5
5A0
331
197D
  5
8F2
331
1218
  5
1444
331
561
  5
561
331
5A8
  5
5A8
331
4A2
  5
4A2
331
569
  5
569
331
512
  5
512
331
5B8
  5
5B8
331
581
  5
581
331
8E7
  5
8C2
331
8EF
  5
8E6
331
A35
  5
CB6
331
589
  5
589
331
51A
  5
51A
331
5C8
  5
5C8
331
522
  5
522
331
591
  5
591
331
52A
  5
52A
331
48B
  5
48B
331
7F0
  5
95C
331
5A1
  5
5A1
331
197E
  5
8F3
331
1062
  5
123D
331
562
  5
562
331
49B
  5
49B
331
4A3
  5
4A3
331
56A
  5
56A
331
513
  5
513
331
582
  5
582
331
8E8
  5
8C3
331
58A
  5
58A
331
51B
  5
51B
331
8F0
  5
8E7
331
5C9
  5
5C9
331
523
  5
523
331
52B
  5
52B
331
48C
  5
48C
331
59A
  5
59A
331
5D1
  5
93B
331
5A2
  5
5A2
331
197F
  5
909
331
AF5
  5
1064
331
1063
  5
125C
331
563
  5
563
331
49C
  5
49C
331
4A4
  5
4A4
331
56B
  5
56B
331
5B2
  5
5B2
331
514
  5
514
  0
DIMASSOC
  5
9A9
102
{ACAD_REACTORS
330
99F
102
}
330
99F
100
AcDbDimAssoc
330
992
 90
        3
 70
     0
 71
     0
  1
AcDbOsnapPointRef
 72
    13
331
5CA
331
2F0
 73
     2
 91
        0
 40
0.0
 10
0.0
 20
0.0
 30
2.000000000000000E+50
 75
     0
  1
AcDbOsnapPointRef
 72
     1
331
5CA
331
2E7
 73
     2
 91
        0
 40
1.0
 10
0.0
 20
0.0
 30
2.000000000000000E+50
 75
     0
  0
DIMASSOC
  5
9CA
102
{ACAD_REACTORS
330
9C0
102
}
330
9C0
100
AcDbDimAssoc
330
9B3
 90
        2
 70
     0
 71
     0
  1
AcDbOsnapPointRef
 72
    13
331
583
 73
     2
 91
        0
 40
0.0
 10
0.0
 20
0.0
 30
2.000000000000000E+50
 75
     0
  0
DIMASSOC
  5
A34
102
{ACAD_REACTORS
330
A28
102
}
330
A28
100
AcDbDimAssoc
330
A19
 90
        3
 70
     0
 71
     0
  1
AcDbOsnapPointRef
 72
     1
331
57F
 73
     2
 91
        0
 40
1.0
 10
0.0
 20
0.0
 30
2.000000000000000E+50
 75
     0
  1
AcDbOsnapPointRef
 72
     1
331
583
 73
     2
 91
        0
 40
1.0
 10
0.0
 20
0.0
 30
2.000000000000000E+50
 75
     0
  0
DIMASSOC
  5
A4C
102
{ACAD_REACTORS
330
A42
102
}
330
A42
100
AcDbDimAssoc
330
A35
 90
        3
 70
     0
 71
     0
  1
AcDbOsnapPointRef
 72
    13
331
55D
 73
     2
 91
        0
 40
0.0
 10
0.0
 20
0.0
 30
2.000000000000000E+50
 75
     0
  1
AcDbOsnapPointRef
 72
    13
331
55E
 73
     2
 91
        0
 40
0.0
 10
0.0
 20
0.0
 30
2.000000000000000E+50
 75
     0
  0
DIMASSOC
  5
A6E
102
{ACAD_REACTORS
330
A64
102
}
330
A64
100
AcDbDimAssoc
330
A57
 90
        1
 70
     0
 71
     0
  1
AcDbOsnapPointRef
 72
    13
331
55F
 73
     2
 91
        0
 40
0.0
 10
0.0
 20
0.0
 30
2.000000000000000E+50
 75
     0
  0
DIMASSOC
  5
A86
102
{ACAD_REACTORS
330
A7C
102
}
330
A7C
100
AcDbDimAssoc
330
A6F
 90
        3
 70
     0
 71
     0
  1
AcDbOsnapPointRef
 72
    13
331
55F
 73
     2
 91
        0
 40
0.0
 10
0.0
 20
0.0
 30
2.000000000000000E+50
 75
     0
  1
AcDbOsnapPointRef
 72
    13
331
55E
 73
     2
 91
        0
 40
0.0
 10
0.0
 20
0.0
 30
2.000000000000000E+50
 75
     0
  0
DIMASSOC
  5
B0C
102
{ACAD_REACTORS
330
B02
102
}
330
B02
100
AcDbDimAssoc
330
AF5
 90
        3
 70
     0
 71
     0
  1
AcDbOsnapPointRef
 72
     3
331
58B
331
2C4
 73
     2
 91
        0
 40
3.141592653589792
 10
0.0
 20
0.0
 30
0.0
 75
     0
  1
AcDbOsnapPointRef
 72
    13
331
5C5
331
2D0
 73
     2
 91
        0
 40
0.0
 10
0.0
 20
0.0
 30
2.000000000000000E+50
 75
     0
  0
DIMASSOC
  5
B24
102
{ACAD_REACTORS
330
B1A
102
}
330
B1A
100
AcDbDimAssoc
330
B0D
 90
        3
 70
     0
 71
     0
  1
AcDbOsnapPointRef
 72
     3
331
58B
331
2C4
 73
     2
 91
        0
 40
3.141592653589792
 10
0.0
 20
0.0
 30
0.0
 75
     0
  1
AcDbOsnapPointRef
 72
     3
331
567
331
2BD
 73
     2
 91
        0
 40
3.141592653589792
 10
0.0
 20
0.0
 30
0.0
 75
     0
  0
DIMASSOC
  5
B6F
102
{ACAD_REACTORS
330
B65
102
}
330
B65
100
AcDbDimAssoc
330
B58
 90
        3
 70
     0
 71
     0
  1
AcDbOsnapPointRef
 72
     1
331
56E
 73
     2
 91
        0
 40
1.0
 10
0.0
 20
0.0
 30
2.000000000000000E+50
 75
     0
  1
AcDbOsnapPointRef
 72
    13
331
56A
 73
     2
 91
        0
 40
0.0
 10
0.0
 20
0.0
 30
2.000000000000000E+50
 75
     0
  0
DIMASSOC
  5
11FF
102
{ACAD_REACTORS
330
11F3
102
}
330
11F3
100
AcDbDimAssoc
330
11E4
 90
        3
 70
     0
 71
     0
  1
AcDbOsnapPointRef
 72
    13
331
58B
331
2C4
 73
     2
 91
        0
 40
6.283185307179585
 10
0.0
 20
0.0
 30
2.000000000000000E+50
 75
     0
  1
AcDbOsnapPointRef
 72
     1
331
58B
331
2C4
 73
     2
 91
        0
 40
3.141592653589792
 10
0.0
 20
0.0
 30
2.000000000000000E+50
 75
     0
  0
DIMASSOC
  5
1217
102
{ACAD_REACTORS
330
120D
102
}
330
120D
100
AcDbDimAssoc
330
1200
 90
        3
 70
     0
 71
     0
  1
AcDbOsnapPointRef
 72
     1
331
591
 73
     2
 91
        0
 40
0.9999999999999998
 10
0.0
 20
0.0
 30
2.000000000000000E+50
 75
     0
  1
AcDbOsnapPointRef
 72
    13
331
590
 73
     2
 91
        0
 40
0.0
 10
0.0
 20
0.0
 30
2.000000000000000E+50
 75
     0
  0
DIMASSOC
  5
1233
102
{ACAD_REACTORS
330
1227
102
}
330
1227
100
AcDbDimAssoc
330
1218
 90
        3
 70
     0
 71
     0
  1
AcDbOsnapPointRef
 72
    13
331
590
 73
     2
 91
        0
 40
0.0
 10
0.0
 20
0.0
 30
2.000000000000000E+50
 75
     0
  1
AcDbOsnapPointRef
 72
    13
331
58F
 73
     2
 91
        0
 40
0.0
 10
0.0
 20
0.0
 30
2.000000000000000E+50
 75
     0
  0
DIMASSOC
  5
1254
102
{ACAD_REACTORS
330
124A
102
}
330
124A
100
AcDbDimAssoc
330
123D
 90
        2
 70
     0
 71
     0
  1
AcDbOsnapPointRef
 72
    13
331
5C5
331
2D0
 73
     2
 91
        0
 40
0.0
 10
0.0
 20
0.0
 30
2.000000000000000E+50
 75
     0
  0
DIMASSOC
  5
127C
102
{ACAD_REACTORS
330
1272
102
}
330
1272
100
AcDbDimAssoc
330
1265
 90
        3
 70
     0
 71
     0
  1
AcDbOsnapPointRef
 72
    13
331
5A0
 73
     2
 91
        0
 40
1.570796326794896
 10
0.0
 20
0.0
 30
2.000000000000000E+50
 75
     0
  1
AcDbOsnapPointRef
 72
    13
331
5A2
 73
     2
 91
        0
 40
0.0
 10
0.0
 20
0.0
 30
2.000000000000000E+50
 75
     0
  0
DIMASSOC
  5
1294
102
{ACAD_REACTORS
330
128A
102
}
330
128A
100
AcDbDimAssoc
330
127D
 90
        3
 70
     0
 71
     0
  1
AcDbOsnapPointRef
 72
    13
331
5A3
 73
     2
 91
        0
 40
0.0
 10
0.0
 20
0.0
 30
2.000000000000000E+50
 75
     0
  1
AcDbOsnapPointRef
 72
    13
331
5CC
 73
     2
 91
        0
 40
0.0
 10
0.0
 20
0.0
 30
2.000000000000000E+50
 75
     0
  0
GROUP
  5
1B52
102
{ACAD_REACTORS
330
D
102
}
330
D
100
AcDbGroup
300

 70
     1
 71
     1
  0
GROUP
  5
1B53
102
{ACAD_REACTORS
330
D
102
}
330
D
100
AcDbGroup
300

 70
     1
 71
     1
  0
GROUP
  5
1B54
102
{ACAD_REACTORS
330
D
102
}
330
D
100
AcDbGroup
300

 70
     1
 71
     1
  0
GROUP
  5
1B6C
102
{ACAD_REACTORS
330
D
102
}
330
D
100
AcDbGroup
300

 70
     1
 71
     1
340
584
340
583
340
582
340
581
340
580
340
57F
340
57E
340
57D
340
563
340
562
340
561
340
560
340
55F
340
55E
340
55D
  0
GROUP
  5
1B6D
102
{ACAD_REACTORS
330
D
102
}
330
D
100
AcDbGroup
300

 70
     1
 71
     1
340
5CB
340
5C6
340
5C5
340
5C4
340
591
340
590
340
58F
340
58E
340
58D
340
58C
340
58B
340
58A
340
589
340
588
340
587
340
585
340
57C
340
56F
340
56E
340
56D
340
56C
340
56B
340
56A
340
569
340
568
340
567
340
566
340
565
340
564
  0
GROUP
  5
1B6E
102
{ACAD_REACTORS
330
D
102
}
330
D
100
AcDbGroup
300

 70
     1
 71
     1
340
5CA
340
5C9
340
5C8
340
5C7
340
5BD
340
5BC
340
5BB
340
5B6
340
5B5
340
5B4
340
5B3
340
5B2
340
59E
340
59D
340
59C
340
59B
340
59A
  0
GROUP
  5
1B6F
102
{ACAD_REACTORS
330
D
102
}
330
D
100
AcDbGroup
300

 70
     1
 71
     1
340
1264
340
125C
340
197E
340
197D
340
1993
340
1992
340
8F3
340
8F2
340
8F1
340
8F0
340
8EF
340
8EE
340
8ED
340
8EC
340
8EB
340
8EA
340
8E9
340
8E8
340
8E7
340
8E6
340
8E5
340
5CD
340
5CC
340
5AD
340
5A8
340
5A3
340
5A2
340
5A1
340
5A0
340
59F
340
598
340
597
  0
LAYOUT
  5
22
102
{ACAD_XDICTIONARY
360
2AA3
102
}
102
{ACAD_REACTORS
330
1A
102
}
330
1A
100
AcDbPlotSettings
  1

  2
SHARP MX-3610FN SPDL2-c
  4
A4
  6

 40
5.027082920074462
 41
5.027085781097412
 42
5.027069091796875
 43
5.027069091796875
 44
209.9733276367186
 45
296.9259948730469
 46
7.347087812423751
 47
12.56092000007646
 48
0.0000000000002274
 49
0.0000000000000391
140
370.45
141
523.4999999999993
142
1.0
143
2.0
 70
 11940
 72
     1
 73
     0
 74
     4
  7

 75
     0
147
0.5396657460516872
148
-0.0000000000002274
149
-0.0000000000000391
100
AcDbLayout
  1
Model
 70
     1
 71
     0
 10
0.0
 20
0.0
 11
12.0
 21
9.0
 12
0.0
 22
0.0
 32
0.0
 14
0.0
 24
0.0
 34
0.0
 15
0.0
 25
0.0
 35
0.0
146
0.0
 13
0.0
 23
0.0
 33
0.0
 16
1.0
 26
0.0
 36
0.0
 17
0.0
 27
1.0
 37
0.0
 76
     0
330
1F
331
1CAC
1001
ACAD_PSEXT
1000
SHARP MX-3610FN SPDL2-c
1000
SHARP MX-3610FN SPDL2-c
1000
IP_192.168.5.100
1000

1070
     0
  0
LAYOUT
  5
D3
102
{ACAD_XDICTIONARY
360
2AA6
102
}
102
{ACAD_REACTORS
330
1A
102
}
330
1A
100
AcDbPlotSettings
  1

  2
C:\Documents and Settings\basas\Application Data\Autodesk\AutoCAD 2005\R16.1\enu\plotters\Default Windows System Printer.pc3
  4

  6

 40
0.0
 41
0.0
 42
0.0
 43
0.0
 44
0.0
 45
0.0
 46
0.0
 47
0.0
 48
0.0
 49
0.0
140
0.0
141
0.0
142
1.0
143
1.0
 70
   688
 72
     0
 73
     0
 74
     5
  7

 75
    16
147
1.0
148
0.0
149
0.0
100
AcDbLayout
  1
レイアウト1
 70
     1
 71
     1
 10
0.0
 20
0.0
 11
12.0
 21
9.0
 12
0.0
 22
0.0
 32
0.0
 14
0.0
 24
0.0
 34
0.0
 15
0.0
 25
0.0
 35
0.0
146
0.0
 13
0.0
 23
0.0
 33
0.0
 16
1.0
 26
0.0
 36
0.0
 17
0.0
 27
1.0
 37
0.0
 76
     0
330
D2
  0
LAYOUT
  5
D7
102
{ACAD_XDICTIONARY
360
2AA8
102
}
102
{ACAD_REACTORS
330
1A
102
}
330
1A
100
AcDbPlotSettings
  1

  2
C:\Documents and Settings\basas\Application Data\Autodesk\AutoCAD 2005\R16.1\enu\plotters\Default Windows System Printer.pc3
  4

  6

 40
0.0
 41
0.0
 42
0.0
 43
0.0
 44
0.0
 45
0.0
 46
0.0
 47
0.0
 48
0.0
 49
0.0
140
0.0
141
0.0
142
1.0
143
1.0
 70
   688
 72
     0
 73
     0
 74
     5
  7

 75
    16
147
1.0
148
0.0
149
0.0
100
AcDbLayout
  1
レイアウト2
 70
     1
 71
     2
 10
0.0
 20
0.0
 11
12.0
 21
9.0
 12
0.0
 22
0.0
 32
0.0
 14
0.0
 24
0.0
 34
0.0
 15
0.0
 25
0.0
 35
0.0
146
0.0
 13
0.0
 23
0.0
 33
0.0
 16
1.0
 26
0.0
 36
0.0
 17
0.0
 27
1.0
 37
0.0
 76
     0
330
D6
  0
MATERIAL
  5
ED
102
{ACAD_XDICTIONARY
360
2AAC
102
}
102
{ACAD_REACTORS
330
6A
102
}
330
6A
100
AcDbMaterial
  1
ByBlock
  0
MATERIAL
  5
EC
102
{ACAD_XDICTIONARY
360
2AAA
102
}
102
{ACAD_REACTORS
330
6A
102
}
330
6A
100
AcDbMaterial
  1
ByLayer
  0
MATERIAL
  5
EE
102
{ACAD_XDICTIONARY
360
173
102
}
102
{ACAD_REACTORS
330
6A
102
}
330
6A
100
AcDbMaterial
  1
Global
 43
0.0007999999797903
 43
0.0
 43
0.0
 43
0.0
 43
0.0
 43
0.0007999999797903
 43
0.0
 43
0.0
 43
0.0
 43
0.0
 43
1.0
 43
0.0
 43
0.0
 43
0.0
 43
0.0
 43
1.0
 49
0.0007999999797903
 49
0.0
 49
0.0
 49
0.0
 49
0.0
 49
0.0007999999797903
 49
0.0
 49
0.0
 49
0.0
 49
0.0
 49
1.0
 49
0.0
 49
0.0
 49
0.0
 49
0.0
 49
1.0
142
0.0007999999797903
142
0.0
142
0.0
142
0.0
142
0.0
142
0.0007999999797903
142
0.0
142
0.0
142
0.0
142
0.0
142
1.0
142
0.0
142
0.0
142
0.0
142
0.0
142
1.0
144
0.0007999999797903
144
0.0
144
0.0
144
0.0
144
0.0
144
0.0007999999797903
144
0.0
144
0.0
144
0.0
144
0.0
144
1.0
144
0.0
144
0.0
144
0.0
144
0.0
144
1.0
1001
ACAD
1070
    -1
1070
     3
1070
     0
1000

1071
        0
1070
     0
  0
MLEADERSTYLE
  5
13B
102
{ACAD_REACTORS
330
12D
102
}
330
12D
100
AcDbMLeaderStyle
170
     2
171
     1
172
     0
 90
        2
 40
0.0
 41
0.0
173
     1
 91
-1056964608
340
14
 92
       -2
290
     1
 42
2.0
291
     1
 43
8.0
  3
Standard
 44
4.0
300

342
11
174
     1
178
     1
175
     1
176
     0
 93
-1056964608
 45
4.0
292
     0
297
     0
 46
4.0
 94
-1056964608
 47
1.0
 49
1.0
140
1.0
293
     1
141
0.0
294
     1
177
     0
142
1.0
295
     0
296
     1
143
3.75
1001
ACAD_MLEADERVER
1070
     2
  0
MLEADERSTYLE
  5
12E
102
{ACAD_REACTORS
330
12D
102
}
330
12D
100
AcDbMLeaderStyle
170
     2
171
     1
172
     0
 90
        2
 40
0.0
 41
0.0
173
     1
 91
-1056964608
340
14
 92
       -2
290
     1
 42
2.0
291
     1
 43
8.0
  3
Standard
 44
4.0
300

342
11
174
     1
178
     1
175
     1
176
     0
 93
-1056964608
 45
4.0
292
     0
297
     0
 46
4.0
 94
-1056964608
 47
1.0
 49
1.0
140
1.0
293
     1
141
0.0
294
     1
177
     0
142
1.0
295
     0
296
     0
143
3.75
1001
ACAD_MLEADERVER
1070
     2
  0
MLINESTYLE
  5
18
102
{ACAD_REACTORS
330
17
102
}
330
17
100
AcDbMlineStyle
  2
STANDARD
 70
     0
  3

 62
   256
 51
90.0
 52
90.0
 71
     2
 49
0.5
 62
   256
  6
BYLAYER
 49
-0.5
 62
   256
  6
BYLAYER
  0
ACDBPLACEHOLDER
  5
F
102
{ACAD_REACTORS
330
E
102
}
330
E
  0
SCALE
  5
10D
102
{ACAD_REACTORS
330
10C
102
}
330
10C
100
AcDbScale
 70
     0
300
1:1
140
1.0
141
1.0
290
     1
  0
SCALE
  5
188
102
{ACAD_REACTORS
330
10C
102
}
330
10C
100
AcDbScale
 70
     0
300
1:2
140
1.0
141
2.0
290
     0
  0
SCALE
  5
189
102
{ACAD_REACTORS
330
10C
102
}
330
10C
100
AcDbScale
 70
     0
300
1:4
140
1.0
141
4.0
290
     0
  0
SCALE
  5
18A
102
{ACAD_REACTORS
330
10C
102
}
330
10C
100
AcDbScale
 70
     0
300
1:5
140
1.0
141
5.0
290
     0
  0
SCALE
  5
18B
102
{ACAD_REACTORS
330
10C
102
}
330
10C
100
AcDbScale
 70
     0
300
1:8
140
1.0
141
8.0
290
     0
  0
SCALE
  5
18C
102
{ACAD_REACTORS
330
10C
102
}
330
10C
100
AcDbScale
 70
     0
300
1:10
140
1.0
141
10.0
290
     0
  0
SCALE
  5
18D
102
{ACAD_REACTORS
330
10C
102
}
330
10C
100
AcDbScale
 70
     0
300
1:16
140
1.0
141
16.0
290
     0
  0
SCALE
  5
18E
102
{ACAD_REACTORS
330
10C
102
}
330
10C
100
AcDbScale
 70
     0
300
1:20
140
1.0
141
20.0
290
     0
  0
SCALE
  5
18F
102
{ACAD_REACTORS
330
10C
102
}
330
10C
100
AcDbScale
 70
     0
300
1:30
140
1.0
141
30.0
290
     0
  0
SCALE
  5
190
102
{ACAD_REACTORS
330
10C
102
}
330
10C
100
AcDbScale
 70
     0
300
1:40
140
1.0
141
40.0
290
     0
  0
SCALE
  5
191
102
{ACAD_REACTORS
330
10C
102
}
330
10C
100
AcDbScale
 70
     0
300
1:50
140
1.0
141
50.0
290
     0
  0
SCALE
  5
192
102
{ACAD_REACTORS
330
10C
102
}
330
10C
100
AcDbScale
 70
     0
300
1:100
140
1.0
141
100.0
290
     0
  0
SCALE
  5
193
102
{ACAD_REACTORS
330
10C
102
}
330
10C
100
AcDbScale
 70
     0
300
2:1
140
2.0
141
1.0
290
     0
  0
SCALE
  5
194
102
{ACAD_REACTORS
330
10C
102
}
330
10C
100
AcDbScale
 70
     0
300
4:1
140
4.0
141
1.0
290
     0
  0
SCALE
  5
195
102
{ACAD_REACTORS
330
10C
102
}
330
10C
100
AcDbScale
 70
     0
300
8:1
140
8.0
141
1.0
290
     0
  0
SCALE
  5
196
102
{ACAD_REACTORS
330
10C
102
}
330
10C
100
AcDbScale
 70
     0
300
10:1
140
10.0
141
1.0
290
     0
  0
SCALE
  5
197
102
{ACAD_REACTORS
330
10C
102
}
330
10C
100
AcDbScale
 70
     0
300
100:1
140
100.0
141
1.0
290
     0
  0
SCALE
  5
198
102
{ACAD_REACTORS
330
10C
102
}
330
10C
100
AcDbScale
 70
     0
300
1/128" = 1'-0"
140
0.0078125
141
12.0
290
     0
  0
SCALE
  5
199
102
{ACAD_REACTORS
330
10C
102
}
330
10C
100
AcDbScale
 70
     0
300
1/64" = 1'-0"
140
0.015625
141
12.0
290
     0
  0
SCALE
  5
19A
102
{ACAD_REACTORS
330
10C
102
}
330
10C
100
AcDbScale
 70
     0
300
1/32" = 1'-0"
140
0.03125
141
12.0
290
     0
  0
SCALE
  5
19B
102
{ACAD_REACTORS
330
10C
102
}
330
10C
100
AcDbScale
 70
     0
300
1/16" = 1'-0"
140
0.0625
141
12.0
290
     0
  0
SCALE
  5
19C
102
{ACAD_REACTORS
330
10C
102
}
330
10C
100
AcDbScale
 70
     0
300
3/32" = 1'-0"
140
0.09375
141
12.0
290
     0
  0
SCALE
  5
19D
102
{ACAD_REACTORS
330
10C
102
}
330
10C
100
AcDbScale
 70
     0
300
1/8" = 1'-0"
140
0.125
141
12.0
290
     0
  0
SCALE
  5
19E
102
{ACAD_REACTORS
330
10C
102
}
330
10C
100
AcDbScale
 70
     0
300
3/16" = 1'-0"
140
0.1875
141
12.0
290
     0
  0
SCALE
  5
19F
102
{ACAD_REACTORS
330
10C
102
}
330
10C
100
AcDbScale
 70
     0
300
1/4" = 1'-0"
140
0.25
141
12.0
290
     0
  0
SCALE
  5
1A0
102
{ACAD_REACTORS
330
10C
102
}
330
10C
100
AcDbScale
 70
     0
300
3/8" = 1'-0"
140
0.375
141
12.0
290
     0
  0
SCALE
  5
1A1
102
{ACAD_REACTORS
330
10C
102
}
330
10C
100
AcDbScale
 70
     0
300
1/2" = 1'-0"
140
0.5
141
12.0
290
     0
  0
SCALE
  5
1A2
102
{ACAD_REACTORS
330
10C
102
}
330
10C
100
AcDbScale
 70
     0
300
3/4" = 1'-0"
140
0.75
141
12.0
290
     0
  0
SCALE
  5
1A3
102
{ACAD_REACTORS
330
10C
102
}
330
10C
100
AcDbScale
 70
     0
300
1" = 1'-0"
140
1.0
141
12.0
290
     0
  0
SCALE
  5
1A4
102
{ACAD_REACTORS
330
10C
102
}
330
10C
100
AcDbScale
 70
     0
300
1-1/2" = 1'-0"
140
1.5
141
12.0
290
     0
  0
SCALE
  5
1A5
102
{ACAD_REACTORS
330
10C
102
}
330
10C
100
AcDbScale
 70
     0
300
3" = 1'-0"
140
3.0
141
12.0
290
     0
  0
SCALE
  5
1A6
102
{ACAD_REACTORS
330
10C
102
}
330
10C
100
AcDbScale
 70
     0
300
6" = 1'-0"
140
6.0
141
12.0
290
     0
  0
SCALE
  5
1A7
102
{ACAD_REACTORS
330
10C
102
}
330
10C
100
AcDbScale
 70
     0
300
1'-0" = 1'-0"
140
12.0
141
12.0
290
     0
  0
TABLESTYLE
  5
7F
102
{ACAD_XDICTIONARY
360
162
102
}
102
{ACAD_REACTORS
330
7E
102
}
330
7E
100
AcDbTableStyle
  3
Standard
 70
     0
 71
     0
 40
1.5
 41
1.5
280
     0
281
     0
  7
Standard
140
4.5
170
     2
 62
     0
 63
     7
283
     0
274
    -2
284
     1
 64
     0
275
    -2
285
     1
 65
     0
276
    -2
286
     1
 66
     0
277
    -2
287
     1
 67
     0
278
    -2
288
     1
 68
     0
279
    -2
289
     1
 69
     0
  7
Standard
140
6.0
170
     5
 62
     0
 63
     7
283
     0
274
    -2
284
     1
 64
     0
275
    -2
285
     1
 65
     0
276
    -2
286
     1
 66
     0
277
    -2
287
     1
 67
     0
278
    -2
288
     1
 68
     0
279
    -2
289
     1
 69
     0
  7
Standard
140
4.5
170
     5
 62
     0
 63
     7
283
     0
274
    -2
284
     1
 64
     0
275
    -2
285
     1
 65
     0
276
    -2
286
     1
 66
     0
277
    -2
287
     1
 67
     0
278
    -2
288
     1
 68
     0
279
    -2
289
     1
 69
     0
  0
VISUALSTYLE
  5
F5
102
{ACAD_REACTORS
330
EF
102
}
330
EF
100
AcDbVisualStyle
  2
2dWireframe
 70
     4
 71
     0
 72
     2
 73
     1
 90
        0
 40
-0.6
 41
-30.0
 62
     5
 63
     7
 74
     1
 91
        4
 64
     7
 65
   257
 75
     1
175
     1
 42
1.0
 92
        0
 66
   257
 43
1.0
 76
     1
 77
     6
 78
     2
 67
     7
 79
     5
170
     0
171
     0
290
     0
174
     0
 93
        1
 44
0.0
173
     0
291
     0
 45
0.0
1001
ACAD
1000
AcDbSavedByObjectVersion
1070
     0
  0
VISUALSTYLE
  5
F7
102
{ACAD_REACTORS
330
EF
102
}
330
EF
100
AcDbVisualStyle
  2
3D Hidden
 70
     6
 71
     1
 72
     2
 73
     2
 90
        0
 40
-0.6
 41
-30.0
 62
     5
 63
     7
 74
     2
 91
        2
 64
     7
 65
   257
 75
     2
175
     1
 42
40.0
 92
        0
 66
   257
 43
1.0
 76
     1
 77
     6
 78
     2
 67
     7
 79
     3
170
     0
171
     0
290
     0
174
     0
 93
        1
 44
0.0
173
     0
291
     0
 45
0.0
1001
ACAD
1000
AcDbSavedByObjectVersion
1070
     0
  0
VISUALSTYLE
  5
F6
102
{ACAD_REACTORS
330
EF
102
}
330
EF
100
AcDbVisualStyle
  2
3dWireframe
 70
     5
 71
     0
 72
     2
 73
     1
 90
        0
 40
-0.6
 41
-30.0
 62
     5
 63
     7
 74
     1
 91
        4
 64
     7
 65
   257
 75
     1
175
     1
 42
1.0
 92
        0
 66
   257
 43
1.0
 76
     1
 77
     6
 78
     2
 67
     7
 79
     5
170
     0
171
     0
290
     0
174
     0
 93
        1
 44
0.0
173
     0
291
     0
 45
0.0
1001
ACAD
1000
AcDbSavedByObjectVersion
1070
     0
  0
VISUALSTYLE
  5
F4
102
{ACAD_REACTORS
330
EF
102
}
330
EF
100
AcDbVisualStyle
  2
Basic
 70
     7
 71
     1
 72
     0
 73
     1
 90
        0
 40
-0.6
 41
-30.0
 62
     5
 63
     7
 74
     0
 91
        4
 64
     7
 65
   257
 75
     1
175
     1
 42
1.0
 92
        8
 66
     7
 43
1.0
 76
     1
 77
     6
 78
     2
 67
     7
 79
     5
170
     0
171
     0
290
     0
174
     0
 93
        1
 44
0.0
173
     0
291
     1
 45
0.0
1001
ACAD
1000
AcDbSavedByObjectVersion
1070
     0
  0
VISUALSTYLE
  5
FB
102
{ACAD_REACTORS
330
EF
102
}
330
EF
100
AcDbVisualStyle
  2
Brighten
 70
    12
 71
     2
 72
     2
 73
     1
 90
        0
 40
-0.6
 41
-30.0
 62
     5
 63
     7
 74
     1
 91
        4
 64
     7
 65
   257
 75
     1
175
     1
 42
1.0
 92
        8
 66
     7
 43
1.0
 76
     1
 77
     6
 78
     2
 67
     7
 79
     5
170
     0
171
     0
290
     0
174
     0
 93
        1
 44
50.0
173
     0
291
     1
 45
0.0
1001
ACAD
1000
AcDbSavedByObjectVersion
1070
     0
  0
VISUALSTYLE
  5
FF
102
{ACAD_REACTORS
330
EF
102
}
330
EF
100
AcDbVisualStyle
  2
ColorChange
 70
    16
 71
     2
 72
     2
 73
     3
 90
        0
 40
-0.6
 41
-30.0
 62
     5
 63
     8
 74
     1
 91
        4
 64
     7
 65
   257
 75
     1
175
     1
 42
1.0
 92
        8
 66
     8
 43
1.0
 76
     1
 77
     6
 78
     2
 67
     7
 79
     5
170
     0
171
     0
290
     0
174
     0
 93
        1
 44
0.0
173
     0
291
     1
 45
0.0
1001
ACAD
1000
AcDbSavedByObjectVersion
1070
     0
  0
VISUALSTYLE
  5
F8
102
{ACAD_REACTORS
330
EF
102
}
330
EF
100
AcDbVisualStyle
  2
Conceptual
 70
     9
 71
     3
 72
     2
 73
     1
 90
        0
 40
-0.6
 41
-30.0
 62
     5
 63
     7
 74
     2
 91
        2
 64
     7
 65
   257
 75
     1
175
     1
 42
40.0
 92
        8
 66
     7
 43
1.0
 76
     1
 77
     6
 78
     2
 67
     7
 79
     3
170
     0
171
     0
290
     0
174
     0
 93
        1
 44
0.0
173
     0
291
     0
 45
0.0
1001
ACAD
1000
AcDbSavedByObjectVersion
1070
     0
  0
VISUALSTYLE
  5
FA
102
{ACAD_REACTORS
330
EF
102
}
330
EF
100
AcDbVisualStyle
  2
Dim
 70
    11
 71
     2
 72
     2
 73
     1
 90
        0
 40
-0.6
 41
-30.0
 62
     5
 63
     7
 74
     1
 91
        4
 64
     7
 65
   257
 75
     1
175
     1
 42
1.0
 92
        8
 66
     7
 43
1.0
 76
     1
 77
     6
 78
     2
 67
     7
 79
     5
170
     0
171
     0
290
     0
174
     0
 93
        1
 44
-50.0
173
     0
291
     1
 45
0.0
1001
ACAD
1000
AcDbSavedByObjectVersion
1070
     0
  0
VISUALSTYLE
  5
FE
102
{ACAD_REACTORS
330
EF
102
}
330
EF
100
AcDbVisualStyle
  2
Facepattern
 70
    15
 71
     2
 72
     2
 73
     1
 90
        0
 40
-0.6
 41
-30.0
 62
     5
 63
     7
 74
     1
 91
        4
 64
     7
 65
   257
 75
     1
175
     1
 42
1.0
 92
        8
 66
     7
 43
1.0
 76
     1
 77
     6
 78
     2
 67
     7
 79
     5
170
     0
171
     0
290
     0
174
     0
 93
        1
 44
0.0
173
     0
291
     1
 45
0.0
1001
ACAD
1000
AcDbSavedByObjectVersion
1070
     0
  0
VISUALSTYLE
  5
F0
102
{ACAD_REACTORS
330
EF
102
}
330
EF
100
AcDbVisualStyle
  2
Flat
 70
     0
 71
     2
 72
     1
 73
     1
 90
        2
 40
-0.6
 41
30.0
 62
     5
 63
     7
 74
     0
 91
        4
 64
     7
 65
   257
 75
     1
175
     1
 42
1.0
 92
        8
 66
     7
 43
1.0
 76
     1
 77
     6
 78
     2
 67
     7
 79
     5
170
     0
171
     0
290
     0
174
     0
 93
        1
 44
0.0
173
     0
291
     1
 45
0.0
1001
ACAD
1000
AcDbSavedByObjectVersion
1070
     0
  0
VISUALSTYLE
  5
F1
102
{ACAD_REACTORS
330
EF
102
}
330
EF
100
AcDbVisualStyle
  2
FlatWithEdges
 70
     1
 71
     2
 72
     1
 73
     1
 90
        2
 40
-0.6
 41
30.0
 62
     5
 63
     7
 74
     1
 91
        4
 64
     7
 65
   257
 75
     1
175
     1
 42
1.0
 92
        0
 66
   257
 43
1.0
 76
     1
 77
     6
 78
     2
 67
     7
 79
     5
170
     0
171
     0
290
     0
174
     0
 93
        1
 44
0.0
173
     0
291
     1
 45
0.0
1001
ACAD
1000
AcDbSavedByObjectVersion
1070
     0
  0
VISUALSTYLE
  5
F2
102
{ACAD_REACTORS
330
EF
102
}
330
EF
100
AcDbVisualStyle
  2
Gouraud
 70
     2
 71
     2
 72
     2
 73
     1
 90
        2
 40
-0.6
 41
30.0
 62
     5
 63
     7
 74
     0
 91
        4
 64
     7
 65
   257
 75
     1
175
     1
 42
1.0
 92
        0
 66
     7
 43
1.0
 76
     1
 77
     6
 78
     2
 67
     7
 79
     5
170
     0
171
     0
290
     0
174
     0
 93
        1
 44
0.0
173
     0
291
     1
 45
0.0
1001
ACAD
1000
AcDbSavedByObjectVersion
1070
     0
  0
VISUALSTYLE
  5
F3
102
{ACAD_REACTORS
330
EF
102
}
330
EF
100
AcDbVisualStyle
  2
GouraudWithEdges
 70
     3
 71
     2
 72
     2
 73
     1
 90
        2
 40
-0.6
 41
30.0
 62
     5
 63
     7
 74
     1
 91
        4
 64
     7
 65
   257
 75
     1
175
     1
 42
1.0
 92
        0
 66
   257
 43
1.0
 76
     1
 77
     6
 78
     2
 67
     7
 79
     5
170
     0
171
     0
290
     0
174
     0
 93
        1
 44
0.0
173
     0
291
     1
 45
0.0
1001
ACAD
1000
AcDbSavedByObjectVersion
1070
     0
  0
VISUALSTYLE
  5
FD
102
{ACAD_REACTORS
330
EF
102
}
330
EF
100
AcDbVisualStyle
  2
Linepattern
 70
    14
 71
     2
 72
     2
 73
     1
 90
        0
 40
-0.6
 41
-30.0
 62
     5
 63
     7
 74
     1
 91
        4
 64
     7
 65
   257
 75
     7
175
     7
 42
1.0
 92
        8
 66
     7
 43
1.0
 76
     1
 77
     6
 78
     2
 67
     7
 79
     5
170
     0
171
     0
290
     0
174
     0
 93
        1
 44
0.0
173
     0
291
     1
 45
0.0
1001
ACAD
1000
AcDbSavedByObjectVersion
1070
     0
  0
VISUALSTYLE
  5
F9
102
{ACAD_REACTORS
330
EF
102
}
330
EF
100
AcDbVisualStyle
  2
Realistic
 70
     8
 71
     2
 72
     2
 73
     1
 90
        0
 40
-0.6
 41
-30.0
 62
     5
 63
     7
 74
     1
 91
        0
 64
     7
 65
   257
 75
     1
175
     1
 42
1.0
 92
        8
 66
     8
 43
1.0
 76
     1
 77
     6
 78
     2
 67
     7
 79
     5
170
     0
171
     0
290
     0
174
     0
 93
       13
 44
0.0
173
     0
291
     0
 45
0.0
1001
ACAD
1000
AcDbSavedByObjectVersion
1070
     0
  0
VISUALSTYLE
  5
FC
102
{ACAD_REACTORS
330
EF
102
}
330
EF
100
AcDbVisualStyle
  2
Thicken
 70
    13
 71
     2
 72
     2
 73
     1
 90
        0
 40
-0.6
 41
-30.0
 62
     5
 63
     7
 74
     1
 91
        4
 64
     7
 65
   257
 75
     1
175
     1
 42
1.0
 92
       12
 66
     7
 43
1.0
 76
     1
 77
     6
 78
     2
 67
     7
 79
     5
170
     0
171
     0
290
     0
174
     0
 93
        1
 44
0.0
173
     0
291
     1
 45
0.0
1001
ACAD
1000
AcDbSavedByObjectVersion
1070
     0
  0
DICTIONARYVAR
  5
146
102
{ACAD_REACTORS
330
5E
102
}
330
5E
100
DictionaryVariables
280
     0
  1
1:1
  0
DICTIONARYVAR
  5
145
102
{ACAD_REACTORS
330
5E
102
}
330
5E
100
DictionaryVariables
280
     0
  1
STANDARD
  0
DICTIONARYVAR
  5
84
102
{ACAD_REACTORS
330
5E
102
}
330
5E
100
DictionaryVariables
280
     0
  1
STANDARD
  0
DICTIONARYVAR
  5
5F
102
{ACAD_REACTORS
330
5E
102
}
330
5E
100
DictionaryVariables
280
     0
  1
2
  0
DICTIONARYVAR
  5
63
102
{ACAD_REACTORS
330
5E
102
}
330
5E
100
DictionaryVariables
280
     0
  1
1
  0
DICTIONARYVAR
  5
15A2
102
{ACAD_REACTORS
330
5E
102
}
330
5E
100
DictionaryVariables
280
     0
  1
0
  0
DICTIONARYVAR
  5
15A0
102
{ACAD_REACTORS
330
5E
102
}
330
5E
100
DictionaryVariables
280
     0
  1
2
  0
DICTIONARYVAR
  5
159F
102
{ACAD_REACTORS
330
5E
102
}
330
5E
100
DictionaryVariables
280
     0
  1
1
  0
DICTIONARYVAR
  5
2AA0
102
{ACAD_REACTORS
330
5E
102
}
330
5E
100
DictionaryVariables
280
     0
  1
80.000000
  0
DICTIONARYVAR
  5
2A9F
102
{ACAD_REACTORS
330
5E
102
}
330
5E
100
DictionaryVariables
280
     0
  1
5.000000
  0
DICTIONARYVAR
  5
15A1
102
{ACAD_REACTORS
330
5E
102
}
330
5E
100
DictionaryVariables
280
     0
  1
127
  0
DICTIONARY
  5
2AA3
330
22
100
AcDbDictionary
280
     1
281
     1
  3
ACAD_XREC_ROUNDTRIP
360
2AA4
  0
DICTIONARY
  5
2AA6
330
D3
100
AcDbDictionary
280
     1
281
     1
  3
ACAD_XREC_ROUNDTRIP
360
2AA7
  0
DICTIONARY
  5
2AA8
330
D7
100
AcDbDictionary
280
     1
281
     1
  3
ACAD_XREC_ROUNDTRIP
360
2AA9
  0
DICTIONARY
  5
2AAC
330
ED
100
AcDbDictionary
280
     1
281
     1
  3
ACAD_XREC_ROUNDTRIP
360
2AAD
  0
DICTIONARY
  5
2AAA
330
EC
100
AcDbDictionary
280
     1
281
     1
  3
ACAD_XREC_ROUNDTRIP
360
2AAB
  0
DICTIONARY
  5
173
330
EE
100
AcDbDictionary
280
     1
281
     1
  3
ACAD_XREC_ROUNDTRIP
360
2AAE
  3
BUMPTILE
360
175
  3
DIFFUSETILE
360
174
  3
OPACITYTILE
360
176
  3
REFLECTIONTILE
360
177
  0
DICTIONARY
  5
162
330
7F
100
AcDbDictionary
280
     1
281
     1
  3
ACAD_ROUNDTRIP_2008_TABLESTYLE_CELLSTYLEMAP
360
2AA1
  3
ACAD_XREC_ROUNDTRIP
360
2AA5
  0
XRECORD
  5
2AA4
102
{ACAD_REACTORS
330
2AA3
102
}
330
2AA3
100
AcDbXrecord
280
     1
102
SHADEPLOT
 70
     0
102
SHADEPLOTRESLEVEL
 70
     2
102
SHADEPLOTCUSTOMDPI
 70
   300
  0
XRECORD
  5
2AA7
102
{ACAD_REACTORS
330
2AA6
102
}
330
2AA6
100
AcDbXrecord
280
     1
102
SHADEPLOT
 70
     0
102
SHADEPLOTRESLEVEL
 70
     2
102
SHADEPLOTCUSTOMDPI
 70
   300
  0
XRECORD
  5
2AA9
102
{ACAD_REACTORS
330
2AA8
102
}
330
2AA8
100
AcDbXrecord
280
     1
102
SHADEPLOT
 70
     0
102
SHADEPLOTRESLEVEL
 70
     2
102
SHADEPLOTCUSTOMDPI
 70
   300
  0
XRECORD
  5
2AAD
102
{ACAD_REACTORS
330
2AAC
102
}
330
2AAC
100
AcDbXrecord
280
     1
102
MATERIAL
148
0.0
149
0.0
149
0.0
 93
        0
 94
      127
282
     0
 72
     1
 77
     1
171
     1
175
     1
179
     1
273
     0
  0
XRECORD
  5
2AAB
102
{ACAD_REACTORS
330
2AAA
102
}
330
2AAA
100
AcDbXrecord
280
     1
102
MATERIAL
148
0.0
149
0.0
149
0.0
 93
        0
 94
      127
282
     0
 72
     1
 77
     1
171
     1
175
     1
179
     1
273
     0
  0
XRECORD
  5
2AAE
102
{ACAD_REACTORS
330
173
102
}
330
173
100
AcDbXrecord
280
     1
102
MATERIAL
148
0.0
149
0.0
149
0.0
 93
        0
 94
      127
282
     0
 72
     1
 77
     1
171
     1
175
     1
179
     1
273
     0
  0
XRECORD
  5
175
102
{ACAD_REACTORS
330
173
102
}
330
173
100
AcDbXrecord
280
     1
270
     1
271
     1
  0
XRECORD
  5
174
102
{ACAD_REACTORS
330
173
102
}
330
173
100
AcDbXrecord
280
     1
270
     1
271
     1
  0
XRECORD
  5
176
102
{ACAD_REACTORS
330
173
102
}
330
173
100
AcDbXrecord
280
     1
270
     1
271
     1
  0
XRECORD
  5
177
102
{ACAD_REACTORS
330
173
102
}
330
173
100
AcDbXrecord
280
     1
270
     1
271
     1
  0
CELLSTYLEMAP
  5
2AA1
102
{ACAD_REACTORS
330
162
102
}
330
162
100
AcDbCellStyleMap
 90
        3
300
CELLSTYLE
  1
TABLEFORMAT_BEGIN
 90
        5
170
     1
 91
        0
 92
    32768
 62
   257
 93
        1
300
CONTENTFORMAT
  1
CONTENTFORMAT_BEGIN
 90
        0
 91
        0
 92
      512
 93
        0
300

 40
0.0
140
1.0
 94
        5
 62
     0
340
11
144
6.0
309
CONTENTFORMAT_END
171
     1
301
MARGIN
  1
CELLMARGIN_BEGIN
 40
1.5
 40
1.5
 40
1.5
 40
1.5
 40
0.18
 40
0.18
309
CELLMARGIN_END
 94
        6
 95
        1
302
GRIDFORMAT
  1
GRIDFORMAT_BEGIN
 90
        0
 91
        1
 62
     0
 92
       -2
340
14
 93
        0
 40
1.125
309
GRIDFORMAT_END
 95
        2
302
GRIDFORMAT
  1
GRIDFORMAT_BEGIN
 90
        0
 91
        1
 62
     0
 92
       -2
340
14
 93
        0
 40
1.125
309
GRIDFORMAT_END
 95
        4
302
GRIDFORMAT
  1
GRIDFORMAT_BEGIN
 90
        0
 91
        1
 62
     0
 92
       -2
340
14
 93
        0
 40
1.125
309
GRIDFORMAT_END
 95
        8
302
GRIDFORMAT
  1
GRIDFORMAT_BEGIN
 90
        0
 91
        1
 62
     0
 92
       -2
340
14
 93
        0
 40
1.125
309
GRIDFORMAT_END
 95
       16
302
GRIDFORMAT
  1
GRIDFORMAT_BEGIN
 90
        0
 91
        1
 62
     0
 92
       -2
340
14
 93
        0
 40
1.125
309
GRIDFORMAT_END
 95
       32
302
GRIDFORMAT
  1
GRIDFORMAT_BEGIN
 90
        0
 91
        1
 62
     0
 92
       -2
340
14
 93
        0
 40
1.125
309
GRIDFORMAT_END
309
TABLEFORMAT_END
  1
CELLSTYLE_BEGIN
 90
        1
 91
        1
300
_TITLE
309
CELLSTYLE_END
300
CELLSTYLE
  1
TABLEFORMAT_BEGIN
 90
        5
170
     1
 91
        0
 92
        0
 62
   257
 93
        1
300
CONTENTFORMAT
  1
CONTENTFORMAT_BEGIN
 90
        0
 91
        0
 92
      512
 93
        0
300

 40
0.0
140
1.0
 94
        5
 62
     0
340
11
144
4.5
309
CONTENTFORMAT_END
171
     1
301
MARGIN
  1
CELLMARGIN_BEGIN
 40
1.5
 40
1.5
 40
1.5
 40
1.5
 40
0.18
 40
0.18
309
CELLMARGIN_END
 94
        6
 95
        1
302
GRIDFORMAT
  1
GRIDFORMAT_BEGIN
 90
        0
 91
        1
 62
     0
 92
       -2
340
14
 93
        0
 40
1.125
309
GRIDFORMAT_END
 95
        2
302
GRIDFORMAT
  1
GRIDFORMAT_BEGIN
 90
        0
 91
        1
 62
     0
 92
       -2
340
14
 93
        0
 40
1.125
309
GRIDFORMAT_END
 95
        4
302
GRIDFORMAT
  1
GRIDFORMAT_BEGIN
 90
        0
 91
        1
 62
     0
 92
       -2
340
14
 93
        0
 40
1.125
309
GRIDFORMAT_END
 95
        8
302
GRIDFORMAT
  1
GRIDFORMAT_BEGIN
 90
        0
 91
        1
 62
     0
 92
       -2
340
14
 93
        0
 40
1.125
309
GRIDFORMAT_END
 95
       16
302
GRIDFORMAT
  1
GRIDFORMAT_BEGIN
 90
        0
 91
        1
 62
     0
 92
       -2
340
14
 93
        0
 40
1.125
309
GRIDFORMAT_END
 95
       32
302
GRIDFORMAT
  1
GRIDFORMAT_BEGIN
 90
        0
 91
        1
 62
     0
 92
       -2
340
14
 93
        0
 40
1.125
309
GRIDFORMAT_END
309
TABLEFORMAT_END
  1
CELLSTYLE_BEGIN
 90
        2
 91
        1
300
_HEADER
309
CELLSTYLE_END
300
CELLSTYLE
  1
TABLEFORMAT_BEGIN
 90
        5
170
     1
 91
        0
 92
        0
 62
   257
 93
        1
300
CONTENTFORMAT
  1
CONTENTFORMAT_BEGIN
 90
        0
 91
        0
 92
      512
 93
        0
300

 40
0.0
140
1.0
 94
        2
 62
     0
340
11
144
4.5
309
CONTENTFORMAT_END
171
     1
301
MARGIN
  1
CELLMARGIN_BEGIN
 40
1.5
 40
1.5
 40
1.5
 40
1.5
 40
0.18
 40
0.18
309
CELLMARGIN_END
 94
        6
 95
        1
302
GRIDFORMAT
  1
GRIDFORMAT_BEGIN
 90
        0
 91
        1
 62
     0
 92
       -2
340
14
 93
        0
 40
1.125
309
GRIDFORMAT_END
 95
        2
302
GRIDFORMAT
  1
GRIDFORMAT_BEGIN
 90
        0
 91
        1
 62
     0
 92
       -2
340
14
 93
        0
 40
1.125
309
GRIDFORMAT_END
 95
        4
302
GRIDFORMAT
  1
GRIDFORMAT_BEGIN
 90
        0
 91
        1
 62
     0
 92
       -2
340
14
 93
        0
 40
1.125
309
GRIDFORMAT_END
 95
        8
302
GRIDFORMAT
  1
GRIDFORMAT_BEGIN
 90
        0
 91
        1
 62
     0
 92
       -2
340
14
 93
        0
 40
1.125
309
GRIDFORMAT_END
 95
       16
302
GRIDFORMAT
  1
GRIDFORMAT_BEGIN
 90
        0
 91
        1
 62
     0
 92
       -2
340
14
 93
        0
 40
1.125
309
GRIDFORMAT_END
 95
       32
302
GRIDFORMAT
  1
GRIDFORMAT_BEGIN
 90
        0
 91
        1
 62
     0
 92
       -2
340
14
 93
        0
 40
1.125
309
GRIDFORMAT_END
309
TABLEFORMAT_END
  1
CELLSTYLE_BEGIN
 90
        3
 91
        2
300
_DATA
309
CELLSTYLE_END
  0
XRECORD
  5
2AA5
102
{ACAD_REACTORS
330
162
102
}
330
162
100
AcDbXrecord
280
     1
102
ACAD_ROUNDTRIP_PRE2007_TABLESTYLE
 90
      512
 91
        0
  1

 92
      512
 93
        0
  2

 94
      512
 95
        0
  3

  0
ENDSEC
  0
EOF
