  0
SECTION
  2
HEADER
  9
$ACADVER
  1
AC1015
  9
$ACADMAINTVER
 70
    20
  9
$DWGCODEPAGE
  3
ANSI_932
  9
$INSBASE
 10
0.0
 20
0.0
 30
0.0
  9
$EXTMIN
 10
0.0000000000000462
 20
0.0000000000000391
 30
0.0
  9
$EXTMAX
 10
370.45
 20
523.4999999999993
 30
0.0
  9
$LIMMIN
 10
0.0
 20
0.0
  9
$LIMMAX
 10
420.0
 20
297.0
  9
$ORTHOMODE
 70
     0
  9
$REGENMODE
 70
     1
  9
$FILLMODE
 70
     1
  9
$QTEXTMODE
 70
     0
  9
$MIRRTEXT
 70
     0
  9
$LTSCALE
 40
1.0
  9
$ATTMODE
 70
     1
  9
$TEXTSIZE
 40
2.5
  9
$TRACEWID
 40
1.0
  9
$TEXTSTYLE
  7
Standard
  9
$CLAYER
  8
電気錠
  9
$CELTYPE
  6
ByLayer
  9
$CECOLOR
 62
   256
  9
$CELTSCALE
 40
1.0
  9
$DISPSILH
 70
     0
  9
$DIMSCALE
 40
1.0
  9
$DIMASZ
 40
2.5
  9
$DIMEXO
 40
0.625
  9
$DIMDLI
 40
3.75
  9
$DIMRND
 40
0.0
  9
$DIMDLE
 40
0.0
  9
$DIMEXE
 40
1.25
  9
$DIMTP
 40
0.0
  9
$DIMTM
 40
0.0
  9
$DIMTXT
 40
2.5
  9
$DIMCEN
 40
2.5
  9
$DIMTSZ
 40
0.0
  9
$DIMTOL
 70
     0
  9
$DIMLIM
 70
     0
  9
$DIMTIH
 70
     0
  9
$DIMTOH
 70
     0
  9
$DIMSE1
 70
     0
  9
$DIMSE2
 70
     0
  9
$DIMTAD
 70
     1
  9
$DIMZIN
 70
     8
  9
$DIMBLK
  1

  9
$DIMASO
 70
     1
  9
$DIMSHO
 70
     1
  9
$DIMPOST
  1

  9
$DIMAPOST
  1

  9
$DIMALT
 70
     0
  9
$DIMALTD
 70
     3
  9
$DIMALTF
 40
0.03937007874016
  9
$DIMLFAC
 40
1.0
  9
$DIMTOFL
 70
     1
  9
$DIMTVP
 40
0.0
  9
$DIMTIX
 70
     0
  9
$DIMSOXD
 70
     0
  9
$DIMSAH
 70
     0
  9
$DIMBLK1
  1

  9
$DIMBLK2
  1

  9
$DIMSTYLE
  2
ISO-25
  9
$DIMCLRD
 70
     0
  9
$DIMCLRE
 70
     0
  9
$DIMCLRT
 70
     0
  9
$DIMTFAC
 40
1.0
  9
$DIMGAP
 40
0.625
  9
$DIMJUST
 70
     0
  9
$DIMSD1
 70
     0
  9
$DIMSD2
 70
     0
  9
$DIMTOLJ
 70
     0
  9
$DIMTZIN
 70
     8
  9
$DIMALTZ
 70
     0
  9
$DIMALTTZ
 70
     0
  9
$DIMUPT
 70
     0
  9
$DIMDEC
 70
     2
  9
$DIMTDEC
 70
     2
  9
$DIMALTU
 70
     2
  9
$DIMALTTD
 70
     3
  9
$DIMTXSTY
  7
Standard
  9
$DIMAUNIT
 70
     0
  9
$DIMADEC
 70
     0
  9
$DIMALTRND
 40
0.0
  9
$DIMAZIN
 70
     0
  9
$DIMDSEP
 70
    44
  9
$DIMATFIT
 70
     3
  9
$DIMFRAC
 70
     0
  9
$DIMLDRBLK
  1

  9
$DIMLUNIT
 70
     2
  9
$DIMLWD
 70
    -2
  9
$DIMLWE
 70
    -2
  9
$DIMTMOVE
 70
     0
  9
$LUNITS
 70
     2
  9
$LUPREC
 70
     4
  9
$SKETCHINC
 40
1.0
  9
$FILLETRAD
 40
0.0
  9
$AUNITS
 70
     0
  9
$AUPREC
 70
     0
  9
$MENU
  1
.
  9
$ELEVATION
 40
0.0
  9
$PELEVATION
 40
0.0
  9
$THICKNESS
 40
0.0
  9
$LIMCHECK
 70
     0
  9
$CHAMFERA
 40
0.0
  9
$CHAMFERB
 40
0.0
  9
$CHAMFERC
 40
0.0
  9
$CHAMFERD
 40
0.0
  9
$SKPOLY
 70
     0
  9
$TDCREATE
 40
2455682.522393299
  9
$TDUCREATE
 40
2455682.147393299
  9
$TDUPDATE
 40
2456553.621107477
  9
$TDUUPDATE
 40
2456553.246107477
  9
$TDINDWG
 40
14.2696133218
  9
$TDUSRTIMER
 40
14.2696116898
  9
$USRTIMER
 70
     1
  9
$ANGBASE
 50
0.0
  9
$ANGDIR
 70
     0
  9
$PDMODE
 70
     0
  9
$PDSIZE
 40
0.0
  9
$PLINEWID
 40
0.0
  9
$SPLFRAME
 70
     0
  9
$SPLINETYPE
 70
     6
  9
$SPLINESEGS
 70
     8
  9
$HANDSEED
  5
2587
  9
$SURFTAB1
 70
     6
  9
$SURFTAB2
 70
     6
  9
$SURFTYPE
 70
     6
  9
$SURFU
 70
     6
  9
$SURFV
 70
     6
  9
$UCSBASE
  2

  9
$UCSNAME
  2

  9
$UCSORG
 10
0.0
 20
0.0
 30
0.0
  9
$UCSXDIR
 10
1.0
 20
0.0
 30
0.0
  9
$UCSYDIR
 10
0.0
 20
1.0
 30
0.0
  9
$UCSORTHOREF
  2

  9
$UCSORTHOVIEW
 70
     0
  9
$UCSORGTOP
 10
0.0
 20
0.0
 30
0.0
  9
$UCSORGBOTTOM
 10
0.0
 20
0.0
 30
0.0
  9
$UCSORGLEFT
 10
0.0
 20
0.0
 30
0.0
  9
$UCSORGRIGHT
 10
0.0
 20
0.0
 30
0.0
  9
$UCSORGFRONT
 10
0.0
 20
0.0
 30
0.0
  9
$UCSORGBACK
 10
0.0
 20
0.0
 30
0.0
  9
$PUCSBASE
  2

  9
$PUCSNAME
  2

  9
$PUCSORG
 10
0.0
 20
0.0
 30
0.0
  9
$PUCSXDIR
 10
1.0
 20
0.0
 30
0.0
  9
$PUCSYDIR
 10
0.0
 20
1.0
 30
0.0
  9
$PUCSORTHOREF
  2

  9
$PUCSORTHOVIEW
 70
     0
  9
$PUCSORGTOP
 10
0.0
 20
0.0
 30
0.0
  9
$PUCSORGBOTTOM
 10
0.0
 20
0.0
 30
0.0
  9
$PUCSORGLEFT
 10
0.0
 20
0.0
 30
0.0
  9
$PUCSORGRIGHT
 10
0.0
 20
0.0
 30
0.0
  9
$PUCSORGFRONT
 10
0.0
 20
0.0
 30
0.0
  9
$PUCSORGBACK
 10
0.0
 20
0.0
 30
0.0
  9
$USERI1
 70
     0
  9
$USERI2
 70
     0
  9
$USERI3
 70
     0
  9
$USERI4
 70
     0
  9
$USERI5
 70
     0
  9
$USERR1
 40
0.0
  9
$USERR2
 40
0.0
  9
$USERR3
 40
0.0
  9
$USERR4
 40
0.0
  9
$USERR5
 40
0.0
  9
$WORLDVIEW
 70
     1
  9
$SHADEDGE
 70
     3
  9
$SHADEDIF
 70
    70
  9
$TILEMODE
 70
     1
  9
$MAXACTVP
 70
    64
  9
$PINSBASE
 10
0.0
 20
0.0
 30
0.0
  9
$PLIMCHECK
 70
     0
  9
$PEXTMIN
 10
0.0
 20
0.0
 30
0.0
  9
$PEXTMAX
 10
0.0
 20
0.0
 30
0.0
  9
$PLIMMIN
 10
0.0
 20
0.0
  9
$PLIMMAX
 10
12.0
 20
9.0
  9
$UNITMODE
 70
     0
  9
$VISRETAIN
 70
     1
  9
$PLINEGEN
 70
     0
  9
$PSLTSCALE
 70
     1
  9
$TREEDEPTH
 70
  3020
  9
$CMLSTYLE
  2
Standard
  9
$CMLJUST
 70
     0
  9
$CMLSCALE
 40
20.0
  9
$PROXYGRAPHICS
 70
     1
  9
$MEASUREMENT
 70
     1
  9
$CELWEIGHT
370
    -1
  9
$ENDCAPS
280
     0
  9
$JOINSTYLE
280
     0
  9
$LWDISPLAY
290
     0
  9
$INSUNITS
 70
     4
  9
$HYPERLINKBASE
  1

  9
$STYLESHEET
  1

  9
$XEDIT
290
     1
  9
$CEPSNTYPE
380
     0
  9
$PSTYLEMODE
290
     1
  9
$FINGERPRINTGUID
  2
{88137889-E097-4682-8C02-ED7EC889CCF7}
  9
$VERSIONGUID
  2
{848C982B-C5BA-4C41-8966-FEA443FC3C06}
  9
$EXTNAMES
290
     1
  9
$PSVPSCALE
 40
0.0
  9
$OLESTARTUP
290
     0
  0
ENDSEC
  0
SECTION
  2
CLASSES
  0
CLASS
  1
ACDBDICTIONARYWDFLT
  2
AcDbDictionaryWithDefault
  3
ObjectDBX Classes
 90
        0
280
     0
281
     0
  0
CLASS
  1
ACDBPLACEHOLDER
  2
AcDbPlaceHolder
  3
ObjectDBX Classes
 90
        0
280
     0
281
     0
  0
CLASS
  1
LAYOUT
  2
AcDbLayout
  3
ObjectDBX Classes
 90
        0
280
     0
281
     0
  0
CLASS
  1
DICTIONARYVAR
  2
AcDbDictionaryVar
  3
ObjectDBX Classes
 90
        0
280
     0
281
     0
  0
CLASS
  1
TABLESTYLE
  2
AcDbTableStyle
  3
ObjectDBX Classes
 90
     4095
280
     0
281
     0
  0
CLASS
  1
MATERIAL
  2
AcDbMaterial
  3
ObjectDBX Classes
 90
     1153
280
     0
281
     0
  0
CLASS
  1
VISUALSTYLE
  2
AcDbVisualStyle
  3
ObjectDBX Classes
 90
     4095
280
     0
281
     0
  0
CLASS
  1
SCALE
  2
AcDbScale
  3
ObjectDBX Classes
 90
     1153
280
     0
281
     0
  0
CLASS
  1
MLEADERSTYLE
  2
AcDbMLeaderStyle
  3
ACDB_MLEADERSTYLE_CLASS
 90
     4095
280
     0
281
     0
  0
CLASS
  1
CELLSTYLEMAP
  2
AcDbCellStyleMap
  3
ObjectDBX Classes
 90
     1152
280
     0
281
     0
  0
CLASS
  1
SORTENTSTABLE
  2
AcDbSortentsTable
  3
ObjectDBX Classes
 90
        0
280
     0
281
     0
  0
CLASS
  1
DIMASSOC
  2
AcDbDimAssoc
  3
"AcDbDimAssoc|Product Desc:     AcDim ARX App For Dimension|Company:          Autodesk, Inc.|WEB Address:      www.autodesk.com"
 90
        0
280
     0
281
     0
  0
ENDSEC
  0
SECTION
  2
TABLES
  0
TABLE
  2
VPORT
  5
8
102
{ACAD_XDICTIONARY
360
17DD
102
}
330
0
100
AcDbSymbolTable
 70
     1
  0
VPORT
  5
1CAC
330
8
100
AcDbSymbolTableRecord
100
AcDbViewportTableRecord
  2
*Active
 70
     0
 10
0.0
 20
0.0
 11
1.0
 21
1.0
 12
881.2898635091574
 22
261.7500036568282
 13
0.0
 23
0.0
 14
10.0
 24
10.0
 15
10.0
 25
10.0
 16
0.0
 26
0.0
 36
1.0
 17
0.0
 27
0.0
 37
0.0
 40
527.5968185708921
 41
3.098290598290598
 42
50.0
 43
0.0
 44
0.0
 50
0.0
 51
0.0
 71
     0
 72
  1000
 73
     1
 74
     3
 75
     0
 76
     0
 77
     0
 78
     0
281
     0
 65
     1
110
0.0
120
0.0
130
0.0
111
1.0
121
0.0
131
0.0
112
0.0
122
1.0
132
0.0
 79
     0
146
0.0
  0
ENDTAB
  0
TABLE
  2
LTYPE
  5
5
330
0
100
AcDbSymbolTable
 70
     3
  0
LTYPE
  5
14
330
5
100
AcDbSymbolTableRecord
100
AcDbLinetypeTableRecord
  2
ByBlock
 70
     0
  3

 72
    65
 73
     0
 40
0.0
  0
LTYPE
  5
15
330
5
100
AcDbSymbolTableRecord
100
AcDbLinetypeTableRecord
  2
ByLayer
 70
     0
  3

 72
    65
 73
     0
 40
0.0
  0
LTYPE
  5
16
330
5
100
AcDbSymbolTableRecord
100
AcDbLinetypeTableRecord
  2
Continuous
 70
     0
  3
Solid line
 72
    65
 73
     0
 40
0.0
  0
LTYPE
  5
324
330
5
100
AcDbSymbolTableRecord
100
AcDbLinetypeTableRecord
  2
DASHED
 70
     0
  3
__ __ __ __ __ __ __ __ __ __ __ __ __ __ __
 72
    65
 73
     2
 40
0.75
 49
0.5
 74
     0
 49
-0.25
 74
     0
  0
LTYPE
  5
325
330
5
100
AcDbSymbolTableRecord
100
AcDbLinetypeTableRecord
  2
BORDER
 70
     0
  3
__ __ . __ __ . __ __ . __ __ . __ __ . __ __
 72
    65
 73
     6
 40
1.75
 49
0.5
 74
     0
 49
-0.25
 74
     0
 49
0.5
 74
     0
 49
-0.25
 74
     0
 49
0.0
 74
     0
 49
-0.25
 74
     0
  0
ENDTAB
  0
TABLE
  2
LAYER
  5
2
102
{ACAD_XDICTIONARY
360
1887
102
}
330
0
100
AcDbSymbolTable
 70
     5
  0
LAYER
  5
10
102
{ACAD_XDICTIONARY
360
13C
102
}
330
2
100
AcDbSymbolTableRecord
100
AcDbLayerTableRecord
  2
0
 70
     0
 62
     7
  6
Continuous
370
    -3
390
F
  0
LAYER
  5
326
330
2
100
AcDbSymbolTableRecord
100
AcDbLayerTableRecord
  2
DEFPOINTS
 70
     0
 62
     7
  6
Continuous
290
     0
370
    -3
390
F
  0
LAYER
  5
327
102
{ACAD_XDICTIONARY
360
1580
102
}
330
2
100
AcDbSymbolTableRecord
100
AcDbLayerTableRecord
  2
電気錠
 70
     0
 62
     7
  6
Continuous
370
    -3
390
F
  0
LAYER
  5
328
102
{ACAD_XDICTIONARY
360
1582
102
}
330
2
100
AcDbSymbolTableRecord
100
AcDbLayerTableRecord
  2
寸法線
 70
     0
 62
     7
  6
Continuous
370
    -3
390
F
  0
LAYER
  5
1B55
330
2
100
AcDbSymbolTableRecord
100
AcDbLayerTableRecord
  2
補足
 70
     0
 62
     7
  6
Continuous
370
    -3
390
F
1001
AcAecLayerStandard
1000

1000

  0
ENDTAB
  0
TABLE
  2
STYLE
  5
3
330
0
100
AcDbSymbolTable
 70
     3
  0
STYLE
  5
11
330
3
100
AcDbSymbolTableRecord
100
AcDbTextStyleTableRecord
  2
Standard
 70
     0
 40
0.0
 41
1.0
 50
0.0
 71
     0
 42
2.5
  3
txt
  4
extfont2.shx
  0
STYLE
  5
132
330
3
100
AcDbSymbolTableRecord
100
AcDbTextStyleTableRecord
  2
Annotative
 70
     0
 40
0.0
 41
1.0
 50
0.0
 71
     0
 42
2.5
  3
txt.shx
  4
extfont2.shx
1001
AcadAnnotative
1000
AnnotativeData
1002
{
1070
     1
1070
     1
1002
}
  0
STYLE
  5
329
330
3
100
AcDbSymbolTableRecord
100
AcDbTextStyleTableRecord
  2
BIGFONT
 70
     0
 40
0.0
 41
1.0
 50
0.0
 71
     0
 42
0.2
  3
MS PMincho.ttf
  4

1001
ACAD
1000
MS PMincho
1071
    32786
  0
ENDTAB
  0
TABLE
  2
VIEW
  5
6
330
0
100
AcDbSymbolTable
 70
     0
  0
ENDTAB
  0
TABLE
  2
UCS
  5
7
330
0
100
AcDbSymbolTable
 70
     0
  0
ENDTAB
  0
TABLE
  2
APPID
  5
9
330
0
100
AcDbSymbolTable
 70
    10
  0
APPID
  5
12
330
9
100
AcDbSymbolTableRecord
100
AcDbRegAppTableRecord
  2
ACAD
 70
     0
  0
APPID
  5
9E
330
9
100
AcDbSymbolTableRecord
100
AcDbRegAppTableRecord
  2
ACAD_PSEXT
 70
     0
  0
APPID
  5
133
330
9
100
AcDbSymbolTableRecord
100
AcDbRegAppTableRecord
  2
AcadAnnoPO
 70
     0
  0
APPID
  5
134
330
9
100
AcDbSymbolTableRecord
100
AcDbRegAppTableRecord
  2
AcadAnnotative
 70
     0
  0
APPID
  5
135
330
9
100
AcDbSymbolTableRecord
100
AcDbRegAppTableRecord
  2
ACAD_DSTYLE_DIMJAG
 70
     0
  0
APPID
  5
136
330
9
100
AcDbSymbolTableRecord
100
AcDbRegAppTableRecord
  2
ACAD_DSTYLE_DIMTALN
 70
     0
  0
APPID
  5
165
330
9
100
AcDbSymbolTableRecord
100
AcDbRegAppTableRecord
  2
ACAD_MLEADERVER
 70
     0
  0
APPID
  5
32B
330
9
100
AcDbSymbolTableRecord
100
AcDbRegAppTableRecord
  2
ACAD_DSTYLE_DIMRADIAL_EXTENSION
 70
     0
  0
APPID
  5
923
330
9
100
AcDbSymbolTableRecord
100
AcDbRegAppTableRecord
  2
ACAD_EXEMPT_FROM_CAD_STANDARDS
 70
     0
  0
APPID
  5
1B56
330
9
100
AcDbSymbolTableRecord
100
AcDbRegAppTableRecord
  2
AcAecLayerStandard
 70
     0
  0
ENDTAB
  0
TABLE
  2
DIMSTYLE
  5
A
330
0
100
AcDbSymbolTable
 70
     3
100
AcDbDimStyleTable
 71
     2
340
27
340
137
  0
DIMSTYLE
105
27
102
{ACAD_REACTORS
330
7F0
330
93B
330
992
330
AF5
330
B0D
330
B25
330
B58
330
BA4
330
BBC
330
CB6
330
11E4
330
1200
330
1218
330
123D
330
1265
330
127D
330
19FA
330
19FB
330
19FC
330
1AC6
330
1B20
330
1BB1
330
1F1B
330
1F1E
330
1F21
330
1F24
330
1F27
330
1F2A
330
2160
330
21D2
330
2250
330
1E34
330
1E37
330
1E3A
330
1E3D
330
1E40
330
1E43
330
2321
330
236E
102
}
330
A
100
AcDbSymbolTableRecord
100
AcDbDimStyleTableRecord
  2
ISO-25
 70
     0
 41
2.5
 42
0.625
 43
3.75
 44
1.25
 73
     0
 74
     0
 77
     1
 78
     8
140
2.5
141
2.5
143
0.03937007874016
147
0.625
171
     3
172
     1
271
     2
272
     2
274
     3
278
    44
283
     0
284
     8
340
11
  0
DIMSTYLE
105
137
330
A
100
AcDbSymbolTableRecord
100
AcDbDimStyleTableRecord
  2
Annotative
 70
     0
 40
0.0
 41
2.5
 42
0.625
 43
3.75
 44
1.25
 73
     0
 74
     0
 77
     1
 78
     8
140
2.5
141
2.5
143
0.03937007874016
147
0.625
171
     3
172
     1
271
     2
272
     2
274
     3
278
    44
283
     0
284
     8
340
11
1001
AcadAnnotative
1000
AnnotativeData
1002
{
1070
     1
1070
     1
1002
}
1001
ACAD_DSTYLE_DIMJAG
1070
   388
1040
1.5
1001
ACAD_DSTYLE_DIMTALN
1070
   392
1070
     0
  0
DIMSTYLE
105
32A
330
A
100
AcDbSymbolTableRecord
100
AcDbDimStyleTableRecord
  2
STANDARD
 70
     0
 41
3.0
 44
1.0
 73
     0
 74
     0
 77
     1
140
3.5
147
1.0
172
     1
279
     2
340
329
  0
ENDTAB
  0
TABLE
  2
BLOCK_RECORD
  5
1
330
0
100
AcDbSymbolTable
 70
    48
  0
BLOCK_RECORD
  5
1F
102
{ACAD_XDICTIONARY
360
8F5
102
}
330
1
100
AcDbSymbolTableRecord
100
AcDbBlockTableRecord
  2
*Model_Space
340
22
  0
BLOCK_RECORD
  5
D2
330
1
100
AcDbSymbolTableRecord
100
AcDbBlockTableRecord
  2
*Paper_Space
340
D3
  0
BLOCK_RECORD
  5
D6
330
1
100
AcDbSymbolTableRecord
100
AcDbBlockTableRecord
  2
*Paper_Space0
340
D7
  0
BLOCK_RECORD
  5
1B1
330
1
100
AcDbSymbolTableRecord
100
AcDbBlockTableRecord
  2
waku
340
0
310
2800000020000000200000000100080000000000000400000000000000000000000000000000000000000000000080000080000000808000800000008000800080800000C0C0C000C0DCC000F0CAA6000020400000206000002080000020A0000020C0000020E00000400000004020000040400000406000004080000040A0
310
000040C0000040E00000600000006020000060400000606000006080000060A0000060C0000060E00000800000008020000080400000806000008080000080A0000080C0000080E00000A0000000A0200000A0400000A0600000A0800000A0A00000A0C00000A0E00000C0000000C0200000C0400000C0600000C0800000C0
310
A00000C0C00000C0E00000E0000000E0200000E0400000E0600000E0800000E0A00000E0C00000E0E00040000000400020004000400040006000400080004000A0004000C0004000E00040200000402020004020400040206000402080004020A0004020C0004020E000404000004040200040404000404060004040800040
310
40A0004040C0004040E00040600000406020004060400040606000406080004060A0004060C0004060E00040800000408020004080400040806000408080004080A0004080C0004080E00040A0000040A0200040A0400040A0600040A0800040A0A00040A0C00040A0E00040C0000040C0200040C0400040C0600040C08000
310
40C0A00040C0C00040C0E00040E0000040E0200040E0400040E0600040E0800040E0A00040E0C00040E0E00080000000800020008000400080006000800080008000A0008000C0008000E00080200000802020008020400080206000802080008020A0008020C0008020E00080400000804020008040400080406000804080
310
008040A0008040C0008040E00080600000806020008060400080606000806080008060A0008060C0008060E00080800000808020008080400080806000808080008080A0008080C0008080E00080A0000080A0200080A0400080A0600080A0800080A0A00080A0C00080A0E00080C0000080C0200080C0400080C0600080C0
310
800080C0A00080C0C00080C0E00080E0000080E0200080E0400080E0600080E0800080E0A00080E0C00080E0E000C0000000C0002000C0004000C0006000C0008000C000A000C000C000C000E000C0200000C0202000C0204000C0206000C0208000C020A000C020C000C020E000C0400000C0402000C0404000C0406000C0
310
408000C040A000C040C000C040E000C0600000C0602000C0604000C0606000C0608000C060A000C060C000C060E000C0800000C0802000C0804000C0806000C0808000C080A000C080C000C080E000C0A00000C0A02000C0A04000C0A06000C0A08000C0A0A000C0A0C000C0A0E000C0C00000C0C02000C0C04000C0C06000
310
C0C08000C0C0A000F0FBFF00A4A0A000808080000000FF0000FF000000FFFF00FF000000FF00FF00FFFF0000FFFFFF00FFFFFFFFFFFFFFFFFFFFFFFFFFFFFFFFFFFFFFFFFFFFFFFFFFFFFFFFFFFFFFFFFFFFFFFFFFFF0000000000000000000000000000000000000000FFFFFFFFFFFFFFFFFFFFFFFF00FFFFFFFFFFFFFFFF
310
FFFFFFFFFFFFFFFFFFFF00FFFFFFFFFFFFFFFFFFFFFFFF00FFFFFFFFFFFFFFFFFFFFFFFFFFFFFFFFFFFF00FFFFFFFFFFFFFFFFFFFFFFFF00FFFFFFFFFFFFFFFFFFFFFFFFFFFFFFFFFFFF00FFFFFFFFFFFFFFFFFFFFFFFF00FFFFFFFFFFFFFFFFFFFFFFFFFFFFFFFFFFFF00FFFFFFFFFFFFFFFFFFFFFFFF00FFFFFFFFFFFFFF
310
FFFFFFFFFFFFFFFFFFFFFF00FFFFFFFFFFFFFFFFFFFFFFFF00FFFFFFFFFFFFFFFFFFFFFFFFFFFFFFFFFFFF00FFFFFFFFFFFFFFFFFFFFFFFF00FFFFFFFFFFFFFFFFFFFFFFFFFFFFFFFFFFFF00FFFFFFFFFFFFFFFFFFFFFFFF00FFFFFFFFFFFFFFFFFFFFFFFFFFFFFFFFFFFF00FFFFFFFFFFFFFFFFFFFFFFFF00FFFFFFFFFFFF
310
FFFFFFFFFFFFFFFFFFFFFFFF00FFFFFFFFFFFFFFFFFFFFFFFF00FFFFFFFFFFFFFFFFFFFFFFFFFFFFFFFFFFFF00FFFFFFFFFFFFFFFFFFFFFFFF00FFFFFFFFFFFFFFFFFFFFFFFFFFFFFFFFFFFF00FFFFFFFFFFFFFFFFFFFFFFFF00FFFFFFFFFFFFFFFFFFFFFFFFFFFFFFFFFFFF00FFFFFFFFFFFFFFFFFFFFFFFF00FFFFFFFFFF
310
FFFFFFFFFFFFFFFFFFFFFFFFFF00FFFFFFFFFFFFFFFFFFFFFFFF00FFFFFFFFFFFFFFFFFFFFFFFFFFFFFFFFFFFF00FFFFFFFFFFFFFFFFFFFFFFFF00FFFFFFFFFFFFFFFFFFFFFFFFFFFFFFFFFFFF00FFFFFFFFFFFFFFFFFFFFFFFF00FFFFFFFFFFFFFFFFFFFFFFFFFFFFFFFFFFFF00FFFFFFFFFFFFFFFFFFFFFFFF00FFFFFFFF
310
FFFFFFFFFFFFFFFFFFFFFFFFFFFF00FFFFFFFFFFFFFFFFFFFFFFFF00FFFFFFFFFFFFFFFFFFFFFFFFFFFFFFFFFFFF00FFFFFFFFFFFFFFFFFFFFFFFF00FFFFFFFFFFFFFFFFFFFFFFFFFFFFFFFFFFFF00FFFFFFFFFFFFFFFFFFFFFFFF00FFFFFFFFFFFFFFFFFFFFFFFFFFFFFFFFFFFF00FFFFFFFFFFFFFFFFFFFFFFFF00FFFFFF
310
FFFFFFFFFFFFFFFFFFFFFFFFFFFFFF00FFFFFFFFFFFFFFFFFFFFFFFF00FFFFFFFFFFFFFFFFFFFFFFFFFFFFFFFFFFFF00FFFFFFFFFFFFFFFFFFFFFFFF00FFFFFFFFFFFFFFFFFFFFFFFFFFFFFFFFFFFF00FFFFFFFFFFFFFFFFFFFFFFFF00FFFFFFFFFFFFFFFFFFFFFFFFFFFFFFFFFFFF00FFFFFFFFFFFFFFFFFFFFFFFF00FFFF
310
FFFFFFFFFFFFFFFFFFFFFFFFFFFFFFFF00FFFFFFFFFFFFFFFFFFFFFFFF00FFFFFFFFFFFFFFFFFFFFFFFFFFFFFFFFFFFF00FFFFFFFFFFFFFFFFFFFFFFFF00FFFFFFFFFFFFFFFFFFFFFFFFFFFFFFFFFFFF00FFFFFFFFFFFFFFFFFFFFFFFF00FFFFFFFFFFFFFFFFFFFFFFFFFFFFFFFFFFFF00FFFFFFFFFFFFFFFFFFFFFFFF0000
310
000000000000000000000000000000000000FFFFFFFFFFFFFFFFFFFFFFFFFFFFFFFFFFFFFFFFFFFFFFFFFFFFFFFFFFFFFFFFFFFFFFFFFFFF
  0
BLOCK_RECORD
  5
2BA
330
1
100
AcDbSymbolTableRecord
100
AcDbBlockTableRecord
  2
*U2
340
0
102
{BLKREFS
331
567
102
}
  0
BLOCK_RECORD
  5
2C1
330
1
100
AcDbSymbolTableRecord
100
AcDbBlockTableRecord
  2
*U3
340
0
102
{BLKREFS
331
58B
102
}
  0
BLOCK_RECORD
  5
2C8
330
1
100
AcDbSymbolTableRecord
100
AcDbBlockTableRecord
  2
*U4
340
0
102
{BLKREFS
331
5C5
102
}
  0
BLOCK_RECORD
  5
2DB
330
1
100
AcDbSymbolTableRecord
100
AcDbBlockTableRecord
  2
*U5
340
0
102
{BLKREFS
331
2EA
102
}
  0
BLOCK_RECORD
  5
2E5
330
1
100
AcDbSymbolTableRecord
100
AcDbBlockTableRecord
  2
*U6
340
0
102
{BLKREFS
331
5CA
102
}
  0
BLOCK_RECORD
  5
7F1
330
1
100
AcDbSymbolTableRecord
100
AcDbBlockTableRecord
  2
*D7
340
0
  0
BLOCK_RECORD
  5
93C
330
1
100
AcDbSymbolTableRecord
100
AcDbBlockTableRecord
  2
*D8
340
0
  0
BLOCK_RECORD
  5
993
330
1
100
AcDbSymbolTableRecord
100
AcDbBlockTableRecord
  2
*D9
340
0
  0
BLOCK_RECORD
  5
AF6
330
1
100
AcDbSymbolTableRecord
100
AcDbBlockTableRecord
  2
*D10
340
0
  0
BLOCK_RECORD
  5
B0E
330
1
100
AcDbSymbolTableRecord
100
AcDbBlockTableRecord
  2
*D11
340
0
  0
BLOCK_RECORD
  5
B26
330
1
100
AcDbSymbolTableRecord
100
AcDbBlockTableRecord
  2
*D12
340
0
  0
BLOCK_RECORD
  5
B59
330
1
100
AcDbSymbolTableRecord
100
AcDbBlockTableRecord
  2
*D13
340
0
  0
BLOCK_RECORD
  5
BA5
330
1
100
AcDbSymbolTableRecord
100
AcDbBlockTableRecord
  2
*D14
340
0
  0
BLOCK_RECORD
  5
BBD
330
1
100
AcDbSymbolTableRecord
100
AcDbBlockTableRecord
  2
*D15
340
0
  0
BLOCK_RECORD
  5
CB7
330
1
100
AcDbSymbolTableRecord
100
AcDbBlockTableRecord
  2
*D16
340
0
  0
BLOCK_RECORD
  5
11E5
330
1
100
AcDbSymbolTableRecord
100
AcDbBlockTableRecord
  2
*D17
340
0
  0
BLOCK_RECORD
  5
1201
330
1
100
AcDbSymbolTableRecord
100
AcDbBlockTableRecord
  2
*D18
340
0
  0
BLOCK_RECORD
  5
1219
330
1
100
AcDbSymbolTableRecord
100
AcDbBlockTableRecord
  2
*D19
340
0
  0
BLOCK_RECORD
  5
123E
330
1
100
AcDbSymbolTableRecord
100
AcDbBlockTableRecord
  2
*D20
340
0
  0
BLOCK_RECORD
  5
1266
330
1
100
AcDbSymbolTableRecord
100
AcDbBlockTableRecord
  2
*D21
340
0
  0
BLOCK_RECORD
  5
127E
330
1
100
AcDbSymbolTableRecord
100
AcDbBlockTableRecord
  2
*D22
340
0
  0
BLOCK_RECORD
  5
19FD
330
1
100
AcDbSymbolTableRecord
100
AcDbBlockTableRecord
  2
*D23
340
0
  0
BLOCK_RECORD
  5
1A09
330
1
100
AcDbSymbolTableRecord
100
AcDbBlockTableRecord
  2
*D24
340
0
  0
BLOCK_RECORD
  5
1A15
330
1
100
AcDbSymbolTableRecord
100
AcDbBlockTableRecord
  2
*D25
340
0
  0
BLOCK_RECORD
  5
1AC7
330
1
100
AcDbSymbolTableRecord
100
AcDbBlockTableRecord
  2
*D26
340
0
  0
BLOCK_RECORD
  5
1B21
330
1
100
AcDbSymbolTableRecord
100
AcDbBlockTableRecord
  2
*D27
340
0
  0
BLOCK_RECORD
  5
1BB2
330
1
100
AcDbSymbolTableRecord
100
AcDbBlockTableRecord
  2
*D28
340
0
  0
BLOCK_RECORD
  5
1DD9
330
1
100
AcDbSymbolTableRecord
100
AcDbBlockTableRecord
  2
*D29
340
0
  0
BLOCK_RECORD
  5
1DE5
330
1
100
AcDbSymbolTableRecord
100
AcDbBlockTableRecord
  2
*D30
340
0
  0
BLOCK_RECORD
  5
1DF3
330
1
100
AcDbSymbolTableRecord
100
AcDbBlockTableRecord
  2
*D31
340
0
  0
BLOCK_RECORD
  5
1E00
330
1
100
AcDbSymbolTableRecord
100
AcDbBlockTableRecord
  2
*D32
340
0
  0
BLOCK_RECORD
  5
1E0C
330
1
100
AcDbSymbolTableRecord
100
AcDbBlockTableRecord
  2
*D33
340
0
  0
BLOCK_RECORD
  5
1E18
330
1
100
AcDbSymbolTableRecord
100
AcDbBlockTableRecord
  2
*D34
340
0
  0
BLOCK_RECORD
  5
1E24
102
{ACAD_XDICTIONARY
360
1E45
102
}
330
1
100
AcDbSymbolTableRecord
100
AcDbBlockTableRecord
  2
A$C334379C2
340
0
1001
ACAD
1000
DesignCenter Data
1002
{
1070
     1
1070
     4
1002
}
  0
BLOCK_RECORD
  5
1F2C
330
1
100
AcDbSymbolTableRecord
100
AcDbBlockTableRecord
  2
*D36
340
0
  0
BLOCK_RECORD
  5
1F38
330
1
100
AcDbSymbolTableRecord
100
AcDbBlockTableRecord
  2
*D37
340
0
  0
BLOCK_RECORD
  5
1F44
330
1
100
AcDbSymbolTableRecord
100
AcDbBlockTableRecord
  2
*D38
340
0
  0
BLOCK_RECORD
  5
1F52
330
1
100
AcDbSymbolTableRecord
100
AcDbBlockTableRecord
  2
*D39
340
0
  0
BLOCK_RECORD
  5
1F5F
330
1
100
AcDbSymbolTableRecord
100
AcDbBlockTableRecord
  2
*D40
340
0
  0
BLOCK_RECORD
  5
1F6B
330
1
100
AcDbSymbolTableRecord
100
AcDbBlockTableRecord
  2
*D41
340
0
  0
BLOCK_RECORD
  5
2161
330
1
100
AcDbSymbolTableRecord
100
AcDbBlockTableRecord
  2
*D42
340
0
  0
BLOCK_RECORD
  5
21D3
330
1
100
AcDbSymbolTableRecord
100
AcDbBlockTableRecord
  2
*D43
340
0
  0
BLOCK_RECORD
  5
2238
102
{ACAD_XDICTIONARY
360
223A
102
}
330
1
100
AcDbSymbolTableRecord
100
AcDbBlockTableRecord
  2
A$C4F37032B
340
0
1001
ACAD
1000
DesignCenter Data
1002
{
1070
     1
1070
     4
1002
}
  0
BLOCK_RECORD
  5
2251
330
1
100
AcDbSymbolTableRecord
100
AcDbBlockTableRecord
  2
*D45
340
0
  0
BLOCK_RECORD
  5
2322
330
1
100
AcDbSymbolTableRecord
100
AcDbBlockTableRecord
  2
*D46
340
0
  0
BLOCK_RECORD
  5
236F
330
1
100
AcDbSymbolTableRecord
100
AcDbBlockTableRecord
  2
*D47
340
0
  0
ENDTAB
  0
ENDSEC
  0
SECTION
  2
BLOCKS
  0
BLOCK
  5
20
330
1F
100
AcDbEntity
  8
0
100
AcDbBlockBegin
  2
*Model_Space
 70
     0
 10
0.0
 20
0.0
 30
0.0
  3
*Model_Space
  1

  0
ENDBLK
  5
21
330
1F
100
AcDbEntity
  8
0
100
AcDbBlockEnd
  0
BLOCK
  5
D4
330
D2
100
AcDbEntity
 67
     1
  8
0
100
AcDbBlockBegin
  2
*Paper_Space
 70
     0
 10
0.0
 20
0.0
 30
0.0
  3
*Paper_Space
  1

  0
ENDBLK
  5
D5
330
D2
100
AcDbEntity
 67
     1
  8
0
100
AcDbBlockEnd
  0
BLOCK
  5
D8
330
D6
100
AcDbEntity
 67
     1
  8
0
100
AcDbBlockBegin
  2
*Paper_Space0
 70
     0
 10
0.0
 20
0.0
 30
0.0
  3
*Paper_Space0
  1

  0
ENDBLK
  5
D9
330
D6
100
AcDbEntity
 67
     1
  8
0
100
AcDbBlockEnd
  0
BLOCK
  5
1B2
330
1B1
100
AcDbEntity
  8
0
100
AcDbBlockBegin
  2
waku
 70
     0
 10
0.0
 20
0.0
 30
0.0
  3
waku
  1

  0
LINE
  5
1B3
330
1B1
100
AcDbEntity
  8
0
100
AcDbLine
 10
4.15
 20
8.274999999999996
 30
0.0
 11
189.375
 21
8.274999999999996
 31
0.0
  0
LINE
  5
1B4
330
1B1
100
AcDbEntity
  8
0
100
AcDbLine
 10
189.375
 20
8.274999999999996
 30
0.0
 11
189.375
 21
280.0749999999999
 31
0.0
  0
LINE
  5
1B5
330
1B1
100
AcDbEntity
  8
0
100
AcDbLine
 10
189.375
 20
280.0749999999999
 30
0.0
 11
4.15
 21
280.0749999999999
 31
0.0
  0
LINE
  5
1B6
330
1B1
100
AcDbEntity
  8
0
100
AcDbLine
 10
4.15
 20
280.0749999999999
 30
0.0
 11
4.15
 21
8.274999999999996
 31
0.0
  0
ENDBLK
  5
1B7
330
1B1
100
AcDbEntity
  8
0
100
AcDbBlockEnd
  0
BLOCK
  5
2BB
330
2BA
100
AcDbEntity
  8
0
100
AcDbBlockBegin
  2
*U2
 70
     1
 10
0.0
 20
0.0
 30
0.0
  3
*U2
  1

  0
ARC
  5
2BC
330
2BA
100
AcDbEntity
  8
電気錠
  6
Continuous
 62
     7
100
AcDbCircle
 10
88.0
 20
69.0
 30
0.0
 40
2.2
100
AcDbArc
 50
0.0
 51
180.0
  0
ARC
  5
2BD
330
2BA
100
AcDbEntity
  8
電気錠
  6
Continuous
 62
     7
100
AcDbCircle
 10
88.0
 20
46.0
 30
0.0
 40
2.2
100
AcDbArc
 50
180.0
 51
0.0
  0
LINE
  5
2BE
330
2BA
100
AcDbEntity
  8
電気錠
  6
Continuous
 62
     7
100
AcDbLine
 10
90.20000000000001
 20
46.0
 30
0.0
 11
90.20000000000001
 21
69.0
 31
0.0
  0
LINE
  5
2BF
330
2BA
100
AcDbEntity
  8
電気錠
  6
Continuous
 62
     7
100
AcDbLine
 10
85.8
 20
69.0
 30
0.0
 11
85.8
 21
46.0
 31
0.0
  0
ENDBLK
  5
2C0
330
2BA
100
AcDbEntity
  8
0
100
AcDbBlockEnd
  0
BLOCK
  5
2C2
330
2C1
100
AcDbEntity
  8
0
100
AcDbBlockBegin
  2
*U3
 70
     1
 10
0.0
 20
0.0
 30
0.0
  3
*U3
  1

  0
ARC
  5
2C3
330
2C1
100
AcDbEntity
  8
電気錠
  6
Continuous
 62
     7
100
AcDbCircle
 10
-162.0
 20
69.0
 30
0.0
 40
2.2
100
AcDbArc
 50
0.0
 51
180.0
  0
ARC
  5
2C4
330
2C1
100
AcDbEntity
  8
電気錠
  6
Continuous
 62
     7
100
AcDbCircle
 10
-162.0
 20
46.0
 30
0.0
 40
2.2
100
AcDbArc
 50
180.0
 51
0.0
  0
LINE
  5
2C5
330
2C1
100
AcDbEntity
  8
電気錠
  6
Continuous
 62
     7
100
AcDbLine
 10
-159.8
 20
46.0
 30
0.0
 11
-159.8
 21
69.0
 31
0.0
  0
LINE
  5
2C6
330
2C1
100
AcDbEntity
  8
電気錠
  6
Continuous
 62
     7
100
AcDbLine
 10
-164.2
 20
69.0
 30
0.0
 11
-164.2
 21
46.0
 31
0.0
  0
ENDBLK
  5
2C7
330
2C1
100
AcDbEntity
  8
0
100
AcDbBlockEnd
  0
BLOCK
  5
2C9
330
2C8
100
AcDbEntity
  8
0
100
AcDbBlockBegin
  2
*U4
 70
     1
 10
0.0
 20
0.0
 30
0.0
  3
*U4
  1

  0
LINE
  5
2CA
330
2C8
100
AcDbEntity
  8
電気錠
  6
Continuous
 62
     7
100
AcDbLine
 10
110.4999972152
 20
77.0
 30
0.0
 11
-176.5
 21
77.0
 31
0.0
  0
LINE
  5
2CB
330
2C8
100
AcDbEntity
  8
電気錠
  6
Continuous
 62
     7
100
AcDbLine
 10
115.0
 20
80.99986181309999
 30
0.0
 11
-181.0
 21
80.99986181309999
 31
0.0
  0
LINE
  5
2CC
330
2C8
100
AcDbEntity
  8
電気錠
  6
Continuous
 62
     7
100
AcDbLine
 10
115.0
 20
79.00001792970001
 30
0.0
 11
-181.0
 21
79.00001792970001
 31
0.0
  0
LINE
  5
2CD
330
2C8
100
AcDbEntity
  8
電気錠
  6
Continuous
 62
     7
100
AcDbLine
 10
-174.0
 20
77.0
 30
0.0
 11
110.0
 21
77.0
 31
0.0
  0
ARC
  5
2CE
330
2C8
100
AcDbEntity
  8
電気錠
  6
Continuous
 62
     7
100
AcDbCircle
 10
-176.5
 20
74.0
 30
0.0
 40
3.0
100
AcDbArc
 50
90.0
 51
180.0
  0
LINE
  5
2CF
330
2C8
100
AcDbEntity
  8
電気錠
  6
Continuous
 62
     7
100
AcDbLine
 10
-179.5
 20
74.0
 30
0.0
 11
-179.5
 21
38.0
 31
0.0
  0
LINE
  5
2D0
330
2C8
100
AcDbEntity
  8
電気錠
  6
Continuous
 62
     7
100
AcDbLine
 10
-182.0
 20
38.0
 30
0.0
 11
-179.5
 21
38.0
 31
0.0
  0
LINE
  5
2D1
330
2C8
100
AcDbEntity
  8
電気錠
  6
Continuous
 62
     7
100
AcDbLine
 10
-182.0
 20
80.0
 30
0.0
 11
-182.0
 21
38.0
 31
0.0
  0
ARC
  5
2D2
330
2C8
100
AcDbEntity
  8
電気錠
  6
Continuous
 62
     7
100
AcDbCircle
 10
-181.0
 20
80.0
 30
0.0
 40
1.0
100
AcDbArc
 50
90.0
 51
180.0
  0
ARC
  5
2D3
330
2C8
100
AcDbEntity
  8
電気錠
  6
Continuous
 62
     7
100
AcDbCircle
 10
-181.0
 20
78.0001561167
 30
0.0
 40
0.999779232
100
AcDbArc
 50
90.0
 51
180.0000013966
  0
LINE
  5
2D4
330
2C8
100
AcDbEntity
  8
電気錠
  6
Continuous
 62
     7
100
AcDbLine
 10
116.0
 20
38.0
 30
0.0
 11
113.4995854392
 21
38.0
 31
0.0
  0
ARC
  5
2D5
330
2C8
100
AcDbEntity
  8
電気錠
  6
Continuous
 62
     7
100
AcDbCircle
 10
115.0
 20
80.0
 30
0.0
 40
1.0
100
AcDbArc
 50
0.0
 51
90.0
  0
ARC
  5
2D6
330
2C8
100
AcDbEntity
  8
電気錠
  6
Continuous
 62
     7
100
AcDbCircle
 10
115.0
 20
78.0
 30
0.0
 40
1.0
100
AcDbArc
 50
0.0
 51
90.0
  0
ARC
  5
2D7
330
2C8
100
AcDbEntity
  8
電気錠
  6
Continuous
 62
     7
100
AcDbCircle
 10
110.4999972152
 20
74.0
 30
0.0
 40
3.0
100
AcDbArc
 50
0.0
 51
89.99994680749997
  0
LINE
  5
2D8
330
2C8
100
AcDbEntity
  8
電気錠
  6
Continuous
 62
     7
100
AcDbLine
 10
116.0
 20
80.0
 30
0.0
 11
116.0
 21
38.0
 31
0.0
  0
LINE
  5
2D9
330
2C8
100
AcDbEntity
  8
電気錠
  6
Continuous
 62
     7
100
AcDbLine
 10
113.4995854392
 20
74.0
 30
0.0
 11
113.4995854392
 21
38.0
 31
0.0
  0
ENDBLK
  5
2DA
330
2C8
100
AcDbEntity
  8
0
100
AcDbBlockEnd
  0
BLOCK
  5
2DC
330
2DB
100
AcDbEntity
  8
0
100
AcDbBlockBegin
  2
*U5
 70
     1
 10
0.0
 20
0.0
 30
0.0
  3
*U5
  1

  0
ARC
  5
2DD
330
2DB
100
AcDbEntity
  8
電気錠
  6
Continuous
 62
     7
100
AcDbCircle
 10
-180.8000006908
 20
-26.8002487601
 30
0.0
 40
1.199999999999999
100
AcDbArc
 50
180.0
 51
270.0
  0
ARC
  5
2DE
330
2DB
100
AcDbEntity
  8
電気錠
  6
Continuous
 62
     7
100
AcDbCircle
 10
-179.5574561508
 20
-25.5820689241
 30
0.0
 40
1.199999999999999
100
AcDbArc
 50
180.0
 51
270.0
  0
ARC
  5
2DF
330
2DB
100
AcDbEntity
  8
電気錠
  6
Continuous
 62
     7
100
AcDbCircle
 10
-180.8000006908
 20
8.7997512399
 30
0.0
 40
1.199999999999999
100
AcDbArc
 50
90.0
 51
180.0
  0
LINE
  5
2E0
330
2DB
100
AcDbEntity
  8
電気錠
  6
Continuous
 62
     7
100
AcDbLine
 10
-182.0000006908
 20
8.7997512399
 30
0.0
 11
-182.0000006908
 21
-26.8002487601
 31
0.0
  0
LINE
  5
2E1
330
2DB
100
AcDbEntity
  8
電気錠
  6
Continuous
 62
     7
100
AcDbLine
 10
-180.8000006908
 20
9.9997512399
 30
0.0
 11
-179.5574561508
 21
9.9997512399
 31
0.0
  0
ARC
  5
2E2
330
2DB
100
AcDbEntity
  8
電気錠
  6
Continuous
 62
     7
100
AcDbCircle
 10
-179.7574561508
 20
8.199751239899999
 30
0.0
 40
1.0
100
AcDbArc
 50
90.0
 51
180.0
  0
LINE
  5
2E3
330
2DB
100
AcDbEntity
  8
電気錠
  6
Continuous
 62
     7
100
AcDbLine
 10
-180.7574561508
 20
8.199751239899999
 30
0.0
 11
-180.7574561508
 21
-25.5820689241
 31
0.0
  0
ENDBLK
  5
2E4
330
2DB
100
AcDbEntity
  8
0
100
AcDbBlockEnd
  0
BLOCK
  5
2E6
330
2E5
100
AcDbEntity
  8
0
100
AcDbBlockBegin
  2
*U6
 70
     1
 10
0.0
 20
0.0
 30
0.0
  3
*U6
  1

  0
LINE
  5
2E7
330
2E5
100
AcDbEntity
  8
電気錠
  6
Continuous
 62
     7
100
AcDbLine
 10
-180.8
 20
-28.00024876010001
 30
0.0
 11
114.8
 21
-28.00024876010001
 31
0.0
  0
ARC
  5
2E8
330
2E5
100
AcDbEntity
  8
電気錠
  6
Continuous
 62
     7
100
AcDbCircle
 10
-180.8
 20
-26.8002487601
 30
0.0
 40
1.199999999999999
100
AcDbArc
 50
180.0
 51
270.0
  0
LINE
  5
2E9
330
2E5
100
AcDbEntity
  8
電気錠
  6
Continuous
 62
     7
100
AcDbLine
 10
113.55745546
 20
-26.7820689241
 30
0.0
 11
-180.2091869126
 21
-26.7820689241
 31
0.0
  0
INSERT
  5
2EA
330
2E5
100
AcDbEntity
  8
電気錠
100
AcDbBlockReference
  2
*U5
 10
0.0
 20
0.0
 30
0.0
  0
LINE
  5
2EB
330
2E5
100
AcDbEntity
  8
電気錠
  6
Continuous
 62
     7
100
AcDbLine
 10
-179.5574561508
 20
9.9997512399
 30
0.0
 11
113.55745546
 21
9.9997512399
 31
0.0
  0
LINE
  5
2EC
330
2E5
100
AcDbEntity
  8
電気錠
  6
Continuous
 62
     7
100
AcDbLine
 10
113.75745546
 20
9.199751239899999
 30
0.0
 11
-179.7574561508
 21
9.199751239899999
 31
0.0
  0
LINE
  5
2ED
330
2E5
100
AcDbEntity
  8
電気錠
  6
Continuous
 62
     7
100
AcDbLine
 10
114.3833211863
 20
-2.000148833399999
 30
0.0
 11
-180.7574561508
 21
-2.000148833399999
 31
0.0
  0
LINE
  5
2EE
330
2E5
100
AcDbEntity
  8
電気錠
  6
Continuous
 62
     7
100
AcDbLine
 10
114.75745546
 20
8.199751239899999
 30
0.0
 11
114.75745546
 21
-25.5820689241
 31
0.0
  0
ARC
  5
2EF
330
2E5
100
AcDbEntity
  8
電気錠
  6
Continuous
 62
     7
100
AcDbCircle
 10
113.75745546
 20
8.199751239899999
 30
0.0
 40
1.0
100
AcDbArc
 50
0.0
 51
90.0
  0
LINE
  5
2F0
330
2E5
100
AcDbEntity
  8
電気錠
  6
Continuous
 62
     7
100
AcDbLine
 10
114.8
 20
9.9997512399
 30
0.0
 11
113.55745546
 21
9.9997512399
 31
0.0
  0
LINE
  5
2F1
330
2E5
100
AcDbEntity
  8
電気錠
  6
Continuous
 62
     7
100
AcDbLine
 10
116.0
 20
8.7997512399
 30
0.0
 11
116.0
 21
-26.8002487601
 31
0.0
  0
ARC
  5
2F2
330
2E5
100
AcDbEntity
  8
電気錠
  6
Continuous
 62
     7
100
AcDbCircle
 10
114.8
 20
8.7997512399
 30
0.0
 40
1.199999999999999
100
AcDbArc
 50
0.0
 51
90.0
  0
ARC
  5
2F3
330
2E5
100
AcDbEntity
  8
電気錠
  6
Continuous
 62
     7
100
AcDbCircle
 10
113.55745546
 20
-25.5820689241
 30
0.0
 40
1.199999999999999
100
AcDbArc
 50
270.0
 51
0.0
  0
ARC
  5
2F4
330
2E5
100
AcDbEntity
  8
電気錠
  6
Continuous
 62
     7
100
AcDbCircle
 10
114.8
 20
-26.8002487601
 30
0.0
 40
1.199999999999999
100
AcDbArc
 50
270.0
 51
0.0
  0
ENDBLK
  5
2F5
330
2E5
100
AcDbEntity
  8
0
100
AcDbBlockEnd
  0
BLOCK
  5
7F2
330
7F1
100
AcDbEntity
  8
0
100
AcDbBlockBegin
  2
*D7
 70
     1
 10
0.0
 20
0.0
 30
0.0
  3
*D7
  1

  0
LINE
  5
2543
330
7F1
100
AcDbEntity
  8
寸法線
 62
     0
370
    -2
100
AcDbLine
 10
31.63600575858942
 20
273.3946975717574
 30
0.0
 11
31.63600575858942
 21
244.4657791448384
 31
0.0
  0
LINE
  5
2544
330
7F1
100
AcDbEntity
  8
寸法線
 62
     0
370
    -2
100
AcDbLine
 10
329.6360057585894
 20
273.3946975717573
 30
0.0
 11
329.6360057585894
 21
244.4657791448384
 31
0.0
  0
LINE
  5
2545
330
7F1
100
AcDbEntity
  8
寸法線
 62
     0
370
    -2
100
AcDbLine
 10
34.13600575858942
 20
245.7157791448384
 30
0.0
 11
327.1360057585894
 21
245.7157791448384
 31
0.0
  0
SOLID
  5
2546
330
7F1
100
AcDbEntity
  8
寸法線
 62
     0
100
AcDbTrace
 10
34.13600575858942
 20
246.1324458115051
 30
0.0
 11
34.13600575858942
 21
245.2991124781718
 31
0.0
 12
31.63600575858942
 22
245.7157791448384
 32
0.0
 13
31.63600575858942
 23
245.7157791448384
 33
0.0
  0
SOLID
  5
2547
330
7F1
100
AcDbEntity
  8
寸法線
 62
     0
100
AcDbTrace
 10
327.1360057585894
 20
246.1324458115051
 30
0.0
 11
327.1360057585894
 21
245.2991124781718
 31
0.0
 12
329.6360057585894
 22
245.7157791448384
 32
0.0
 13
329.6360057585894
 23
245.7157791448384
 33
0.0
  0
MTEXT
  5
2548
330
7F1
100
AcDbEntity
  8
寸法線
 62
     0
100
AcDbMText
 10
180.6360057585894
 20
250.3407791448384
 30
0.0
 40
8.0
 41
0.0
 71
     5
 72
     1
  1
298
 73
     1
 44
1.0
1001
ACAD
1000
MTEXTBEGIN
1070
    73
1070
     1
1070
    44
1040
1.0
1070
    74
1070
     0
1000
MTEXTEND
  0
POINT
  5
2549
330
7F1
100
AcDbEntity
  8
DEFPOINTS
 62
     0
100
AcDbPoint
 10
31.63600575858942
 20
274.0196975717574
 30
0.0
  0
POINT
  5
254A
330
7F1
100
AcDbEntity
  8
DEFPOINTS
 62
     0
100
AcDbPoint
 10
329.6360057585894
 20
274.0196975717573
 30
0.0
  0
POINT
  5
254B
330
7F1
100
AcDbEntity
  8
DEFPOINTS
 62
     0
100
AcDbPoint
 10
329.6360057585894
 20
245.7157791448384
 30
0.0
  0
ENDBLK
  5
7F3
330
7F1
100
AcDbEntity
  8
0
100
AcDbBlockEnd
  0
BLOCK
  5
93D
330
93C
100
AcDbEntity
  8
0
100
AcDbBlockBegin
  2
*D8
 70
     1
 10
0.0
 20
0.0
 30
0.0
  3
*D8
  1

  0
LINE
  5
253A
330
93C
100
AcDbEntity
  8
寸法線
 62
     0
370
    -2
100
AcDbLine
 10
221.6360057585894
 20
292.8946975717573
 30
0.0
 11
221.6360057585894
 21
289.7498071038109
 31
0.0
  0
LINE
  5
253B
330
93C
100
AcDbEntity
  8
寸法線
 62
     0
370
    -2
100
AcDbLine
 10
139.6360057585894
 20
292.8946975717573
 30
0.0
 11
139.6360057585894
 21
289.7498071038109
 31
0.0
  0
LINE
  5
253C
330
93C
100
AcDbEntity
  8
寸法線
 62
     0
370
    -2
100
AcDbLine
 10
219.1360057585894
 20
290.9998071038109
 30
0.0
 11
142.1360057585894
 21
290.9998071038109
 31
0.0
  0
SOLID
  5
253D
330
93C
100
AcDbEntity
  8
寸法線
 62
     0
100
AcDbTrace
 10
219.1360057585894
 20
291.4164737704776
 30
0.0
 11
219.1360057585894
 21
290.5831404371442
 31
0.0
 12
221.6360057585894
 22
290.9998071038109
 32
0.0
 13
221.6360057585894
 23
290.9998071038109
 33
0.0
  0
SOLID
  5
253E
330
93C
100
AcDbEntity
  8
寸法線
 62
     0
100
AcDbTrace
 10
142.1360057585894
 20
291.4164737704776
 30
0.0
 11
142.1360057585894
 21
290.5831404371442
 31
0.0
 12
139.6360057585894
 22
290.9998071038109
 32
0.0
 13
139.6360057585894
 23
290.9998071038109
 33
0.0
  0
MTEXT
  5
253F
330
93C
100
AcDbEntity
  8
寸法線
 62
     0
100
AcDbMText
 10
186.9153318941835
 20
294.1248071038109
 30
0.0
 40
5.0
 41
0.0
 71
     5
 72
     1
  1
穴ピッチ 82
 73
     1
 44
1.0
1001
ACAD
1000
MTEXTBEGIN
1070
    73
1070
     1
1070
    44
1040
1.0
1070
    74
1070
     0
1000
MTEXTEND
  0
POINT
  5
2540
330
93C
100
AcDbEntity
  8
DEFPOINTS
 62
     0
100
AcDbPoint
 10
221.6360057585894
 20
293.5196975717573
 30
0.0
  0
POINT
  5
2541
330
93C
100
AcDbEntity
  8
DEFPOINTS
 62
     0
100
AcDbPoint
 10
139.6360057585894
 20
293.5196975717573
 30
0.0
  0
POINT
  5
2542
330
93C
100
AcDbEntity
  8
DEFPOINTS
 62
     0
100
AcDbPoint
 10
139.6360057585894
 20
290.9998071038109
 30
0.0
  0
ENDBLK
  5
93E
330
93C
100
AcDbEntity
  8
0
100
AcDbBlockEnd
  0
BLOCK
  5
994
330
993
100
AcDbEntity
  8
0
100
AcDbBlockBegin
  2
*D9
 70
     1
 10
0.0
 20
0.0
 30
0.0
  3
*D9
  1

  0
LINE
  5
2531
330
993
100
AcDbEntity
  8
寸法線
 62
     0
370
    -2
100
AcDbLine
 10
329.3134678007784
 20
376.7953704300638
 30
0.0
 11
352.2175175325197
 21
376.7953704300638
 31
0.0
  0
LINE
  5
2532
330
993
100
AcDbEntity
  8
寸法線
 62
     0
370
    -2
100
AcDbLine
 10
329.3134678007784
 20
338.7953704300638
 30
0.0
 11
352.2175175325197
 21
338.7953704300638
 31
0.0
  0
LINE
  5
2533
330
993
100
AcDbEntity
  8
寸法線
 62
     0
370
    -2
100
AcDbLine
 10
350.9675175325197
 20
374.2953704300638
 30
0.0
 11
350.9675175325197
 21
341.2953704300638
 31
0.0
  0
SOLID
  5
2534
330
993
100
AcDbEntity
  8
寸法線
 62
     0
100
AcDbTrace
 10
350.550850865853
 20
374.2953704300638
 30
0.0
 11
351.3841841991864
 21
374.2953704300638
 31
0.0
 12
350.9675175325197
 22
376.7953704300638
 32
0.0
 13
350.9675175325197
 23
376.7953704300638
 33
0.0
  0
SOLID
  5
2535
330
993
100
AcDbEntity
  8
寸法線
 62
     0
100
AcDbTrace
 10
350.550850865853
 20
341.2953704300638
 30
0.0
 11
351.3841841991864
 21
341.2953704300638
 31
0.0
 12
350.9675175325197
 22
338.7953704300638
 32
0.0
 13
350.9675175325197
 23
338.7953704300638
 33
0.0
  0
MTEXT
  5
2536
330
993
100
AcDbEntity
  8
寸法線
 62
     0
100
AcDbMText
 10
346.3425175325197
 20
357.7953704300638
 30
0.0
 40
8.0
 41
0.0
 71
     5
 72
     1
  1
38
 11
0.0000000000000001
 21
1.0
 31
0.0
 73
     1
 44
1.0
1001
ACAD
1000
MTEXTBEGIN
1070
    73
1070
     1
1070
    44
1040
1.0
1070
    74
1070
     0
1000
MTEXTEND
  0
POINT
  5
2537
330
993
100
AcDbEntity
  8
DEFPOINTS
 62
     0
100
AcDbPoint
 10
328.6884678007784
 20
376.7953704300638
 30
0.0
  0
POINT
  5
2538
330
993
100
AcDbEntity
  8
DEFPOINTS
 62
     0
100
AcDbPoint
 10
328.6884678007784
 20
338.7953704300638
 30
0.0
  0
POINT
  5
2539
330
993
100
AcDbEntity
  8
DEFPOINTS
 62
     0
100
AcDbPoint
 10
350.9675175325197
 20
338.7953704300638
 30
0.0
  0
ENDBLK
  5
995
330
993
100
AcDbEntity
  8
0
100
AcDbBlockEnd
  0
BLOCK
  5
AF7
330
AF6
100
AcDbEntity
  8
0
100
AcDbBlockBegin
  2
*D10
 70
     1
 10
0.0
 20
0.0
 30
0.0
  3
*D10
  1

  0
LINE
  5
2528
330
AF6
100
AcDbEntity
  8
寸法線
 62
     0
370
    -2
100
AcDbLine
 10
308.872374967035
 20
434.7230724130037
 30
0.0
 11
308.872374967035
 21
415.261914106806
 31
0.0
  0
LINE
  5
2529
330
AF6
100
AcDbEntity
  8
寸法線
 62
     0
370
    -2
100
AcDbLine
 10
328.8723749670349
 20
442.7230724130037
 30
0.0
 11
328.8723749670349
 21
415.261914106806
 31
0.0
  0
LINE
  5
252A
330
AF6
100
AcDbEntity
  8
寸法線
 62
     0
370
    -2
100
AcDbLine
 10
311.372374967035
 20
416.511914106806
 30
0.0
 11
326.3723749670349
 21
416.511914106806
 31
0.0
  0
SOLID
  5
252B
330
AF6
100
AcDbEntity
  8
寸法線
 62
     0
100
AcDbTrace
 10
311.372374967035
 20
416.9285807734727
 30
0.0
 11
311.372374967035
 21
416.0952474401393
 31
0.0
 12
308.872374967035
 22
416.511914106806
 32
0.0
 13
308.872374967035
 23
416.511914106806
 33
0.0
  0
SOLID
  5
252C
330
AF6
100
AcDbEntity
  8
寸法線
 62
     0
100
AcDbTrace
 10
326.3723749670349
 20
416.9285807734727
 30
0.0
 11
326.3723749670349
 21
416.0952474401393
 31
0.0
 12
328.8723749670349
 22
416.511914106806
 32
0.0
 13
328.8723749670349
 23
416.511914106806
 33
0.0
  0
MTEXT
  5
252D
330
AF6
100
AcDbEntity
  8
寸法線
 62
     0
100
AcDbMText
 10
318.8723749670349
 20
419.136914106806
 30
0.0
 40
4.0
 41
0.0
 71
     5
 72
     1
  1
(20)
 73
     1
 44
1.0
1001
ACAD
1000
MTEXTBEGIN
1070
    73
1070
     1
1070
    44
1040
1.0
1070
    74
1070
     0
1000
MTEXTEND
  0
POINT
  5
252E
330
AF6
100
AcDbEntity
  8
DEFPOINTS
 62
     0
100
AcDbPoint
 10
308.872374967035
 20
435.3480724130037
 30
0.0
  0
POINT
  5
252F
330
AF6
100
AcDbEntity
  8
DEFPOINTS
 62
     0
100
AcDbPoint
 10
328.8723749670349
 20
443.3480724130037
 30
0.0
  0
POINT
  5
2530
330
AF6
100
AcDbEntity
  8
DEFPOINTS
 62
     0
100
AcDbPoint
 10
328.8723749670349
 20
416.511914106806
 30
0.0
  0
ENDBLK
  5
AF8
330
AF6
100
AcDbEntity
  8
0
100
AcDbBlockEnd
  0
BLOCK
  5
B0F
330
B0E
100
AcDbEntity
  8
0
100
AcDbBlockBegin
  2
*D11
 70
     1
 10
0.0
 20
0.0
 30
0.0
  3
*D11
  1

  0
LINE
  5
251F
330
B0E
100
AcDbEntity
  8
寸法線
 62
     0
370
    -2
100
AcDbLine
 10
308.872374967035
 20
435.3480724130037
 30
0.0
 11
308.872374967035
 21
453.5517330360047
 31
0.0
  0
LINE
  5
2520
330
B0E
100
AcDbEntity
  8
寸法線
 62
     0
370
    -2
100
AcDbLine
 10
58.87237496703495
 20
435.9730724130037
 30
0.0
 11
58.87237496703495
 21
453.5517330360047
 31
0.0
  0
LINE
  5
2521
330
B0E
100
AcDbEntity
  8
寸法線
 62
     0
370
    -2
100
AcDbLine
 10
306.372374967035
 20
452.3017330360047
 30
0.0
 11
61.37237496703495
 21
452.3017330360047
 31
0.0
  0
SOLID
  5
2522
330
B0E
100
AcDbEntity
  8
寸法線
 62
     0
100
AcDbTrace
 10
306.372374967035
 20
452.7183997026713
 30
0.0
 11
306.372374967035
 21
451.8850663693379
 31
0.0
 12
308.872374967035
 22
452.3017330360047
 32
0.0
 13
308.872374967035
 23
452.3017330360047
 33
0.0
  0
SOLID
  5
2523
330
B0E
100
AcDbEntity
  8
寸法線
 62
     0
100
AcDbTrace
 10
61.37237496703495
 20
452.7183997026713
 30
0.0
 11
61.37237496703495
 21
451.8850663693379
 31
0.0
 12
58.87237496703495
 22
452.3017330360047
 32
0.0
 13
58.87237496703495
 23
452.3017330360047
 33
0.0
  0
MTEXT
  5
2524
330
B0E
100
AcDbEntity
  8
寸法線
 62
     0
100
AcDbMText
 10
190.2670419466737
 20
455.4267330360047
 30
0.0
 40
5.0
 41
0.0
 71
     5
 72
     1
  1
穴ピッチ 250
 73
     1
 44
1.0
1001
ACAD
1000
MTEXTBEGIN
1070
    73
1070
     1
1070
    44
1040
1.0
1070
    74
1070
     0
1000
MTEXTEND
  0
POINT
  5
2525
330
B0E
100
AcDbEntity
  8
DEFPOINTS
 62
     0
100
AcDbPoint
 10
308.872374967035
 20
434.7230724130037
 30
0.0
  0
POINT
  5
2526
330
B0E
100
AcDbEntity
  8
DEFPOINTS
 62
     0
100
AcDbPoint
 10
58.87237496703495
 20
435.3480724130037
 30
0.0
  0
POINT
  5
2527
330
B0E
100
AcDbEntity
  8
DEFPOINTS
 62
     0
100
AcDbPoint
 10
58.87237496703495
 20
452.3017330360047
 30
0.0
  0
ENDBLK
  5
B10
330
B0E
100
AcDbEntity
  8
0
100
AcDbBlockEnd
  0
BLOCK
  5
B27
330
B26
100
AcDbEntity
  8
0
100
AcDbBlockBegin
  2
*D12
 70
     1
 10
0.0
 20
0.0
 30
0.0
  3
*D12
  1

  0
LINE
  5
2516
330
B26
100
AcDbEntity
  8
寸法線
 62
     0
370
    -2
100
AcDbLine
 10
104.872374967034
 20
432.2230724130037
 30
0.0
 11
104.872374967034
 21
392.3689743972116
 31
0.0
  0
LINE
  5
2517
330
B26
100
AcDbEntity
  8
寸法線
 62
     0
370
    -2
100
AcDbLine
 10
68.87237496703495
 20
432.2230724130037
 30
0.0
 11
68.87237496703495
 21
392.3689743972116
 31
0.0
  0
LINE
  5
2518
330
B26
100
AcDbEntity
  8
寸法線
 62
     0
370
    -2
100
AcDbLine
 10
102.372374967034
 20
393.6189743972116
 30
0.0
 11
71.37237496703495
 21
393.6189743972116
 31
0.0
  0
SOLID
  5
2519
330
B26
100
AcDbEntity
  8
寸法線
 62
     0
100
AcDbTrace
 10
102.372374967034
 20
394.0356410638783
 30
0.0
 11
102.372374967034
 21
393.2023077305449
 31
0.0
 12
104.872374967034
 22
393.6189743972116
 32
0.0
 13
104.872374967034
 23
393.6189743972116
 33
0.0
  0
SOLID
  5
251A
330
B26
100
AcDbEntity
  8
寸法線
 62
     0
100
AcDbTrace
 10
71.37237496703495
 20
394.0356410638783
 30
0.0
 11
71.37237496703495
 21
393.2023077305449
 31
0.0
 12
68.87237496703495
 22
393.6189743972116
 32
0.0
 13
68.87237496703495
 23
393.6189743972116
 33
0.0
  0
MTEXT
  5
251B
330
B26
100
AcDbEntity
  8
寸法線
 62
     0
100
AcDbMText
 10
86.87237496703446
 20
395.9939743972116
 30
0.0
 40
3.5
 41
0.0
 71
     5
 72
     1
  1
36
 73
     1
 44
1.0
1001
ACAD
1000
MTEXTBEGIN
1070
    73
1070
     1
1070
    44
1040
1.0
1070
    74
1070
     0
1000
MTEXTEND
  0
POINT
  5
251C
330
B26
100
AcDbEntity
  8
DEFPOINTS
 62
     0
100
AcDbPoint
 10
104.872374967034
 20
432.8480724130037
 30
0.0
  0
POINT
  5
251D
330
B26
100
AcDbEntity
  8
DEFPOINTS
 62
     0
100
AcDbPoint
 10
68.87237496703495
 20
432.8480724130037
 30
0.0
  0
POINT
  5
251E
330
B26
100
AcDbEntity
  8
DEFPOINTS
 62
     0
100
AcDbPoint
 10
68.87237496703495
 20
393.6189743972116
 30
0.0
  0
ENDBLK
  5
B28
330
B26
100
AcDbEntity
  8
0
100
AcDbBlockEnd
  0
BLOCK
  5
B5A
330
B59
100
AcDbEntity
  8
0
100
AcDbBlockBegin
  2
*D13
 70
     1
 10
0.0
 20
0.0
 30
0.0
  3
*D13
  1

  0
LINE
  5
250D
330
B59
100
AcDbEntity
  8
寸法線
 62
     0
370
    -2
100
AcDbLine
 10
103.4973749670349
 20
412.8480724130037
 30
0.0
 11
111.9261135601181
 21
412.8480724130037
 31
0.0
  0
LINE
  5
250E
330
B59
100
AcDbEntity
  8
寸法線
 62
     0
370
    -2
100
AcDbLine
 10
103.4973749670349
 20
434.8480724130038
 30
0.0
 11
111.9261135601181
 21
434.8480724130038
 31
0.0
  0
LINE
  5
250F
330
B59
100
AcDbEntity
  8
寸法線
 62
     0
370
    -2
100
AcDbLine
 10
110.6761135601181
 20
415.3480724130036
 30
0.0
 11
110.6761135601181
 21
432.3480724130038
 31
0.0
  0
SOLID
  5
2510
330
B59
100
AcDbEntity
  8
寸法線
 62
     0
100
AcDbTrace
 10
110.2594468934514
 20
415.3480724130036
 30
0.0
 11
111.0927802267847
 21
415.3480724130036
 31
0.0
 12
110.6761135601181
 22
412.8480724130037
 32
0.0
 13
110.6761135601181
 23
412.8480724130037
 33
0.0
  0
SOLID
  5
2511
330
B59
100
AcDbEntity
  8
寸法線
 62
     0
100
AcDbTrace
 10
110.2594468934514
 20
432.3480724130038
 30
0.0
 11
111.0927802267847
 21
432.3480724130038
 31
0.0
 12
110.6761135601181
 22
434.8480724130038
 32
0.0
 13
110.6761135601181
 23
434.8480724130038
 33
0.0
  0
MTEXT
  5
2512
330
B59
100
AcDbEntity
  8
寸法線
 62
     0
100
AcDbMText
 10
108.301113560118
 20
423.8480724130037
 30
0.0
 40
3.5
 41
0.0
 71
     5
 72
     1
  1
22
 11
0.0000000000000001
 21
1.0
 31
0.0
 73
     1
 44
1.0
1001
ACAD
1000
MTEXTBEGIN
1070
    73
1070
     1
1070
    44
1040
1.0
1070
    74
1070
     0
1000
MTEXTEND
  0
POINT
  5
2513
330
B59
100
AcDbEntity
  8
DEFPOINTS
 62
     0
100
AcDbPoint
 10
102.8723749670349
 20
412.8480724130037
 30
0.0
  0
POINT
  5
2514
330
B59
100
AcDbEntity
  8
DEFPOINTS
 62
     0
100
AcDbPoint
 10
102.8723749670349
 20
434.8480724130038
 30
0.0
  0
POINT
  5
2515
330
B59
100
AcDbEntity
  8
DEFPOINTS
 62
     0
100
AcDbPoint
 10
110.6761135601181
 20
434.8480724130038
 30
0.0
  0
ENDBLK
  5
B5B
330
B59
100
AcDbEntity
  8
0
100
AcDbBlockEnd
  0
BLOCK
  5
BA6
330
BA5
100
AcDbEntity
  8
0
100
AcDbBlockBegin
  2
*D14
 70
     1
 10
0.0
 20
0.0
 30
0.0
  3
*D14
  1

  0
LINE
  5
2504
330
BA5
100
AcDbEntity
  8
寸法線
 62
     0
370
    -2
100
AcDbLine
 10
58.87237496703495
 20
434.7230724130037
 30
0.0
 11
58.87237496703495
 21
392.3689743972116
 31
0.0
  0
LINE
  5
2505
330
BA5
100
AcDbEntity
  8
寸法線
 62
     0
370
    -2
100
AcDbLine
 10
30.87237496703494
 20
442.7230724130037
 30
0.0
 11
30.87237496703494
 21
392.3689743972116
 31
0.0
  0
LINE
  5
2506
330
BA5
100
AcDbEntity
  8
寸法線
 62
     0
370
    -2
100
AcDbLine
 10
56.37237496703495
 20
393.6189743972116
 30
0.0
 11
33.37237496703494
 21
393.6189743972116
 31
0.0
  0
SOLID
  5
2507
330
BA5
100
AcDbEntity
  8
寸法線
 62
     0
100
AcDbTrace
 10
56.37237496703495
 20
394.0356410638783
 30
0.0
 11
56.37237496703495
 21
393.2023077305449
 31
0.0
 12
58.87237496703495
 22
393.6189743972116
 32
0.0
 13
58.87237496703495
 23
393.6189743972116
 33
0.0
  0
SOLID
  5
2508
330
BA5
100
AcDbEntity
  8
寸法線
 62
     0
100
AcDbTrace
 10
33.37237496703494
 20
394.0356410638783
 30
0.0
 11
33.37237496703494
 21
393.2023077305449
 31
0.0
 12
30.87237496703494
 22
393.6189743972116
 32
0.0
 13
30.87237496703494
 23
393.6189743972116
 33
0.0
  0
MTEXT
  5
2509
330
BA5
100
AcDbEntity
  8
寸法線
 62
     0
100
AcDbMText
 10
44.87237496703494
 20
395.9939743972116
 30
0.0
 40
3.5
 41
0.0
 71
     5
 72
     1
  1
28
 73
     1
 44
1.0
1001
ACAD
1000
MTEXTBEGIN
1070
    73
1070
     1
1070
    44
1040
1.0
1070
    74
1070
     0
1000
MTEXTEND
  0
POINT
  5
250A
330
BA5
100
AcDbEntity
  8
DEFPOINTS
 62
     0
100
AcDbPoint
 10
58.87237496703495
 20
435.3480724130037
 30
0.0
  0
POINT
  5
250B
330
BA5
100
AcDbEntity
  8
DEFPOINTS
 62
     0
100
AcDbPoint
 10
30.87237496703494
 20
443.3480724130037
 30
0.0
  0
POINT
  5
250C
330
BA5
100
AcDbEntity
  8
DEFPOINTS
 62
     0
100
AcDbPoint
 10
30.87237496703494
 20
393.6189743972116
 30
0.0
  0
ENDBLK
  5
BA7
330
BA5
100
AcDbEntity
  8
0
100
AcDbBlockEnd
  0
BLOCK
  5
BBE
330
BBD
100
AcDbEntity
  8
0
100
AcDbBlockBegin
  2
*D15
 70
     1
 10
0.0
 20
0.0
 30
0.0
  3
*D15
  1

  0
LINE
  5
24FB
330
BBD
100
AcDbEntity
  8
寸法線
 62
     0
370
    -2
100
AcDbLine
 10
58.87237496703495
 20
436.9230724130038
 30
0.0
 11
58.87237496703495
 21
392.3689743972116
 31
0.0
  0
LINE
  5
24FC
330
BBD
100
AcDbEntity
  8
寸法線
 62
     0
370
    -2
100
AcDbLine
 10
68.87237496703495
 20
432.8480724130038
 30
0.0
 11
68.87237496703495
 21
392.3689743972116
 31
0.0
  0
LINE
  5
24FD
330
BBD
100
AcDbEntity
  8
寸法線
 62
     0
370
    -2
100
AcDbLine
 10
61.37237496703495
 20
393.6189743972116
 30
0.0
 11
66.37237496703495
 21
393.6189743972116
 31
0.0
  0
SOLID
  5
24FE
330
BBD
100
AcDbEntity
  8
寸法線
 62
     0
100
AcDbTrace
 10
61.37237496703495
 20
394.0356410638783
 30
0.0
 11
61.37237496703495
 21
393.2023077305449
 31
0.0
 12
58.87237496703495
 22
393.6189743972116
 32
0.0
 13
58.87237496703495
 23
393.6189743972116
 33
0.0
  0
SOLID
  5
24FF
330
BBD
100
AcDbEntity
  8
寸法線
 62
     0
100
AcDbTrace
 10
66.37237496703495
 20
394.0356410638783
 30
0.0
 11
66.37237496703495
 21
393.2023077305449
 31
0.0
 12
68.87237496703495
 22
393.6189743972116
 32
0.0
 13
68.87237496703495
 23
393.6189743972116
 33
0.0
  0
MTEXT
  5
2500
330
BBD
100
AcDbEntity
  8
寸法線
 62
     0
100
AcDbMText
 10
63.87237496703495
 20
395.9939743972116
 30
0.0
 40
3.5
 41
0.0
 71
     5
 72
     1
  1
10
 73
     1
 44
1.0
1001
ACAD
1000
MTEXTBEGIN
1070
    73
1070
     1
1070
    44
1040
1.0
1070
    74
1070
     0
1000
MTEXTEND
  0
POINT
  5
2501
330
BBD
100
AcDbEntity
  8
DEFPOINTS
 62
     0
100
AcDbPoint
 10
58.87237496703495
 20
437.5480724130039
 30
0.0
  0
POINT
  5
2502
330
BBD
100
AcDbEntity
  8
DEFPOINTS
 62
     0
100
AcDbPoint
 10
68.87237496703495
 20
433.4730724130038
 30
0.0
  0
POINT
  5
2503
330
BBD
100
AcDbEntity
  8
DEFPOINTS
 62
     0
100
AcDbPoint
 10
68.87237496703495
 20
393.6189743972116
 30
0.0
  0
ENDBLK
  5
BBF
330
BBD
100
AcDbEntity
  8
0
100
AcDbBlockEnd
  0
BLOCK
  5
CB8
330
CB7
100
AcDbEntity
  8
0
100
AcDbBlockBegin
  2
*D16
 70
     1
 10
0.0
 20
0.0
 30
0.0
  3
*D16
  1

  0
LINE
  5
24F2
330
CB7
100
AcDbEntity
  8
寸法線
 62
     0
370
    -2
100
AcDbLine
 10
229.7610057585894
 20
301.0196975717573
 30
0.0
 11
340.2970367391349
 21
301.0196975717573
 31
0.0
  0
LINE
  5
24F3
330
CB7
100
AcDbEntity
  8
寸法線
 62
     0
370
    -2
100
AcDbLine
 10
330.2610057585894
 20
316.0196975717573
 30
0.0
 11
340.2970367391349
 21
316.0196975717573
 31
0.0
  0
LINE
  5
24F4
330
CB7
100
AcDbEntity
  8
寸法線
 62
     0
370
    -2
100
AcDbLine
 10
339.0470367391348
 20
303.5196975717573
 30
0.0
 11
339.0470367391348
 21
313.5196975717573
 31
0.0
  0
SOLID
  5
24F5
330
CB7
100
AcDbEntity
  8
寸法線
 62
     0
100
AcDbTrace
 10
338.6303700724682
 20
303.5196975717573
 30
0.0
 11
339.4637034058015
 21
303.5196975717573
 31
0.0
 12
339.0470367391348
 22
301.0196975717573
 32
0.0
 13
339.0470367391348
 23
301.0196975717573
 33
0.0
  0
SOLID
  5
24F6
330
CB7
100
AcDbEntity
  8
寸法線
 62
     0
100
AcDbTrace
 10
338.6303700724682
 20
313.5196975717573
 30
0.0
 11
339.4637034058015
 21
313.5196975717573
 31
0.0
 12
339.0470367391348
 22
316.0196975717573
 32
0.0
 13
339.0470367391348
 23
316.0196975717573
 33
0.0
  0
MTEXT
  5
24F7
330
CB7
100
AcDbEntity
  8
寸法線
 62
     0
100
AcDbMText
 10
336.4220367391348
 20
308.5196975717574
 30
0.0
 40
4.0
 41
0.0
 71
     5
 72
     1
  1
15
 11
0.0000000000000001
 21
1.0
 31
0.0
 73
     1
 44
1.0
1001
ACAD
1000
MTEXTBEGIN
1070
    73
1070
     1
1070
    44
1040
1.0
1070
    74
1070
     0
1000
MTEXTEND
  0
POINT
  5
24F8
330
CB7
100
AcDbEntity
  8
DEFPOINTS
 62
     0
100
AcDbPoint
 10
229.1360057585894
 20
301.0196975717573
 30
0.0
  0
POINT
  5
24F9
330
CB7
100
AcDbEntity
  8
DEFPOINTS
 62
     0
100
AcDbPoint
 10
329.6360057585894
 20
316.0196975717573
 30
0.0
  0
POINT
  5
24FA
330
CB7
100
AcDbEntity
  8
DEFPOINTS
 62
     0
100
AcDbPoint
 10
339.0470367391348
 20
316.0196975717573
 30
0.0
  0
ENDBLK
  5
CB9
330
CB7
100
AcDbEntity
  8
0
100
AcDbBlockEnd
  0
BLOCK
  5
11E6
330
11E5
100
AcDbEntity
  8
0
100
AcDbBlockBegin
  2
*D17
 70
     1
 10
0.0
 20
0.0
 30
0.0
  3
*D17
  1

  0
LINE
  5
24E7
330
11E5
100
AcDbEntity
  8
寸法線
 62
     0
370
    -2
100
AcDbLine
 10
306.6723749670349
 20
434.7230724130037
 30
0.0
 11
306.6723749670349
 21
430.189012713282
 31
0.0
  0
LINE
  5
24E8
330
11E5
100
AcDbEntity
  8
寸法線
 62
     0
370
    -2
100
AcDbLine
 10
311.0723749670349
 20
434.7230724130037
 30
0.0
 11
311.0723749670349
 21
430.189012713282
 31
0.0
  0
LINE
  5
24E9
330
11E5
100
AcDbEntity
  8
寸法線
 62
     0
370
    -2
100
AcDbLine
 10
304.1723749670349
 20
431.4390127132821
 30
0.0
 11
301.6723749670349
 21
431.4390127132821
 31
0.0
  0
LINE
  5
24EA
330
11E5
100
AcDbEntity
  8
寸法線
 62
     0
370
    -2
100
AcDbLine
 10
313.5723749670349
 20
431.4390127132821
 30
0.0
 11
324.9057083003682
 21
431.4390127132821
 31
0.0
  0
LINE
  5
24EB
330
11E5
100
AcDbEntity
  8
寸法線
 62
     0
370
    -2
100
AcDbLine
 10
306.6723749670349
 20
431.4390127132821
 30
0.0
 11
311.0723749670349
 21
431.4390127132821
 31
0.0
  0
SOLID
  5
24EC
330
11E5
100
AcDbEntity
  8
寸法線
 62
     0
100
AcDbTrace
 10
304.1723749670349
 20
431.8556793799487
 30
0.0
 11
304.1723749670349
 21
431.0223460466153
 31
0.0
 12
306.6723749670349
 22
431.4390127132821
 32
0.0
 13
306.6723749670349
 23
431.4390127132821
 33
0.0
  0
SOLID
  5
24ED
330
11E5
100
AcDbEntity
  8
寸法線
 62
     0
100
AcDbTrace
 10
313.5723749670349
 20
431.8556793799487
 30
0.0
 11
313.5723749670349
 21
431.0223460466153
 31
0.0
 12
311.0723749670349
 22
431.4390127132821
 32
0.0
 13
311.0723749670349
 23
431.4390127132821
 33
0.0
  0
MTEXT
  5
24EE
330
11E5
100
AcDbEntity
  8
寸法線
 62
     0
100
AcDbMText
 10
320.4890416337016
 20
434.1056793799487
 30
0.0
 40
3.5
 41
0.0
 71
     5
 72
     1
  1
4,4
 73
     1
 44
1.0
1001
ACAD
1000
MTEXTBEGIN
1070
    73
1070
     1
1070
    44
1040
1.0
1070
    74
1070
     0
1000
MTEXTEND
  0
POINT
  5
24EF
330
11E5
100
AcDbEntity
  8
DEFPOINTS
 62
     0
100
AcDbPoint
 10
306.6723749670349
 20
435.3480724130037
 30
0.0
  0
POINT
  5
24F0
330
11E5
100
AcDbEntity
  8
DEFPOINTS
 62
     0
100
AcDbPoint
 10
311.0723749670349
 20
435.3480724130037
 30
0.0
  0
POINT
  5
24F1
330
11E5
100
AcDbEntity
  8
DEFPOINTS
 62
     0
100
AcDbPoint
 10
311.0723749670349
 20
431.4390127132821
 30
0.0
  0
ENDBLK
  5
11E7
330
11E5
100
AcDbEntity
  8
0
100
AcDbBlockEnd
  0
BLOCK
  5
1202
330
1201
100
AcDbEntity
  8
0
100
AcDbBlockBegin
  2
*D18
 70
     1
 10
0.0
 20
0.0
 30
0.0
  3
*D18
  1

  0
LINE
  5
24DE
330
1201
100
AcDbEntity
  8
寸法線
 62
     0
370
    -2
100
AcDbLine
 10
287.26428793303
 20
442.7230724130037
 30
0.0
 11
287.26428793303
 21
432.0579286082681
 31
0.0
  0
LINE
  5
24DF
330
1201
100
AcDbEntity
  8
寸法線
 62
     0
370
    -2
100
AcDbLine
 10
274.8719830876349
 20
442.7230724130037
 30
0.0
 11
274.8719830876349
 21
432.0579286082681
 31
0.0
  0
LINE
  5
24E0
330
1201
100
AcDbEntity
  8
寸法線
 62
     0
370
    -2
100
AcDbLine
 10
284.76428793303
 20
433.3079286082681
 30
0.0
 11
277.3719830876349
 21
433.3079286082681
 31
0.0
  0
SOLID
  5
24E1
330
1201
100
AcDbEntity
  8
寸法線
 62
     0
100
AcDbTrace
 10
284.76428793303
 20
433.7245952749348
 30
0.0
 11
284.76428793303
 21
432.8912619416014
 31
0.0
 12
287.26428793303
 22
433.3079286082681
 32
0.0
 13
287.26428793303
 23
433.3079286082681
 33
0.0
  0
SOLID
  5
24E2
330
1201
100
AcDbEntity
  8
寸法線
 62
     0
100
AcDbTrace
 10
277.3719830876349
 20
433.7245952749348
 30
0.0
 11
277.3719830876349
 21
432.8912619416014
 31
0.0
 12
274.8719830876349
 22
433.3079286082681
 32
0.0
 13
274.8719830876349
 23
433.3079286082681
 33
0.0
  0
MTEXT
  5
24E3
330
1201
100
AcDbEntity
  8
寸法線
 62
     0
100
AcDbMText
 10
281.0681355103324
 20
435.6829286082681
 30
0.0
 40
3.5
 41
0.0
 71
     5
 72
     1
  1
(12)
 73
     1
 44
1.0
1001
ACAD
1000
MTEXTBEGIN
1070
    73
1070
     1
1070
    44
1040
1.0
1070
    74
1070
     0
1000
MTEXTEND
  0
POINT
  5
24E4
330
1201
100
AcDbEntity
  8
DEFPOINTS
 62
     0
100
AcDbPoint
 10
287.26428793303
 20
443.3480724130037
 30
0.0
  0
POINT
  5
24E5
330
1201
100
AcDbEntity
  8
DEFPOINTS
 62
     0
100
AcDbPoint
 10
274.8719830876349
 20
443.3480724130037
 30
0.0
  0
POINT
  5
24E6
330
1201
100
AcDbEntity
  8
DEFPOINTS
 62
     0
100
AcDbPoint
 10
274.8719830876349
 20
433.3079286082681
 30
0.0
  0
ENDBLK
  5
1203
330
1201
100
AcDbEntity
  8
0
100
AcDbBlockEnd
  0
BLOCK
  5
121A
330
1219
100
AcDbEntity
  8
0
100
AcDbBlockBegin
  2
*D19
 70
     1
 10
0.0
 20
0.0
 30
0.0
  3
*D19
  1

  0
LINE
  5
24D3
330
1219
100
AcDbEntity
  8
寸法線
 62
     0
370
    -2
100
AcDbLine
 10
274.2469830876349
 20
443.3480724130037
 30
0.0
 11
267.4632345864142
 21
443.3480724130037
 31
0.0
  0
LINE
  5
24D4
330
1219
100
AcDbEntity
  8
寸法線
 62
     0
370
    -2
100
AcDbLine
 10
275.2469830876349
 20
449.3480724130035
 30
0.0
 11
267.4632345864142
 21
449.3480724130035
 31
0.0
  0
LINE
  5
24D5
330
1219
100
AcDbEntity
  8
寸法線
 62
     0
370
    -2
100
AcDbLine
 10
268.7132345864142
 20
440.8480724130036
 30
0.0
 11
268.7132345864142
 21
438.3480724130037
 31
0.0
  0
LINE
  5
24D6
330
1219
100
AcDbEntity
  8
寸法線
 62
     0
370
    -2
100
AcDbLine
 10
268.7132345864142
 20
451.8480724130036
 30
0.0
 11
268.7132345864142
 21
454.3480724130035
 31
0.0
  0
LINE
  5
24D7
330
1219
100
AcDbEntity
  8
寸法線
 62
     0
370
    -2
100
AcDbLine
 10
268.7132345864142
 20
443.3480724130037
 30
0.0
 11
268.7132345864142
 21
449.3480724130035
 31
0.0
  0
SOLID
  5
24D8
330
1219
100
AcDbEntity
  8
寸法線
 62
     0
100
AcDbTrace
 10
268.2965679197475
 20
440.8480724130036
 30
0.0
 11
269.1299012530809
 21
440.8480724130036
 31
0.0
 12
268.7132345864142
 22
443.3480724130037
 32
0.0
 13
268.7132345864142
 23
443.3480724130037
 33
0.0
  0
SOLID
  5
24D9
330
1219
100
AcDbEntity
  8
寸法線
 62
     0
100
AcDbTrace
 10
268.2965679197475
 20
451.8480724130036
 30
0.0
 11
269.1299012530809
 21
451.8480724130036
 31
0.0
 12
268.7132345864142
 22
449.3480724130035
 32
0.0
 13
268.7132345864142
 23
449.3480724130035
 33
0.0
  0
MTEXT
  5
24DA
330
1219
100
AcDbEntity
  8
寸法線
 62
     0
100
AcDbMText
 10
266.338234586414
 20
446.3480724130037
 30
0.0
 40
3.5
 41
0.0
 71
     5
 72
     1
  1
6
 11
0.0000000000000001
 21
1.0
 31
0.0
 73
     1
 44
1.0
1001
ACAD
1000
MTEXTBEGIN
1070
    73
1070
     1
1070
    44
1040
1.0
1070
    74
1070
     0
1000
MTEXTEND
  0
POINT
  5
24DB
330
1219
100
AcDbEntity
  8
DEFPOINTS
 62
     0
100
AcDbPoint
 10
274.8719830876349
 20
443.3480724130037
 30
0.0
  0
POINT
  5
24DC
330
1219
100
AcDbEntity
  8
DEFPOINTS
 62
     0
100
AcDbPoint
 10
275.8719830876349
 20
449.3480724130035
 30
0.0
  0
POINT
  5
24DD
330
1219
100
AcDbEntity
  8
DEFPOINTS
 62
     0
100
AcDbPoint
 10
268.7132345864142
 20
449.3480724130035
 30
0.0
  0
ENDBLK
  5
121B
330
1219
100
AcDbEntity
  8
0
100
AcDbBlockEnd
  0
BLOCK
  5
123F
330
123E
100
AcDbEntity
  8
0
100
AcDbBlockBegin
  2
*D20
 70
     1
 10
0.0
 20
0.0
 30
0.0
  3
*D20
  1

  0
LINE
  5
24CA
330
123E
100
AcDbEntity
  8
寸法線
 62
     0
370
    -2
100
AcDbLine
 10
274.8719830876349
 20
443.3480724130036
 30
0.0
 11
274.8719830876349
 21
422.8084641580172
 31
0.0
  0
LINE
  5
24CB
330
123E
100
AcDbEntity
  8
寸法線
 62
     0
370
    -2
100
AcDbLine
 10
328.8723749670349
 20
442.7230724130037
 30
0.0
 11
328.8723749670349
 21
422.8084641580172
 31
0.0
  0
LINE
  5
24CC
330
123E
100
AcDbEntity
  8
寸法線
 62
     0
370
    -2
100
AcDbLine
 10
277.3719830876349
 20
424.0584641580173
 30
0.0
 11
326.3723749670349
 21
424.0584641580173
 31
0.0
  0
SOLID
  5
24CD
330
123E
100
AcDbEntity
  8
寸法線
 62
     0
100
AcDbTrace
 10
277.3719830876349
 20
424.475130824684
 30
0.0
 11
277.3719830876349
 21
423.6417974913506
 31
0.0
 12
274.8719830876349
 22
424.0584641580173
 32
0.0
 13
274.8719830876349
 23
424.0584641580173
 33
0.0
  0
SOLID
  5
24CE
330
123E
100
AcDbEntity
  8
寸法線
 62
     0
100
AcDbTrace
 10
326.3723749670349
 20
424.475130824684
 30
0.0
 11
326.3723749670349
 21
423.6417974913506
 31
0.0
 12
328.8723749670349
 22
424.0584641580173
 32
0.0
 13
328.8723749670349
 23
424.0584641580173
 33
0.0
  0
MTEXT
  5
24CF
330
123E
100
AcDbEntity
  8
寸法線
 62
     0
100
AcDbMText
 10
301.8721790273349
 20
426.4334641580173
 30
0.0
 40
3.5
 41
0.0
 71
     5
 72
     1
  1
54
 73
     1
 44
1.0
1001
ACAD
1000
MTEXTBEGIN
1070
    73
1070
     1
1070
    44
1040
1.0
1070
    74
1070
     0
1000
MTEXTEND
  0
POINT
  5
24D0
330
123E
100
AcDbEntity
  8
DEFPOINTS
 62
     0
100
AcDbPoint
 10
274.8719830876349
 20
443.9730724130035
 30
0.0
  0
POINT
  5
24D1
330
123E
100
AcDbEntity
  8
DEFPOINTS
 62
     0
100
AcDbPoint
 10
328.8723749670349
 20
443.3480724130037
 30
0.0
  0
POINT
  5
24D2
330
123E
100
AcDbEntity
  8
DEFPOINTS
 62
     0
100
AcDbPoint
 10
328.8723749670349
 20
424.0584641580173
 30
0.0
  0
ENDBLK
  5
1240
330
123E
100
AcDbEntity
  8
0
100
AcDbBlockEnd
  0
BLOCK
  5
1267
330
1266
100
AcDbEntity
  8
0
100
AcDbBlockBegin
  2
*D21
 70
     1
 10
0.0
 20
0.0
 30
0.0
  3
*D21
  1

  0
LINE
  5
24C0
330
1266
100
AcDbEntity
  8
寸法線
 62
     0
370
    -2
100
AcDbLine
 10
278.2606138791894
 20
267.8394431987574
 30
0.0
 11
303.6744731229177
 21
267.8394431987574
 31
0.0
  0
LINE
  5
24C1
330
1266
100
AcDbEntity
  8
寸法線
 62
     0
370
    -2
100
AcDbLine
 10
277.2606138791894
 20
278.5196975717573
 30
0.0
 11
303.6744731229177
 21
278.5196975717573
 31
0.0
  0
LINE
  5
24C2
330
1266
100
AcDbEntity
  8
寸法線
 62
     0
370
    -2
100
AcDbLine
 10
302.4244731229177
 20
276.0196975717573
 30
0.0
 11
302.4244731229177
 21
270.3394431987574
 31
0.0
  0
LINE
  5
24C3
330
1266
100
AcDbEntity
  8
寸法線
 62
     0
370
    -2
100
AcDbLine
 10
302.4244731229177
 20
267.8394431987574
 30
0.0
 11
302.4244731229177
 21
254.9918312179029
 31
0.0
  0
SOLID
  5
24C4
330
1266
100
AcDbEntity
  8
寸法線
 62
     0
100
AcDbTrace
 10
302.007806456251
 20
276.0196975717573
 30
0.0
 11
302.8411397895844
 21
276.0196975717573
 31
0.0
 12
302.4244731229177
 22
278.5196975717573
 32
0.0
 13
302.4244731229177
 23
278.5196975717573
 33
0.0
  0
SOLID
  5
24C5
330
1266
100
AcDbEntity
  8
寸法線
 62
     0
100
AcDbTrace
 10
302.007806456251
 20
270.3394431987574
 30
0.0
 11
302.8411397895844
 21
270.3394431987574
 31
0.0
 12
302.4244731229177
 22
267.8394431987574
 32
0.0
 13
302.4244731229177
 23
267.8394431987574
 33
0.0
  0
MTEXT
  5
24C6
330
1266
100
AcDbEntity
  8
寸法線
 62
     0
100
AcDbMText
 10
300.0494731229176
 20
259.9918312179029
 30
0.0
 40
3.5
 41
0.0
 71
     5
 72
     1
  1
(10)
 11
0.0000000000000001
 21
1.0
 31
0.0
 73
     1
 44
1.0
1001
ACAD
1000
MTEXTBEGIN
1070
    73
1070
     1
1070
    44
1040
1.0
1070
    74
1070
     0
1000
MTEXTEND
  0
POINT
  5
24C7
330
1266
100
AcDbEntity
  8
DEFPOINTS
 62
     0
100
AcDbPoint
 10
277.6356138791894
 20
267.8394431987574
 30
0.0
  0
POINT
  5
24C8
330
1266
100
AcDbEntity
  8
DEFPOINTS
 62
     0
100
AcDbPoint
 10
276.6356138791894
 20
278.5196975717573
 30
0.0
  0
POINT
  5
24C9
330
1266
100
AcDbEntity
  8
DEFPOINTS
 62
     0
100
AcDbPoint
 10
302.4244731229177
 20
278.5196975717573
 30
0.0
  0
ENDBLK
  5
1268
330
1266
100
AcDbEntity
  8
0
100
AcDbBlockEnd
  0
BLOCK
  5
127F
330
127E
100
AcDbEntity
  8
0
100
AcDbBlockBegin
  2
*D22
 70
     1
 10
0.0
 20
0.0
 30
0.0
  3
*D22
  1

  0
LINE
  5
24B7
330
127E
100
AcDbEntity
  8
寸法線
 62
     0
370
    -2
100
AcDbLine
 10
295.6352205826893
 20
278.2791707051575
 30
0.0
 11
295.6352205826893
 21
287.6838194822131
 31
0.0
  0
LINE
  5
24B8
330
127E
100
AcDbEntity
  8
寸法線
 62
     0
370
    -2
100
AcDbLine
 10
276.6356138791894
 20
274.6336673149818
 30
0.0
 11
276.6356138791894
 21
287.6838194822131
 31
0.0
  0
LINE
  5
24B9
330
127E
100
AcDbEntity
  8
寸法線
 62
     0
370
    -2
100
AcDbLine
 10
293.1352205826893
 20
286.4338194822131
 30
0.0
 11
279.1356138791894
 21
286.4338194822131
 31
0.0
  0
SOLID
  5
24BA
330
127E
100
AcDbEntity
  8
寸法線
 62
     0
100
AcDbTrace
 10
293.1352205826893
 20
286.8504861488798
 30
0.0
 11
293.1352205826893
 21
286.0171528155465
 31
0.0
 12
295.6352205826893
 22
286.4338194822131
 32
0.0
 13
295.6352205826893
 23
286.4338194822131
 33
0.0
  0
SOLID
  5
24BB
330
127E
100
AcDbEntity
  8
寸法線
 62
     0
100
AcDbTrace
 10
279.1356138791894
 20
286.8504861488798
 30
0.0
 11
279.1356138791894
 21
286.0171528155465
 31
0.0
 12
276.6356138791894
 22
286.4338194822131
 32
0.0
 13
276.6356138791894
 23
286.4338194822131
 33
0.0
  0
MTEXT
  5
24BC
330
127E
100
AcDbEntity
  8
寸法線
 62
     0
100
AcDbMText
 10
286.1354172309394
 20
288.8088194822131
 30
0.0
 40
3.5
 41
0.0
 71
     5
 72
     1
  1
19
 73
     1
 44
1.0
1001
ACAD
1000
MTEXTBEGIN
1070
    73
1070
     1
1070
    44
1040
1.0
1070
    74
1070
     0
1000
MTEXTEND
  0
POINT
  5
24BD
330
127E
100
AcDbEntity
  8
DEFPOINTS
 62
     0
100
AcDbPoint
 10
295.6352205826893
 20
277.6541707051575
 30
0.0
  0
POINT
  5
24BE
330
127E
100
AcDbEntity
  8
DEFPOINTS
 62
     0
100
AcDbPoint
 10
276.6356138791894
 20
274.0086673149818
 30
0.0
  0
POINT
  5
24BF
330
127E
100
AcDbEntity
  8
DEFPOINTS
 62
     0
100
AcDbPoint
 10
276.6356138791894
 20
286.4338194822131
 30
0.0
  0
ENDBLK
  5
1280
330
127E
100
AcDbEntity
  8
0
100
AcDbBlockEnd
  0
BLOCK
  5
19FE
330
19FD
100
AcDbEntity
  8
0
100
AcDbBlockBegin
  2
*D23
 70
     1
 10
0.0
 20
0.0
 30
0.0
  3
*D23
  1

  0
LINE
  5
24AE
330
19FD
100
AcDbEntity
  8
寸法線
 62
     0
370
    -2
100
AcDbLine
 10
82.78071021881997
 20
56.61397893674458
 30
0.0
 11
82.78071021881997
 21
109.4158252745264
 31
0.0
  0
LINE
  5
24AF
330
19FD
100
AcDbEntity
  8
寸法線
 62
     0
370
    -2
100
AcDbLine
 10
262.78071021882
 20
56.61397893674458
 30
0.0
 11
262.78071021882
 21
109.4158252745264
 31
0.0
  0
LINE
  5
24B0
330
19FD
100
AcDbEntity
  8
寸法線
 62
     0
370
    -2
100
AcDbLine
 10
85.28071021881997
 20
108.1658252745264
 30
0.0
 11
260.28071021882
 21
108.1658252745264
 31
0.0
  0
SOLID
  5
24B1
330
19FD
100
AcDbEntity
  8
寸法線
 62
     0
100
AcDbTrace
 10
85.28071021881997
 20
108.5824919411931
 30
0.0
 11
85.28071021881997
 21
107.7491586078597
 31
0.0
 12
82.78071021881997
 22
108.1658252745264
 32
0.0
 13
82.78071021881997
 23
108.1658252745264
 33
0.0
  0
SOLID
  5
24B2
330
19FD
100
AcDbEntity
  8
寸法線
 62
     0
100
AcDbTrace
 10
260.28071021882
 20
108.5824919411931
 30
0.0
 11
260.28071021882
 21
107.7491586078597
 31
0.0
 12
262.78071021882
 22
108.1658252745264
 32
0.0
 13
262.78071021882
 23
108.1658252745264
 33
0.0
  0
MTEXT
  5
24B3
330
19FD
100
AcDbEntity
  8
寸法線
 62
     0
100
AcDbMText
 10
172.78071021882
 20
112.7908252745264
 30
0.0
 40
8.0
 41
0.0
 71
     5
 72
     1
  1
180
 73
     1
 44
1.0
1001
ACAD
1000
MTEXTBEGIN
1070
    73
1070
     1
1070
    44
1040
1.0
1070
    74
1070
     0
1000
MTEXTEND
  0
POINT
  5
24B4
330
19FD
100
AcDbEntity
  8
DEFPOINTS
 62
     0
100
AcDbPoint
 10
82.78071021881997
 20
55.98897893674458
 30
0.0
  0
POINT
  5
24B5
330
19FD
100
AcDbEntity
  8
DEFPOINTS
 62
     0
100
AcDbPoint
 10
262.78071021882
 20
55.98897893674458
 30
0.0
  0
POINT
  5
24B6
330
19FD
100
AcDbEntity
  8
DEFPOINTS
 62
     0
100
AcDbPoint
 10
262.78071021882
 20
108.1658252745264
 30
0.0
  0
ENDBLK
  5
19FF
330
19FD
100
AcDbEntity
  8
0
100
AcDbBlockEnd
  0
BLOCK
  5
1A0A
330
1A09
100
AcDbEntity
  8
0
100
AcDbBlockBegin
  2
*D24
 70
     1
 10
0.0
 20
0.0
 30
0.0
  3
*D24
  1

  0
LINE
  5
24A5
330
1A09
100
AcDbEntity
  8
寸法線
 62
     0
370
    -2
100
AcDbLine
 10
306.3885339943019
 20
80.87693827702223
 30
0.0
 11
306.3885339943019
 21
66.35442550118671
 31
0.0
  0
LINE
  5
24A6
330
1A09
100
AcDbEntity
  8
寸法線
 62
     0
370
    -2
100
AcDbLine
 10
324.3885
 20
80.87693827702223
 30
0.0
 11
324.3885
 21
66.35442550118671
 31
0.0
  0
LINE
  5
24A7
330
1A09
100
AcDbEntity
  8
寸法線
 62
     0
370
    -2
100
AcDbLine
 10
308.8885339943019
 20
67.60442550118671
 30
0.0
 11
321.8885
 21
67.60442550118671
 31
0.0
  0
SOLID
  5
24A8
330
1A09
100
AcDbEntity
  8
寸法線
 62
     0
100
AcDbTrace
 10
308.8885339943019
 20
68.02109216785338
 30
0.0
 11
308.8885339943019
 21
67.18775883452003
 31
0.0
 12
306.3885339943019
 22
67.60442550118671
 32
0.0
 13
306.3885339943019
 23
67.60442550118671
 33
0.0
  0
SOLID
  5
24A9
330
1A09
100
AcDbEntity
  8
寸法線
 62
     0
100
AcDbTrace
 10
321.8885
 20
68.02109216785338
 30
0.0
 11
321.8885
 21
67.18775883452003
 31
0.0
 12
324.3885
 22
67.60442550118671
 32
0.0
 13
324.3885
 23
67.60442550118671
 33
0.0
  0
MTEXT
  5
24AA
330
1A09
100
AcDbEntity
  8
寸法線
 62
     0
100
AcDbMText
 10
315.388516997151
 20
69.97942550118671
 30
0.0
 40
3.5
 41
0.0
 71
     5
 72
     1
  1
18
 73
     1
 44
1.0
1001
ACAD
1000
MTEXTBEGIN
1070
    73
1070
     1
1070
    44
1040
1.0
1070
    74
1070
     0
1000
MTEXTEND
  0
POINT
  5
24AB
330
1A09
100
AcDbEntity
  8
DEFPOINTS
 62
     0
100
AcDbPoint
 10
306.3885339943019
 20
81.50193827702223
 30
0.0
  0
POINT
  5
24AC
330
1A09
100
AcDbEntity
  8
DEFPOINTS
 62
     0
100
AcDbPoint
 10
324.3885
 20
81.50193827702223
 30
0.0
  0
POINT
  5
24AD
330
1A09
100
AcDbEntity
  8
DEFPOINTS
 62
     0
100
AcDbPoint
 10
324.3885
 20
67.60442550118671
 30
0.0
  0
ENDBLK
  5
1A0B
330
1A09
100
AcDbEntity
  8
0
100
AcDbBlockEnd
  0
BLOCK
  5
1A16
330
1A15
100
AcDbEntity
  8
0
100
AcDbBlockBegin
  2
*D25
 70
     1
 10
0.0
 20
0.0
 30
0.0
  3
*D25
  1

  0
LINE
  5
249C
330
1A15
100
AcDbEntity
  8
寸法線
 62
     0
370
    -2
100
AcDbLine
 10
263.40571021882
 20
47.98899999999999
 30
0.0
 11
289.4574952529656
 21
47.98899999999998
 31
0.0
  0
LINE
  5
249D
330
1A15
100
AcDbEntity
  8
寸法線
 62
     0
370
    -2
100
AcDbLine
 10
264.03071021882
 20
55.98897893674458
 30
0.0
 11
289.4574952529656
 21
55.98897893674457
 31
0.0
  0
LINE
  5
249E
330
1A15
100
AcDbEntity
  8
寸法線
 62
     0
370
    -2
100
AcDbLine
 10
288.2074952529656
 20
50.48899999999999
 30
0.0
 11
288.2074952529656
 21
53.48897893674457
 31
0.0
  0
SOLID
  5
249F
330
1A15
100
AcDbEntity
  8
寸法線
 62
     0
100
AcDbTrace
 10
287.7908285862989
 20
50.48899999999999
 30
0.0
 11
288.6241619196323
 21
50.48899999999999
 31
0.0
 12
288.2074952529656
 22
47.98899999999998
 32
0.0
 13
288.2074952529656
 23
47.98899999999998
 33
0.0
  0
SOLID
  5
24A0
330
1A15
100
AcDbEntity
  8
寸法線
 62
     0
100
AcDbTrace
 10
287.7908285862989
 20
53.48897893674457
 30
0.0
 11
288.6241619196323
 21
53.48897893674457
 31
0.0
 12
288.2074952529656
 22
55.98897893674457
 32
0.0
 13
288.2074952529656
 23
55.98897893674457
 33
0.0
  0
MTEXT
  5
24A1
330
1A15
100
AcDbEntity
  8
寸法線
 62
     0
100
AcDbMText
 10
285.5824952529656
 20
51.98898946837232
 30
0.0
 40
4.0
 41
0.0
 71
     5
 72
     1
  1
8
 11
0.0000000000000001
 21
1.0
 31
0.0
 73
     1
 44
1.0
1001
ACAD
1000
MTEXTBEGIN
1070
    73
1070
     1
1070
    44
1040
1.0
1070
    74
1070
     0
1000
MTEXTEND
  0
POINT
  5
24A2
330
1A15
100
AcDbEntity
  8
DEFPOINTS
 62
     0
100
AcDbPoint
 10
262.78071021882
 20
47.98899999999999
 30
0.0
  0
POINT
  5
24A3
330
1A15
100
AcDbEntity
  8
DEFPOINTS
 62
     0
100
AcDbPoint
 10
263.40571021882
 20
55.98897893674458
 30
0.0
  0
POINT
  5
24A4
330
1A15
100
AcDbEntity
  8
DEFPOINTS
 62
     0
100
AcDbPoint
 10
288.2074952529656
 20
55.98897893674457
 30
0.0
  0
ENDBLK
  5
1A17
330
1A15
100
AcDbEntity
  8
0
100
AcDbBlockEnd
  0
BLOCK
  5
1AC8
330
1AC7
100
AcDbEntity
  8
0
100
AcDbBlockBegin
  2
*D26
 70
     1
 10
0.0
 20
0.0
 30
0.0
  3
*D26
  1

  0
LINE
  5
2493
330
1AC7
100
AcDbEntity
  8
寸法線
 62
     0
370
    -2
100
AcDbLine
 10
325.0135
 20
81.50193827702223
 30
0.0
 11
334.634459818094
 21
81.50193827702223
 31
0.0
  0
LINE
  5
2494
330
1AC7
100
AcDbEntity
  8
寸法線
 62
     0
370
    -2
100
AcDbLine
 10
325.0135
 20
95.50193827702223
 30
0.0
 11
334.634459818094
 21
95.50193827702223
 31
0.0
  0
LINE
  5
2495
330
1AC7
100
AcDbEntity
  8
寸法線
 62
     0
370
    -2
100
AcDbLine
 10
333.384459818094
 20
84.00193827702223
 30
0.0
 11
333.384459818094
 21
93.00193827702223
 31
0.0
  0
SOLID
  5
2496
330
1AC7
100
AcDbEntity
  8
寸法線
 62
     0
100
AcDbTrace
 10
332.9677931514273
 20
84.00193827702223
 30
0.0
 11
333.8011264847607
 21
84.00193827702223
 31
0.0
 12
333.384459818094
 22
81.50193827702223
 32
0.0
 13
333.384459818094
 23
81.50193827702223
 33
0.0
  0
SOLID
  5
2497
330
1AC7
100
AcDbEntity
  8
寸法線
 62
     0
100
AcDbTrace
 10
332.9677931514273
 20
93.00193827702223
 30
0.0
 11
333.8011264847607
 21
93.00193827702223
 31
0.0
 12
333.384459818094
 22
95.50193827702223
 32
0.0
 13
333.384459818094
 23
95.50193827702223
 33
0.0
  0
MTEXT
  5
2498
330
1AC7
100
AcDbEntity
  8
寸法線
 62
     0
100
AcDbMText
 10
330.759459818094
 20
88.50193827702229
 30
0.0
 40
4.0
 41
0.0
 71
     5
 72
     1
  1
14
 11
0.0000000000000001
 21
1.0
 31
0.0
 73
     1
 44
1.0
1001
ACAD
1000
MTEXTBEGIN
1070
    73
1070
     1
1070
    44
1040
1.0
1070
    74
1070
     0
1000
MTEXTEND
  0
POINT
  5
2499
330
1AC7
100
AcDbEntity
  8
DEFPOINTS
 62
     0
100
AcDbPoint
 10
324.3885
 20
81.50193827702223
 30
0.0
  0
POINT
  5
249A
330
1AC7
100
AcDbEntity
  8
DEFPOINTS
 62
     0
100
AcDbPoint
 10
324.3885
 20
95.50193827702223
 30
0.0
  0
POINT
  5
249B
330
1AC7
100
AcDbEntity
  8
DEFPOINTS
 62
     0
100
AcDbPoint
 10
333.384459818094
 20
95.50193827702223
 30
0.0
  0
ENDBLK
  5
1AC9
330
1AC7
100
AcDbEntity
  8
0
100
AcDbBlockEnd
  0
BLOCK
  5
1B22
330
1B21
100
AcDbEntity
  8
0
100
AcDbBlockBegin
  2
*D27
 70
     1
 10
0.0
 20
0.0
 30
0.0
  3
*D27
  1

  0
LINE
  5
248B
330
1B21
100
AcDbEntity
  8
寸法線
 62
     0
370
    -2
100
AcDbLine
 10
238.3057216516216
 20
100.88866062665
 30
0.0
 11
205.297815922499
 21
89.98057711511572
 31
0.0
  0
LINE
  5
248C
330
1B21
100
AcDbEntity
  8
寸法線
 62
     0
370
    -2
100
AcDbLine
 10
196.5624518532183
 20
87.09381169736008
 30
0.0
 11
194.1887116170012
 21
86.30936457297009
 31
0.0
  0
MTEXT
  5
248D
330
1B21
100
AcDbEntity
  8
寸法線
 62
     0
100
AcDbMText
 10
224.7047771569129
 20
99.68519204391469
 30
0.0
 40
5.0
 41
0.0
 71
     5
 72
     1
  1
2-M4ｻﾗ
 11
0.949496094486863
 21
0.3137788497559928
 31
0.0
 73
     1
 44
1.0
1001
ACAD
1000
MTEXTBEGIN
1070
    73
1070
     1
1070
    44
1040
1.0
1070
    74
1070
     0
1000
MTEXTEND
  0
LINE
  5
248E
330
1B21
100
AcDbEntity
  8
寸法線
 62
     0
370
    -2
100
AcDbLine
 10
198.9361920894355
 20
87.87825882175006
 30
0.0
 11
202.9240756862818
 21
89.19612999072572
 31
0.0
  0
SOLID
  5
248F
330
1B21
100
AcDbEntity
  8
寸法線
 62
     0
100
AcDbTrace
 10
196.43171066582
 20
87.48943507006293
 30
0.0
 11
196.6931930406166
 21
86.69818832465722
 31
0.0
 12
198.9361920894355
 22
87.87825882175006
 32
0.0
 13
198.9361920894355
 23
87.87825882175006
 33
0.0
  0
SOLID
  5
2490
330
1B21
100
AcDbEntity
  8
寸法線
 62
     0
100
AcDbTrace
 10
205.1670747351006
 20
90.37620048781858
 30
0.0
 11
205.4285571098973
 21
89.58495374241286
 31
0.0
 12
202.9240756862818
 22
89.19612999072572
 32
0.0
 13
202.9240756862818
 23
89.19612999072572
 33
0.0
  0
POINT
  5
2491
330
1B21
100
AcDbEntity
  8
DEFPOINTS
 62
     0
100
AcDbPoint
 10
202.9240756862818
 20
89.19612999072572
 30
0.0
  0
POINT
  5
2492
330
1B21
100
AcDbEntity
  8
DEFPOINTS
 62
     0
100
AcDbPoint
 10
198.9361920894355
 20
87.87825882175006
 30
0.0
  0
ENDBLK
  5
1B23
330
1B21
100
AcDbEntity
  8
0
100
AcDbBlockEnd
  0
BLOCK
  5
1BB3
330
1BB2
100
AcDbEntity
  8
0
100
AcDbBlockBegin
  2
*D28
 70
     1
 10
0.0
 20
0.0
 30
0.0
  3
*D28
  1

  0
LINE
  5
2482
330
1BB2
100
AcDbEntity
  8
寸法線
 62
     0
370
    -2
100
AcDbLine
 10
150.9071880090482
 20
87.91578173649881
 30
0.0
 11
150.9071880090482
 21
68.39725503616636
 31
0.0
  0
LINE
  5
2483
330
1BB2
100
AcDbEntity
  8
寸法線
 62
     0
370
    -2
100
AcDbLine
 10
200.9071880090482
 20
87.91578173649881
 30
0.0
 11
200.9071880090482
 21
68.39725503616636
 31
0.0
  0
LINE
  5
2484
330
1BB2
100
AcDbEntity
  8
寸法線
 62
     0
370
    -2
100
AcDbLine
 10
153.4071880090482
 20
69.64725503616636
 30
0.0
 11
198.4071880090482
 21
69.64725503616636
 31
0.0
  0
SOLID
  5
2485
330
1BB2
100
AcDbEntity
  8
寸法線
 62
     0
100
AcDbTrace
 10
153.4071880090482
 20
70.06392170283302
 30
0.0
 11
153.4071880090482
 21
69.23058836949969
 31
0.0
 12
150.9071880090482
 22
69.64725503616636
 32
0.0
 13
150.9071880090482
 23
69.64725503616636
 33
0.0
  0
SOLID
  5
2486
330
1BB2
100
AcDbEntity
  8
寸法線
 62
     0
100
AcDbTrace
 10
198.4071880090482
 20
70.06392170283302
 30
0.0
 11
198.4071880090482
 21
69.23058836949969
 31
0.0
 12
200.9071880090482
 22
69.64725503616636
 32
0.0
 13
200.9071880090482
 23
69.64725503616636
 33
0.0
  0
MTEXT
  5
2487
330
1BB2
100
AcDbEntity
  8
寸法線
 62
     0
100
AcDbMText
 10
177.7706614990379
 20
72.77225503616636
 30
0.0
 40
5.0
 41
0.0
 71
     5
 72
     1
  1
穴ピッチ 50
 73
     1
 44
1.0
1001
ACAD
1000
MTEXTBEGIN
1070
    73
1070
     1
1070
    44
1040
1.0
1070
    74
1070
     0
1000
MTEXTEND
  0
POINT
  5
2488
330
1BB2
100
AcDbEntity
  8
DEFPOINTS
 62
     0
100
AcDbPoint
 10
150.9071880090482
 20
88.54078173649881
 30
0.0
  0
POINT
  5
2489
330
1BB2
100
AcDbEntity
  8
DEFPOINTS
 62
     0
100
AcDbPoint
 10
200.9071880090482
 20
88.54078173649881
 30
0.0
  0
POINT
  5
248A
330
1BB2
100
AcDbEntity
  8
DEFPOINTS
 62
     0
100
AcDbPoint
 10
200.9071880090482
 20
69.64725503616636
 30
0.0
  0
ENDBLK
  5
1BB4
330
1BB2
100
AcDbEntity
  8
0
100
AcDbBlockEnd
  0
BLOCK
  5
1DDA
330
1DD9
100
AcDbEntity
  8
0
100
AcDbBlockBegin
  2
*D29
 70
     1
 10
0.0
 20
0.0
 30
0.0
  3
*D29
  1

  0
LINE
  5
1DDB
330
1DD9
100
AcDbEntity
  8
寸法線
 62
     0
370
    -2
100
AcDbLine
 10
264.9173706408963
 20
189.9356418504586
 30
0.0
 11
264.9173706408963
 21
217.4954349432421
 31
0.0
  0
LINE
  5
1DDC
330
1DD9
100
AcDbEntity
  8
寸法線
 62
     0
370
    -2
100
AcDbLine
 10
307.7782726057307
 20
208.8197554904912
 30
0.0
 11
307.7782726057307
 21
217.4954349432421
 31
0.0
  0
LINE
  5
1DDD
330
1DD9
100
AcDbEntity
  8
寸法線
 62
     0
370
    -2
100
AcDbLine
 10
267.4173706408964
 20
216.2454349432421
 30
0.0
 11
305.2782726057306
 21
216.2454349432421
 31
0.0
  0
SOLID
  5
1DDE
330
1DD9
100
AcDbEntity
  8
寸法線
 62
     0
100
AcDbTrace
 10
267.4173706408964
 20
216.6621016099088
 30
0.0
 11
267.4173706408964
 21
215.8287682765755
 31
0.0
 12
264.9173706408963
 22
216.2454349432421
 32
0.0
 13
264.9173706408963
 23
216.2454349432421
 33
0.0
  0
SOLID
  5
1DDF
330
1DD9
100
AcDbEntity
  8
寸法線
 62
     0
100
AcDbTrace
 10
305.2782726057306
 20
216.6621016099088
 30
0.0
 11
305.2782726057306
 21
215.8287682765755
 31
0.0
 12
307.7782726057307
 22
216.2454349432421
 32
0.0
 13
307.7782726057307
 23
216.2454349432421
 33
0.0
  0
MTEXT
  5
1DE0
330
1DD9
100
AcDbEntity
  8
寸法線
 62
     0
100
AcDbMText
 10
286.3478216233135
 20
218.6204349432421
 30
0.0
 40
3.5
 41
0.0
 71
     5
 72
     1
  1
(43)
 73
     1
 44
1.0
1001
ACAD
1000
MTEXTBEGIN
1070
    73
1070
     1
1070
    44
1040
1.0
1070
    74
1070
     0
1000
MTEXTEND
  0
POINT
  5
1DE1
330
1DD9
100
AcDbEntity
  8
DEFPOINTS
 62
     0
100
AcDbPoint
 10
264.9173706408963
 20
189.3106418504586
 30
0.0
  0
POINT
  5
1DE2
330
1DD9
100
AcDbEntity
  8
DEFPOINTS
 62
     0
100
AcDbPoint
 10
307.7782726057307
 20
208.1947554904912
 30
0.0
  0
POINT
  5
1DE3
330
1DD9
100
AcDbEntity
  8
DEFPOINTS
 62
     0
100
AcDbPoint
 10
307.7782726057307
 20
216.2454349432421
 30
0.0
  0
ENDBLK
  5
1DE4
330
1DD9
100
AcDbEntity
  8
0
100
AcDbBlockEnd
  0
BLOCK
  5
1DE6
330
1DE5
100
AcDbEntity
  8
0
100
AcDbBlockBegin
  2
*D30
 70
     1
 10
0.0
 20
0.0
 30
0.0
  3
*D30
  1

  0
LINE
  5
1DE7
330
1DE5
100
AcDbEntity
  8
寸法線
 62
     0
370
    -2
100
AcDbLine
 10
303.2782726057306
 20
171.8197554904903
 30
0.0
 11
303.2782726057306
 21
202.7859771384589
 31
0.0
  0
LINE
  5
1DE8
330
1DE5
100
AcDbEntity
  8
寸法線
 62
     0
370
    -2
100
AcDbLine
 10
307.7782726057307
 20
199.3197554904903
 30
0.0
 11
307.7782726057307
 21
202.7859771384589
 31
0.0
  0
LINE
  5
1DE9
330
1DE5
100
AcDbEntity
  8
寸法線
 62
     0
370
    -2
100
AcDbLine
 10
310.2782726057307
 20
201.5359771384589
 30
0.0
 11
312.7782726057307
 21
201.5359771384589
 31
0.0
  0
LINE
  5
1DEA
330
1DE5
100
AcDbEntity
  8
寸法線
 62
     0
370
    -2
100
AcDbLine
 10
300.7782726057306
 20
201.5359771384589
 30
0.0
 11
286.1949392723973
 21
201.5359771384589
 31
0.0
  0
LINE
  5
1DEB
330
1DE5
100
AcDbEntity
  8
寸法線
 62
     0
370
    -2
100
AcDbLine
 10
307.7782726057307
 20
201.5359771384589
 30
0.0
 11
303.2782726057306
 21
201.5359771384589
 31
0.0
  0
SOLID
  5
1DEC
330
1DE5
100
AcDbEntity
  8
寸法線
 62
     0
100
AcDbTrace
 10
310.2782726057307
 20
201.9526438051256
 30
0.0
 11
310.2782726057307
 21
201.1193104717923
 31
0.0
 12
307.7782726057307
 22
201.5359771384589
 32
0.0
 13
307.7782726057307
 23
201.5359771384589
 33
0.0
  0
SOLID
  5
1DED
330
1DE5
100
AcDbEntity
  8
寸法線
 62
     0
100
AcDbTrace
 10
300.7782726057306
 20
201.9526438051256
 30
0.0
 11
300.7782726057306
 21
201.1193104717923
 31
0.0
 12
303.2782726057306
 22
201.5359771384589
 32
0.0
 13
303.2782726057306
 23
201.5359771384589
 33
0.0
  0
MTEXT
  5
1DEE
330
1DE5
100
AcDbEntity
  8
寸法線
 62
     0
100
AcDbMText
 10
291.8199392723973
 20
203.6609771384589
 30
0.0
 40
3.0
 41
0.0
 71
     5
 72
     1
  1
(4.5)
 73
     1
 44
1.0
1001
ACAD
1000
MTEXTBEGIN
1070
    73
1070
     1
1070
    44
1040
1.0
1070
    74
1070
     0
1000
MTEXTEND
  0
POINT
  5
1DEF
330
1DE5
100
AcDbEntity
  8
DEFPOINTS
 62
     0
100
AcDbPoint
 10
303.2782726057306
 20
171.1947554904903
 30
0.0
  0
POINT
  5
1DF0
330
1DE5
100
AcDbEntity
  8
DEFPOINTS
 62
     0
100
AcDbPoint
 10
307.7782726057307
 20
198.6947554904903
 30
0.0
  0
POINT
  5
1DF1
330
1DE5
100
AcDbEntity
  8
DEFPOINTS
 62
     0
100
AcDbPoint
 10
307.7782726057307
 20
201.5359771384589
 30
0.0
  0
ENDBLK
  5
1DF2
330
1DE5
100
AcDbEntity
  8
0
100
AcDbBlockEnd
  0
BLOCK
  5
1DF4
330
1DF3
100
AcDbEntity
  8
0
100
AcDbBlockBegin
  2
*D31
 70
     1
 10
0.0
 20
0.0
 30
0.0
  3
*D31
  1

  0
LINE
  5
1DF5
330
1DF3
100
AcDbEntity
  8
寸法線
 62
     0
370
    -2
100
AcDbLine
 10
303.2782726057306
 20
185.8697554904914
 30
0.0
 11
303.2782726057306
 21
173.2930049904581
 31
0.0
  0
LINE
  5
1DF6
330
1DF3
100
AcDbEntity
  8
寸法線
 62
     0
370
    -2
100
AcDbLine
 10
313.2782726057306
 20
185.8697554904914
 30
0.0
 11
313.2782726057306
 21
173.2930049904581
 31
0.0
  0
LINE
  5
1DF7
330
1DF3
100
AcDbEntity
  8
寸法線
 62
     0
370
    -2
100
AcDbLine
 10
305.7782726057307
 20
174.5430049904581
 30
0.0
 11
310.7782726057306
 21
174.5430049904581
 31
0.0
  0
LINE
  5
1DF8
330
1DF3
100
AcDbEntity
  8
寸法線
 62
     0
370
    -2
100
AcDbLine
 10
313.2782726057306
 20
174.5430049904581
 30
0.0
 11
326.576335164662
 21
174.5430049904581
 31
0.0
  0
SOLID
  5
1DF9
330
1DF3
100
AcDbEntity
  8
寸法線
 62
     0
100
AcDbTrace
 10
305.7782726057307
 20
174.9596716571246
 30
0.0
 11
305.7782726057307
 21
174.1263383237914
 31
0.0
 12
303.2782726057306
 22
174.5430049904581
 32
0.0
 13
303.2782726057306
 23
174.5430049904581
 33
0.0
  0
SOLID
  5
1DFA
330
1DF3
100
AcDbEntity
  8
寸法線
 62
     0
100
AcDbTrace
 10
310.7782726057306
 20
174.9596716571246
 30
0.0
 11
310.7782726057306
 21
174.1263383237914
 31
0.0
 12
313.2782726057306
 22
174.5430049904581
 32
0.0
 13
313.2782726057306
 23
174.5430049904581
 33
0.0
  0
MTEXT
  5
1DFB
330
1DF3
100
AcDbEntity
  8
寸法線
 62
     0
100
AcDbMText
 10
323.9096684979953
 20
176.9180049904581
 30
0.0
 40
3.5
 41
0.0
 71
     5
 72
     1
  1
10
 73
     1
 44
1.0
1001
ACAD
1000
MTEXTBEGIN
1070
    73
1070
     1
1070
    44
1040
1.0
1070
    74
1070
     0
1000
MTEXTEND
  0
POINT
  5
1DFC
330
1DF3
100
AcDbEntity
  8
DEFPOINTS
 62
     0
100
AcDbPoint
 10
303.2782726057306
 20
186.4947554904914
 30
0.0
  0
POINT
  5
1DFD
330
1DF3
100
AcDbEntity
  8
DEFPOINTS
 62
     0
100
AcDbPoint
 10
313.2782726057306
 20
186.4947554904914
 30
0.0
  0
POINT
  5
1DFE
330
1DF3
100
AcDbEntity
  8
DEFPOINTS
 62
     0
100
AcDbPoint
 10
313.2782726057306
 20
174.5430049904581
 30
0.0
  0
ENDBLK
  5
1DFF
330
1DF3
100
AcDbEntity
  8
0
100
AcDbBlockEnd
  0
BLOCK
  5
1E01
330
1E00
100
AcDbEntity
  8
0
100
AcDbBlockBegin
  2
*D32
 70
     1
 10
0.0
 20
0.0
 30
0.0
  3
*D32
  1

  0
LINE
  5
1E02
330
1E00
100
AcDbEntity
  8
寸法線
 62
     0
370
    -2
100
AcDbLine
 10
313.9032726057306
 20
196.4947554904914
 30
0.0
 11
324.5066558299308
 21
196.4947554904913
 31
0.0
  0
LINE
  5
1E03
330
1E00
100
AcDbEntity
  8
寸法線
 62
     0
370
    -2
100
AcDbLine
 10
306.7782726057306
 20
209.1947554904912
 30
0.0
 11
324.5066558299308
 21
209.1947554904912
 31
0.0
  0
LINE
  5
1E04
330
1E00
100
AcDbEntity
  8
寸法線
 62
     0
370
    -2
100
AcDbLine
 10
323.2566558299307
 20
198.9947554904913
 30
0.0
 11
323.2566558299307
 21
206.6947554904912
 31
0.0
  0
SOLID
  5
1E05
330
1E00
100
AcDbEntity
  8
寸法線
 62
     0
100
AcDbTrace
 10
322.8399891632641
 20
198.9947554904913
 30
0.0
 11
323.6733224965974
 21
198.9947554904913
 31
0.0
 12
323.2566558299307
 22
196.4947554904913
 32
0.0
 13
323.2566558299307
 23
196.4947554904913
 33
0.0
  0
SOLID
  5
1E06
330
1E00
100
AcDbEntity
  8
寸法線
 62
     0
100
AcDbTrace
 10
322.8399891632641
 20
206.6947554904912
 30
0.0
 11
323.6733224965974
 21
206.6947554904912
 31
0.0
 12
323.2566558299307
 22
209.1947554904912
 32
0.0
 13
323.2566558299307
 23
209.1947554904912
 33
0.0
  0
MTEXT
  5
1E07
330
1E00
100
AcDbEntity
  8
寸法線
 62
     0
100
AcDbMText
 10
320.589989163264
 20
202.8447554904913
 30
0.0
 40
3.5
 41
0.0
 71
     5
 72
     1
  1
12,7
 11
0.0000000000000001
 21
1.0
 31
0.0
 73
     1
 44
1.0
1001
ACAD
1000
MTEXTBEGIN
1070
    73
1070
     1
1070
    44
1040
1.0
1070
    74
1070
     0
1000
MTEXTEND
  0
POINT
  5
1E08
330
1E00
100
AcDbEntity
  8
DEFPOINTS
 62
     0
100
AcDbPoint
 10
313.2782726057306
 20
196.4947554904914
 30
0.0
  0
POINT
  5
1E09
330
1E00
100
AcDbEntity
  8
DEFPOINTS
 62
     0
100
AcDbPoint
 10
306.1532726057306
 20
209.1947554904912
 30
0.0
  0
POINT
  5
1E0A
330
1E00
100
AcDbEntity
  8
DEFPOINTS
 62
     0
100
AcDbPoint
 10
323.2566558299307
 20
209.1947554904912
 30
0.0
  0
ENDBLK
  5
1E0B
330
1E00
100
AcDbEntity
  8
0
100
AcDbBlockEnd
  0
BLOCK
  5
1E0D
330
1E0C
100
AcDbEntity
  8
0
100
AcDbBlockBegin
  2
*D33
 70
     1
 10
0.0
 20
0.0
 30
0.0
  3
*D33
  1

  0
LINE
  5
1E0E
330
1E0C
100
AcDbEntity
  8
寸法線
 62
     0
370
    -2
100
AcDbLine
 10
313.9032726057306
 20
196.4947554904914
 30
0.0
 11
324.5066558299308
 21
196.4947554904913
 31
0.0
  0
LINE
  5
1E0F
330
1E0C
100
AcDbEntity
  8
寸法線
 62
     0
370
    -2
100
AcDbLine
 10
313.9032726057306
 20
186.4947554904914
 30
0.0
 11
324.5066558299308
 21
186.4947554904913
 31
0.0
  0
LINE
  5
1E10
330
1E0C
100
AcDbEntity
  8
寸法線
 62
     0
370
    -2
100
AcDbLine
 10
323.2566558299307
 20
193.9947554904913
 30
0.0
 11
323.2566558299307
 21
188.9947554904914
 31
0.0
  0
SOLID
  5
1E11
330
1E0C
100
AcDbEntity
  8
寸法線
 62
     0
100
AcDbTrace
 10
322.8399891632641
 20
193.9947554904913
 30
0.0
 11
323.6733224965974
 21
193.9947554904913
 31
0.0
 12
323.2566558299307
 22
196.4947554904913
 32
0.0
 13
323.2566558299307
 23
196.4947554904913
 33
0.0
  0
SOLID
  5
1E12
330
1E0C
100
AcDbEntity
  8
寸法線
 62
     0
100
AcDbTrace
 10
322.8399891632641
 20
188.9947554904914
 30
0.0
 11
323.6733224965974
 21
188.9947554904914
 31
0.0
 12
323.2566558299307
 22
186.4947554904913
 32
0.0
 13
323.2566558299307
 23
186.4947554904913
 33
0.0
  0
MTEXT
  5
1E13
330
1E0C
100
AcDbEntity
  8
寸法線
 62
     0
100
AcDbMText
 10
320.8816558299307
 20
191.4947554904914
 30
0.0
 40
3.5
 41
0.0
 71
     5
 72
     1
  1
10
 11
0.0000000000000001
 21
1.0
 31
0.0
 73
     1
 44
1.0
1001
ACAD
1000
MTEXTBEGIN
1070
    73
1070
     1
1070
    44
1040
1.0
1070
    74
1070
     0
1000
MTEXTEND
  0
POINT
  5
1E14
330
1E0C
100
AcDbEntity
  8
DEFPOINTS
 62
     0
100
AcDbPoint
 10
313.2782726057306
 20
196.4947554904914
 30
0.0
  0
POINT
  5
1E15
330
1E0C
100
AcDbEntity
  8
DEFPOINTS
 62
     0
100
AcDbPoint
 10
313.2782726057306
 20
186.4947554904914
 30
0.0
  0
POINT
  5
1E16
330
1E0C
100
AcDbEntity
  8
DEFPOINTS
 62
     0
100
AcDbPoint
 10
323.2566558299307
 20
186.4947554904913
 30
0.0
  0
ENDBLK
  5
1E17
330
1E0C
100
AcDbEntity
  8
0
100
AcDbBlockEnd
  0
BLOCK
  5
1E19
330
1E18
100
AcDbEntity
  8
0
100
AcDbBlockBegin
  2
*D34
 70
     1
 10
0.0
 20
0.0
 30
0.0
  3
*D34
  1

  0
LINE
  5
1E1A
330
1E18
100
AcDbEntity
  8
寸法線
 62
     0
370
    -2
100
AcDbLine
 10
267.1532726057307
 20
209.1947554904912
 30
0.0
 11
255.340533672775
 21
209.1947554904912
 31
0.0
  0
LINE
  5
1E1B
330
1E18
100
AcDbEntity
  8
寸法線
 62
     0
370
    -2
100
AcDbLine
 10
302.6532726057307
 20
171.1947554904903
 30
0.0
 11
255.340533672775
 21
171.1947554904903
 31
0.0
  0
LINE
  5
1E1C
330
1E18
100
AcDbEntity
  8
寸法線
 62
     0
370
    -2
100
AcDbLine
 10
256.590533672775
 20
206.6947554904912
 30
0.0
 11
256.590533672775
 21
173.6947554904903
 31
0.0
  0
SOLID
  5
1E1D
330
1E18
100
AcDbEntity
  8
寸法線
 62
     0
100
AcDbTrace
 10
256.1738670061083
 20
206.6947554904912
 30
0.0
 11
257.0072003394417
 21
206.6947554904912
 31
0.0
 12
256.590533672775
 22
209.1947554904912
 32
0.0
 13
256.590533672775
 23
209.1947554904912
 33
0.0
  0
SOLID
  5
1E1E
330
1E18
100
AcDbEntity
  8
寸法線
 62
     0
100
AcDbTrace
 10
256.1738670061083
 20
173.6947554904903
 30
0.0
 11
257.0072003394417
 21
173.6947554904903
 31
0.0
 12
256.590533672775
 22
171.1947554904903
 32
0.0
 13
256.590533672775
 23
171.1947554904903
 33
0.0
  0
MTEXT
  5
1E1F
330
1E18
100
AcDbEntity
  8
寸法線
 62
     0
100
AcDbMText
 10
254.2155336727749
 20
190.1947554904906
 30
0.0
 40
3.5
 41
0.0
 71
     5
 72
     1
  1
38
 11
0.0000000000000001
 21
1.0
 31
0.0
 73
     1
 44
1.0
1001
ACAD
1000
MTEXTBEGIN
1070
    73
1070
     1
1070
    44
1040
1.0
1070
    74
1070
     0
1000
MTEXTEND
  0
POINT
  5
1E20
330
1E18
100
AcDbEntity
  8
DEFPOINTS
 62
     0
100
AcDbPoint
 10
267.7782726057306
 20
209.1947554904912
 30
0.0
  0
POINT
  5
1E21
330
1E18
100
AcDbEntity
  8
DEFPOINTS
 62
     0
100
AcDbPoint
 10
303.2782726057306
 20
171.1947554904903
 30
0.0
  0
POINT
  5
1E22
330
1E18
100
AcDbEntity
  8
DEFPOINTS
 62
     0
100
AcDbPoint
 10
256.590533672775
 20
171.1947554904903
 30
0.0
  0
ENDBLK
  5
1E23
330
1E18
100
AcDbEntity
  8
0
100
AcDbBlockEnd
  0
BLOCK
  5
1E47
330
1E24
100
AcDbEntity
  8
0
100
AcDbBlockBegin
  2
A$C334379C2
 70
     0
 10
0.0
 20
0.0
 30
0.0
  3
A$C334379C2
  1

  0
LINE
  5
1E25
102
{ACAD_REACTORS
330
1E3C
102
}
330
1E24
100
AcDbEntity
  8
電気錠
  6
Continuous
 62
     7
100
AcDbLine
 10
50.81273862834439
 20
15.30000024350107
 30
0.0
 11
60.81273862834439
 21
15.30000024350107
 31
0.0
  0
LINE
  5
1E26
102
{ACAD_REACTORS
330
1E3C
330
1E42
102
}
330
1E24
100
AcDbEntity
  8
電気錠
  6
Continuous
 62
     7
100
AcDbLine
 10
60.81273862834439
 20
15.30000024350107
 30
0.0
 11
60.81273862834439
 21
25.30000024350107
 31
0.0
  0
LINE
  5
1E27
102
{ACAD_REACTORS
330
1E3F
330
1E42
102
}
330
1E24
100
AcDbEntity
  8
電気錠
  6
Continuous
 62
     7
100
AcDbLine
 10
60.81273862834439
 20
25.30000024350107
 30
0.0
 11
50.97970835034482
 21
25.30000024350107
 31
0.0
  0
ARC
  5
1E28
330
1E24
100
AcDbEntity
  8
電気錠
  6
Continuous
 62
     7
100
AcDbCircle
 10
42.31265568434479
 20
15.2294549994013
 30
0.0
 40
30.0
100
AcDbArc
 50
158.9600889793986
 51
206.6884063062933
  0
ARC
  5
1E29
330
1E24
100
AcDbEntity
  8
電気錠
  6
Continuous
 62
     7
100
AcDbCircle
 10
16.4106616150442
 20
2.187306406201115
 30
0.0
 40
1.0
100
AcDbArc
 50
205.5944206819945
 51
270.5944206820019
  0
LINE
  5
1E2A
330
1E24
100
AcDbEntity
  8
電気錠
  6
Continuous
 62
     7
100
AcDbLine
 10
14.31273862834439
 20
26.0000002435009
 30
0.0
 11
14.31273862834439
 21
37.00000024350089
 31
0.0
  0
ARC
  5
1E2B
330
1E24
100
AcDbEntity
  8
電気錠
  6
Continuous
 62
     7
100
AcDbCircle
 10
15.31273862834439
 20
37.00000024350089
 30
0.0
 40
1.0
100
AcDbArc
 50
90.0
 51
180.0
  0
LINE
  5
1E2C
330
1E24
100
AcDbEntity
  8
電気錠
  6
Continuous
 62
     7
100
AcDbLine
 10
50.81273862834439
 20
0.0000002434999828
 30
0.0
 11
16.37618677934404
 21
1.187900840000168
 31
0.0
  0
LINE
  5
1E2D
330
1E24
100
AcDbEntity
  8
電気錠
  6
Continuous
 62
     7
100
AcDbLine
 10
54.31273862834439
 20
38.00000024350089
 30
0.0
 11
15.31273862834439
 21
38.00000024350089
 31
0.0
  0
LINE
  5
1E2E
102
{ACAD_REACTORS
330
1E39
102
}
330
1E24
100
AcDbEntity
  8
電気錠
  6
Continuous
 62
     7
100
AcDbLine
 10
50.81273862834439
 20
24.50000024350089
 30
0.0
 11
50.81273862834439
 21
0.0000002434999828
 31
0.0
  0
LINE
  5
1E2F
330
1E24
100
AcDbEntity
  8
電気錠
  6
Continuous
 62
     7
100
AcDbLine
 10
52.81273862834439
 20
26.5000002435018
 30
0.0
 11
54.31273862834439
 21
26.5000002435018
 31
0.0
  0
ARC
  5
1E30
330
1E24
100
AcDbEntity
  8
電気錠
  6
Continuous
 62
     7
100
AcDbCircle
 10
52.81273862834439
 20
24.50000024350089
 30
0.0
 40
2.0
100
AcDbArc
 50
90.0
 51
180.0
  0
ARC
  5
1E31
330
1E24
100
AcDbEntity
  8
電気錠
  6
Continuous
 62
     7
100
AcDbCircle
 10
54.31273862834439
 20
27.50000024349998
 30
0.0
 40
1.0
100
AcDbArc
 50
270.0
 51
0.0
  0
LINE
  5
1E32
102
{ACAD_REACTORS
330
1E36
330
1E39
102
}
330
1E24
100
AcDbEntity
  8
電気錠
  6
Continuous
 62
     7
100
AcDbLine
 10
55.31273862834439
 20
37.00000024350089
 30
0.0
 11
55.31273862834439
 21
27.50000024349998
 31
0.0
  0
ARC
  5
1E33
330
1E24
100
AcDbEntity
  8
電気錠
  6
Continuous
 62
     7
100
AcDbCircle
 10
54.31273862834439
 20
37.00000024350089
 30
0.0
 40
1.0
100
AcDbArc
 50
0.0
 51
90.0
  0
DIMENSION
  5
1E34
102
{ACAD_XDICTIONARY
360
1E35
102
}
102
{ACAD_REACTORS
330
1E36
102
}
330
1E24
100
AcDbEntity
  8
寸法線
 62
     5
100
AcDbDimension
  2
*D29
 10
55.31273862834439
 20
45.05067969625179
 30
0.0
 11
33.88228764592725
 21
47.42567969625179
 31
0.0
 12
-252.4655339773862
 22
-171.1947552469903
 32
0.0
  1
(43)
 71
     5
 42
42.86090196483427
  3
ISO-25
100
AcDbAlignedDimension
 13
12.4518366635101
 23
18.11588660346824
 33
0.0
 14
55.31273862834439
 24
37.00000024350089
 34
0.0
 50
180.0
100
AcDbRotatedDimension
1001
ACAD
1000
DSTYLE
1002
{
1070
   140
1040
3.5
1002
}
  0
DIMENSION
  5
1E37
102
{ACAD_XDICTIONARY
360
1E38
102
}
102
{ACAD_REACTORS
330
1E39
102
}
330
1E24
100
AcDbEntity
  8
寸法線
 62
     5
100
AcDbDimension
  2
*D30
 10
55.31273862834439
 20
30.34122189146859
 30
0.0
 11
39.35440529501103
 21
30.34122189146859
 31
0.0
 12
-252.4655339773862
 22
-171.1947552469903
 32
0.0
 70
   128
  1
(4.5)
 71
     5
 42
4.5
  3
ISO-25
100
AcDbAlignedDimension
 13
50.81273862834439
 23
0.0000002434999828
 33
0.0
 14
55.31273862834439
 24
27.50000024349998
 34
0.0
 50
180.0
100
AcDbRotatedDimension
1001
ACAD
1000
DSTYLE
1002
{
1070
   140
1040
3.0
1002
}
  0
DIMENSION
  5
1E3A
102
{ACAD_XDICTIONARY
360
1E3B
102
}
102
{ACAD_REACTORS
330
1E3C
102
}
330
1E24
100
AcDbEntity
  8
寸法線
 62
     5
100
AcDbDimension
  2
*D31
 10
60.81273862834439
 20
3.348249743467761
 30
0.0
 11
71.44413452060907
 21
3.348249743467761
 31
0.0
 12
-252.4655339773862
 22
-171.1947552469903
 32
0.0
 70
   128
 71
     5
 42
10.0
  3
ISO-25
100
AcDbAlignedDimension
 13
50.81273862834439
 23
15.30000024350107
 33
0.0
 14
60.81273862834439
 24
15.30000024350107
 34
0.0
 50
180.0
100
AcDbRotatedDimension
1001
ACAD
1000
DSTYLE
1002
{
1070
   140
1040
3.5
1002
}
  0
DIMENSION
  5
1E3D
102
{ACAD_XDICTIONARY
360
1E3E
102
}
102
{ACAD_REACTORS
330
1E3F
102
}
330
1E24
100
AcDbEntity
  8
寸法線
 62
     5
100
AcDbDimension
  2
*D32
 10
70.79112185254452
 20
38.00000024350087
 30
0.0
 11
68.12445518587776
 21
31.65000024350101
 31
0.0
 12
-252.4655339773862
 22
-171.1947552469903
 32
0.0
 71
     5
 42
12.69999999999982
  3
ISO-25
100
AcDbAlignedDimension
 13
60.81273862834439
 23
25.30000024350107
 33
0.0
 14
53.68773862834439
 24
38.00000024350089
 34
0.0
 50
270.0
100
AcDbRotatedDimension
1001
ACAD
1000
DSTYLE
1002
{
1070
   140
1040
3.5
1002
}
  0
DIMENSION
  5
1E40
102
{ACAD_XDICTIONARY
360
1E41
102
}
102
{ACAD_REACTORS
330
1E42
102
}
330
1E24
100
AcDbEntity
  8
寸法線
 62
     5
100
AcDbDimension
  2
*D33
 10
70.79112185254452
 20
15.30000024350104
 30
0.0
 11
68.41612185254445
 21
20.3000002435011
 31
0.0
 12
-252.4655339773862
 22
-171.1947552469903
 32
0.0
 71
     5
 42
10.0
  3
ISO-25
100
AcDbAlignedDimension
 13
60.81273862834439
 23
25.30000024350107
 33
0.0
 14
60.81273862834439
 24
15.30000024350107
 34
0.0
 50
270.0
100
AcDbRotatedDimension
1001
ACAD
1000
DSTYLE
1002
{
1070
   140
1040
3.5
1002
}
  0
DIMENSION
  5
1E43
330
1E24
100
AcDbEntity
  8
寸法線
 62
     5
100
AcDbDimension
  2
*D34
 10
4.124999695388736
 20
0.0000002434999828
 30
0.0
 11
1.749999695388679
 21
19.00000024350046
 31
0.0
 12
-252.4655339773862
 22
-171.1947552469903
 32
0.0
 71
     5
 42
38.00000000000091
  3
ISO-25
100
AcDbAlignedDimension
 13
15.31273862834439
 23
38.00000024350089
 33
0.0
 14
50.81273862834439
 24
0.0000002434999828
 34
0.0
 50
270.0
100
AcDbRotatedDimension
1001
ACAD
1000
DSTYLE
1002
{
1070
   140
1040
3.5
1002
}
  0
MTEXT
  5
1E44
330
1E24
100
AcDbEntity
  8
補足
100
AcDbMText
 10
13.75868137746556
 20
63.08793851917989
 30
0.0
 40
5.0
 41
57.60420509074203
 71
     1
 72
     5
  1
Ａ－Ａ' 断面
  7
BIGFONT
 73
     1
 44
1.0
1001
ACAD
1000
MTEXTBEGIN
1070
    73
1070
     1
1070
    44
1040
1.0
1070
    74
1070
     0
1000
MTEXTEND
  0
ENDBLK
  5
1E48
330
1E24
100
AcDbEntity
  8
0
100
AcDbBlockEnd
  0
BLOCK
  5
1F2D
330
1F2C
100
AcDbEntity
  8
0
100
AcDbBlockBegin
  2
*D36
 70
     1
 10
0.0
 20
0.0
 30
0.0
  3
*D36
  1

  0
LINE
  5
2449
330
1F2C
100
AcDbEntity
  8
寸法線
 62
     0
370
    -2
100
AcDbLine
 10
271.1390898280746
 20
210.7391607837676
 30
0.0
 11
259.3263508951189
 21
210.7391607837676
 31
0.0
  0
LINE
  5
244A
330
1F2C
100
AcDbEntity
  8
寸法線
 62
     0
370
    -2
100
AcDbLine
 10
306.6390898280746
 20
172.7391607837667
 30
0.0
 11
259.3263508951189
 21
172.7391607837667
 31
0.0
  0
LINE
  5
244B
330
1F2C
100
AcDbEntity
  8
寸法線
 62
     0
370
    -2
100
AcDbLine
 10
260.5763508951189
 20
208.2391607837676
 30
0.0
 11
260.5763508951189
 21
175.2391607837666
 31
0.0
  0
SOLID
  5
244C
330
1F2C
100
AcDbEntity
  8
寸法線
 62
     0
100
AcDbTrace
 10
260.1596842284522
 20
208.2391607837676
 30
0.0
 11
260.9930175617856
 21
208.2391607837676
 31
0.0
 12
260.5763508951189
 22
210.7391607837676
 32
0.0
 13
260.5763508951189
 23
210.7391607837676
 33
0.0
  0
SOLID
  5
244D
330
1F2C
100
AcDbEntity
  8
寸法線
 62
     0
100
AcDbTrace
 10
260.1596842284522
 20
175.2391607837666
 30
0.0
 11
260.9930175617856
 21
175.2391607837666
 31
0.0
 12
260.5763508951189
 22
172.7391607837667
 32
0.0
 13
260.5763508951189
 23
172.7391607837667
 33
0.0
  0
MTEXT
  5
244E
330
1F2C
100
AcDbEntity
  8
寸法線
 62
     0
100
AcDbMText
 10
258.2013508951188
 20
191.7391607837671
 30
0.0
 40
3.5
 41
0.0
 71
     5
 72
     1
  1
38
 11
0.0000000000000001
 21
1.0
 31
0.0
 73
     1
 44
1.0
1001
ACAD
1000
MTEXTBEGIN
1070
    73
1070
     1
1070
    44
1040
1.0
1070
    74
1070
     0
1000
MTEXTEND
  0
POINT
  5
244F
330
1F2C
100
AcDbEntity
  8
DEFPOINTS
 62
     0
100
AcDbPoint
 10
271.7640898280746
 20
210.7391607837676
 30
0.0
  0
POINT
  5
2450
330
1F2C
100
AcDbEntity
  8
DEFPOINTS
 62
     0
100
AcDbPoint
 10
307.2640898280746
 20
172.7391607837667
 30
0.0
  0
POINT
  5
2451
330
1F2C
100
AcDbEntity
  8
DEFPOINTS
 62
     0
100
AcDbPoint
 10
260.5763508951189
 20
172.7391607837667
 30
0.0
  0
ENDBLK
  5
1F2E
330
1F2C
100
AcDbEntity
  8
0
100
AcDbBlockEnd
  0
BLOCK
  5
1F39
330
1F38
100
AcDbEntity
  8
0
100
AcDbBlockBegin
  2
*D37
 70
     1
 10
0.0
 20
0.0
 30
0.0
  3
*D37
  1

  0
LINE
  5
2479
330
1F38
100
AcDbEntity
  8
寸法線
 62
     0
370
    -2
100
AcDbLine
 10
268.9031878632403
 20
191.480047143735
 30
0.0
 11
268.9031878632403
 21
219.0398402365185
 31
0.0
  0
LINE
  5
247A
330
1F38
100
AcDbEntity
  8
寸法線
 62
     0
370
    -2
100
AcDbLine
 10
311.7640898280746
 20
210.3641607837677
 30
0.0
 11
311.7640898280746
 21
219.0398402365185
 31
0.0
  0
LINE
  5
247B
330
1F38
100
AcDbEntity
  8
寸法線
 62
     0
370
    -2
100
AcDbLine
 10
271.4031878632403
 20
217.7898402365185
 30
0.0
 11
309.2640898280746
 21
217.7898402365185
 31
0.0
  0
SOLID
  5
247C
330
1F38
100
AcDbEntity
  8
寸法線
 62
     0
100
AcDbTrace
 10
271.4031878632403
 20
218.2065069031852
 30
0.0
 11
271.4031878632403
 21
217.3731735698519
 31
0.0
 12
268.9031878632403
 22
217.7898402365185
 32
0.0
 13
268.9031878632403
 23
217.7898402365185
 33
0.0
  0
SOLID
  5
247D
330
1F38
100
AcDbEntity
  8
寸法線
 62
     0
100
AcDbTrace
 10
309.2640898280746
 20
218.2065069031852
 30
0.0
 11
309.2640898280746
 21
217.3731735698519
 31
0.0
 12
311.7640898280746
 22
217.7898402365185
 32
0.0
 13
311.7640898280746
 23
217.7898402365185
 33
0.0
  0
MTEXT
  5
247E
330
1F38
100
AcDbEntity
  8
寸法線
 62
     0
100
AcDbMText
 10
290.3336388456574
 20
220.1648402365185
 30
0.0
 40
3.5
 41
0.0
 71
     5
 72
     1
  1
(43)
 73
     1
 44
1.0
1001
ACAD
1000
MTEXTBEGIN
1070
    73
1070
     1
1070
    44
1040
1.0
1070
    74
1070
     0
1000
MTEXTEND
  0
POINT
  5
247F
330
1F38
100
AcDbEntity
  8
DEFPOINTS
 62
     0
100
AcDbPoint
 10
268.9031878632403
 20
190.855047143735
 30
0.0
  0
POINT
  5
2480
330
1F38
100
AcDbEntity
  8
DEFPOINTS
 62
     0
100
AcDbPoint
 10
311.7640898280746
 20
209.7391607837677
 30
0.0
  0
POINT
  5
2481
330
1F38
100
AcDbEntity
  8
DEFPOINTS
 62
     0
100
AcDbPoint
 10
311.7640898280746
 20
217.7898402365185
 30
0.0
  0
ENDBLK
  5
1F3A
330
1F38
100
AcDbEntity
  8
0
100
AcDbBlockEnd
  0
BLOCK
  5
1F45
330
1F44
100
AcDbEntity
  8
0
100
AcDbBlockBegin
  2
*D38
 70
     1
 10
0.0
 20
0.0
 30
0.0
  3
*D38
  1

  0
LINE
  5
246E
330
1F44
100
AcDbEntity
  8
寸法線
 62
     0
370
    -2
100
AcDbLine
 10
307.2640898280746
 20
173.3641607837666
 30
0.0
 11
307.2640898280746
 21
204.3303824317354
 31
0.0
  0
LINE
  5
246F
330
1F44
100
AcDbEntity
  8
寸法線
 62
     0
370
    -2
100
AcDbLine
 10
311.7640898280746
 20
200.8641607837668
 30
0.0
 11
311.7640898280746
 21
204.3303824317354
 31
0.0
  0
LINE
  5
2470
330
1F44
100
AcDbEntity
  8
寸法線
 62
     0
370
    -2
100
AcDbLine
 10
314.2640898280746
 20
203.0803824317354
 30
0.0
 11
316.7640898280746
 21
203.0803824317354
 31
0.0
  0
LINE
  5
2471
330
1F44
100
AcDbEntity
  8
寸法線
 62
     0
370
    -2
100
AcDbLine
 10
304.7640898280746
 20
203.0803824317354
 30
0.0
 11
290.1807564947412
 21
203.0803824317354
 31
0.0
  0
LINE
  5
2472
330
1F44
100
AcDbEntity
  8
寸法線
 62
     0
370
    -2
100
AcDbLine
 10
311.7640898280746
 20
203.0803824317354
 30
0.0
 11
307.2640898280746
 21
203.0803824317354
 31
0.0
  0
SOLID
  5
2473
330
1F44
100
AcDbEntity
  8
寸法線
 62
     0
100
AcDbTrace
 10
314.2640898280746
 20
203.4970490984021
 30
0.0
 11
314.2640898280746
 21
202.6637157650688
 31
0.0
 12
311.7640898280746
 22
203.0803824317354
 32
0.0
 13
311.7640898280746
 23
203.0803824317354
 33
0.0
  0
SOLID
  5
2474
330
1F44
100
AcDbEntity
  8
寸法線
 62
     0
100
AcDbTrace
 10
304.7640898280746
 20
203.4970490984021
 30
0.0
 11
304.7640898280746
 21
202.6637157650688
 31
0.0
 12
307.2640898280746
 22
203.0803824317354
 32
0.0
 13
307.2640898280746
 23
203.0803824317354
 33
0.0
  0
MTEXT
  5
2475
330
1F44
100
AcDbEntity
  8
寸法線
 62
     0
100
AcDbMText
 10
295.8057564947412
 20
205.2053824317354
 30
0.0
 40
3.0
 41
0.0
 71
     5
 72
     1
  1
(4.5)
 73
     1
 44
1.0
1001
ACAD
1000
MTEXTBEGIN
1070
    73
1070
     1
1070
    44
1040
1.0
1070
    74
1070
     0
1000
MTEXTEND
  0
POINT
  5
2476
330
1F44
100
AcDbEntity
  8
DEFPOINTS
 62
     0
100
AcDbPoint
 10
307.2640898280746
 20
172.7391607837667
 30
0.0
  0
POINT
  5
2477
330
1F44
100
AcDbEntity
  8
DEFPOINTS
 62
     0
100
AcDbPoint
 10
311.7640898280746
 20
200.2391607837668
 30
0.0
  0
POINT
  5
2478
330
1F44
100
AcDbEntity
  8
DEFPOINTS
 62
     0
100
AcDbPoint
 10
311.7640898280746
 20
203.0803824317354
 30
0.0
  0
ENDBLK
  5
1F46
330
1F44
100
AcDbEntity
  8
0
100
AcDbBlockEnd
  0
BLOCK
  5
1F53
330
1F52
100
AcDbEntity
  8
0
100
AcDbBlockBegin
  2
*D39
 70
     1
 10
0.0
 20
0.0
 30
0.0
  3
*D39
  1

  0
LINE
  5
2464
330
1F52
100
AcDbEntity
  8
寸法線
 62
     0
370
    -2
100
AcDbLine
 10
307.2640898280746
 20
187.4141607837678
 30
0.0
 11
307.2640898280746
 21
174.8374102837345
 31
0.0
  0
LINE
  5
2465
330
1F52
100
AcDbEntity
  8
寸法線
 62
     0
370
    -2
100
AcDbLine
 10
317.2640898280746
 20
187.4141607837678
 30
0.0
 11
317.2640898280746
 21
174.8374102837345
 31
0.0
  0
LINE
  5
2466
330
1F52
100
AcDbEntity
  8
寸法線
 62
     0
370
    -2
100
AcDbLine
 10
309.7640898280746
 20
176.0874102837345
 30
0.0
 11
314.7640898280746
 21
176.0874102837345
 31
0.0
  0
LINE
  5
2467
330
1F52
100
AcDbEntity
  8
寸法線
 62
     0
370
    -2
100
AcDbLine
 10
317.2640898280746
 20
176.0874102837345
 30
0.0
 11
330.5621523870058
 21
176.0874102837345
 31
0.0
  0
SOLID
  5
2468
330
1F52
100
AcDbEntity
  8
寸法線
 62
     0
100
AcDbTrace
 10
309.7640898280746
 20
176.5040769504011
 30
0.0
 11
309.7640898280746
 21
175.6707436170678
 31
0.0
 12
307.2640898280746
 22
176.0874102837345
 32
0.0
 13
307.2640898280746
 23
176.0874102837345
 33
0.0
  0
SOLID
  5
2469
330
1F52
100
AcDbEntity
  8
寸法線
 62
     0
100
AcDbTrace
 10
314.7640898280746
 20
176.5040769504011
 30
0.0
 11
314.7640898280746
 21
175.6707436170678
 31
0.0
 12
317.2640898280746
 22
176.0874102837345
 32
0.0
 13
317.2640898280746
 23
176.0874102837345
 33
0.0
  0
MTEXT
  5
246A
330
1F52
100
AcDbEntity
  8
寸法線
 62
     0
100
AcDbMText
 10
327.8954857203392
 20
178.4624102837345
 30
0.0
 40
3.5
 41
0.0
 71
     5
 72
     1
  1
10
 73
     1
 44
1.0
1001
ACAD
1000
MTEXTBEGIN
1070
    73
1070
     1
1070
    44
1040
1.0
1070
    74
1070
     0
1000
MTEXTEND
  0
POINT
  5
246B
330
1F52
100
AcDbEntity
  8
DEFPOINTS
 62
     0
100
AcDbPoint
 10
307.2640898280746
 20
188.0391607837678
 30
0.0
  0
POINT
  5
246C
330
1F52
100
AcDbEntity
  8
DEFPOINTS
 62
     0
100
AcDbPoint
 10
317.2640898280746
 20
188.0391607837678
 30
0.0
  0
POINT
  5
246D
330
1F52
100
AcDbEntity
  8
DEFPOINTS
 62
     0
100
AcDbPoint
 10
317.2640898280746
 20
176.0874102837345
 30
0.0
  0
ENDBLK
  5
1F54
330
1F52
100
AcDbEntity
  8
0
100
AcDbBlockEnd
  0
BLOCK
  5
1F60
330
1F5F
100
AcDbEntity
  8
0
100
AcDbBlockBegin
  2
*D40
 70
     1
 10
0.0
 20
0.0
 30
0.0
  3
*D40
  1

  0
LINE
  5
245B
330
1F5F
100
AcDbEntity
  8
寸法線
 62
     0
370
    -2
100
AcDbLine
 10
317.8890898280746
 20
198.0391607837678
 30
0.0
 11
328.4924730522747
 21
198.0391607837678
 31
0.0
  0
LINE
  5
245C
330
1F5F
100
AcDbEntity
  8
寸法線
 62
     0
370
    -2
100
AcDbLine
 10
310.7640898280746
 20
210.7391607837676
 30
0.0
 11
328.4924730522747
 21
210.7391607837675
 31
0.0
  0
LINE
  5
245D
330
1F5F
100
AcDbEntity
  8
寸法線
 62
     0
370
    -2
100
AcDbLine
 10
327.2424730522747
 20
200.5391607837678
 30
0.0
 11
327.2424730522747
 21
208.2391607837676
 31
0.0
  0
SOLID
  5
245E
330
1F5F
100
AcDbEntity
  8
寸法線
 62
     0
100
AcDbTrace
 10
326.825806385608
 20
200.5391607837678
 30
0.0
 11
327.6591397189414
 21
200.5391607837678
 31
0.0
 12
327.2424730522747
 22
198.0391607837678
 32
0.0
 13
327.2424730522747
 23
198.0391607837678
 33
0.0
  0
SOLID
  5
245F
330
1F5F
100
AcDbEntity
  8
寸法線
 62
     0
100
AcDbTrace
 10
326.825806385608
 20
208.2391607837676
 30
0.0
 11
327.6591397189414
 21
208.2391607837676
 31
0.0
 12
327.2424730522747
 22
210.7391607837675
 32
0.0
 13
327.2424730522747
 23
210.7391607837675
 33
0.0
  0
MTEXT
  5
2460
330
1F5F
100
AcDbEntity
  8
寸法線
 62
     0
100
AcDbMText
 10
324.575806385608
 20
204.3891607837677
 30
0.0
 40
3.5
 41
0.0
 71
     5
 72
     1
  1
12,7
 11
0.0000000000000001
 21
1.0
 31
0.0
 73
     1
 44
1.0
1001
ACAD
1000
MTEXTBEGIN
1070
    73
1070
     1
1070
    44
1040
1.0
1070
    74
1070
     0
1000
MTEXTEND
  0
POINT
  5
2461
330
1F5F
100
AcDbEntity
  8
DEFPOINTS
 62
     0
100
AcDbPoint
 10
317.2640898280746
 20
198.0391607837678
 30
0.0
  0
POINT
  5
2462
330
1F5F
100
AcDbEntity
  8
DEFPOINTS
 62
     0
100
AcDbPoint
 10
310.1390898280746
 20
210.7391607837676
 30
0.0
  0
POINT
  5
2463
330
1F5F
100
AcDbEntity
  8
DEFPOINTS
 62
     0
100
AcDbPoint
 10
327.2424730522747
 20
210.7391607837675
 30
0.0
  0
ENDBLK
  5
1F61
330
1F5F
100
AcDbEntity
  8
0
100
AcDbBlockEnd
  0
BLOCK
  5
1F6C
330
1F6B
100
AcDbEntity
  8
0
100
AcDbBlockBegin
  2
*D41
 70
     1
 10
0.0
 20
0.0
 30
0.0
  3
*D41
  1

  0
LINE
  5
2452
330
1F6B
100
AcDbEntity
  8
寸法線
 62
     0
370
    -2
100
AcDbLine
 10
317.8890898280746
 20
198.0391607837678
 30
0.0
 11
328.4924730522747
 21
198.0391607837678
 31
0.0
  0
LINE
  5
2453
330
1F6B
100
AcDbEntity
  8
寸法線
 62
     0
370
    -2
100
AcDbLine
 10
317.8890898280746
 20
188.0391607837678
 30
0.0
 11
328.4924730522747
 21
188.0391607837678
 31
0.0
  0
LINE
  5
2454
330
1F6B
100
AcDbEntity
  8
寸法線
 62
     0
370
    -2
100
AcDbLine
 10
327.2424730522747
 20
195.5391607837677
 30
0.0
 11
327.2424730522747
 21
190.5391607837677
 31
0.0
  0
SOLID
  5
2455
330
1F6B
100
AcDbEntity
  8
寸法線
 62
     0
100
AcDbTrace
 10
326.825806385608
 20
195.5391607837677
 30
0.0
 11
327.6591397189414
 21
195.5391607837677
 31
0.0
 12
327.2424730522747
 22
198.0391607837678
 32
0.0
 13
327.2424730522747
 23
198.0391607837678
 33
0.0
  0
SOLID
  5
2456
330
1F6B
100
AcDbEntity
  8
寸法線
 62
     0
100
AcDbTrace
 10
326.825806385608
 20
190.5391607837677
 30
0.0
 11
327.6591397189414
 21
190.5391607837677
 31
0.0
 12
327.2424730522747
 22
188.0391607837678
 32
0.0
 13
327.2424730522747
 23
188.0391607837678
 33
0.0
  0
MTEXT
  5
2457
330
1F6B
100
AcDbEntity
  8
寸法線
 62
     0
100
AcDbMText
 10
324.8674730522747
 20
193.0391607837678
 30
0.0
 40
3.5
 41
0.0
 71
     5
 72
     1
  1
10
 11
0.0000000000000001
 21
1.0
 31
0.0
 73
     1
 44
1.0
1001
ACAD
1000
MTEXTBEGIN
1070
    73
1070
     1
1070
    44
1040
1.0
1070
    74
1070
     0
1000
MTEXTEND
  0
POINT
  5
2458
330
1F6B
100
AcDbEntity
  8
DEFPOINTS
 62
     0
100
AcDbPoint
 10
317.2640898280746
 20
198.0391607837678
 30
0.0
  0
POINT
  5
2459
330
1F6B
100
AcDbEntity
  8
DEFPOINTS
 62
     0
100
AcDbPoint
 10
317.2640898280746
 20
188.0391607837678
 30
0.0
  0
POINT
  5
245A
330
1F6B
100
AcDbEntity
  8
DEFPOINTS
 62
     0
100
AcDbPoint
 10
327.2424730522747
 20
188.0391607837678
 30
0.0
  0
ENDBLK
  5
1F6D
330
1F6B
100
AcDbEntity
  8
0
100
AcDbBlockEnd
  0
BLOCK
  5
2162
330
2161
100
AcDbEntity
  8
0
100
AcDbBlockBegin
  2
*D42
 70
     1
 10
0.0
 20
0.0
 30
0.0
  3
*D42
  1

  0
LINE
  5
2440
330
2161
100
AcDbEntity
  8
寸法線
 62
     0
370
    -2
100
AcDbLine
 10
330.2610057585894
 20
274.0196975717573
 30
0.0
 11
353.1930287563958
 21
274.0196975717573
 31
0.0
  0
LINE
  5
2441
330
2161
100
AcDbEntity
  8
寸法線
 62
     0
370
    -2
100
AcDbLine
 10
329.2610057585894
 20
317.0196975717573
 30
0.0
 11
353.1930287563958
 21
317.0196975717573
 31
0.0
  0
LINE
  5
2442
330
2161
100
AcDbEntity
  8
寸法線
 62
     0
370
    -2
100
AcDbLine
 10
351.9430287563959
 20
276.5196975717573
 30
0.0
 11
351.9430287563959
 21
314.5196975717573
 31
0.0
  0
SOLID
  5
2443
330
2161
100
AcDbEntity
  8
寸法線
 62
     0
100
AcDbTrace
 10
351.5263620897292
 20
276.5196975717573
 30
0.0
 11
352.3596954230626
 21
276.5196975717573
 31
0.0
 12
351.9430287563959
 22
274.0196975717573
 32
0.0
 13
351.9430287563959
 23
274.0196975717573
 33
0.0
  0
SOLID
  5
2444
330
2161
100
AcDbEntity
  8
寸法線
 62
     0
100
AcDbTrace
 10
351.5263620897292
 20
314.5196975717573
 30
0.0
 11
352.3596954230626
 21
314.5196975717573
 31
0.0
 12
351.9430287563959
 22
317.0196975717573
 32
0.0
 13
351.9430287563959
 23
317.0196975717573
 33
0.0
  0
MTEXT
  5
2445
330
2161
100
AcDbEntity
  8
寸法線
 62
     0
100
AcDbMText
 10
347.3180287563958
 20
295.5196975717574
 30
0.0
 40
8.0
 41
0.0
 71
     5
 72
     1
  1
43
 11
0.0000000000000001
 21
1.0
 31
0.0
 73
     1
 44
1.0
1001
ACAD
1000
MTEXTBEGIN
1070
    73
1070
     1
1070
    44
1040
1.0
1070
    74
1070
     0
1000
MTEXTEND
  0
POINT
  5
2446
330
2161
100
AcDbEntity
  8
DEFPOINTS
 62
     0
100
AcDbPoint
 10
329.6360057585894
 20
274.0196975717573
 30
0.0
  0
POINT
  5
2447
330
2161
100
AcDbEntity
  8
DEFPOINTS
 62
     0
100
AcDbPoint
 10
328.6360057585894
 20
317.0196975717573
 30
0.0
  0
POINT
  5
2448
330
2161
100
AcDbEntity
  8
DEFPOINTS
 62
     0
100
AcDbPoint
 10
351.9430287563959
 20
317.0196975717573
 30
0.0
  0
ENDBLK
  5
2163
330
2161
100
AcDbEntity
  8
0
100
AcDbBlockEnd
  0
BLOCK
  5
21D4
330
21D3
100
AcDbEntity
  8
0
100
AcDbBlockBegin
  2
*D43
 70
     1
 10
0.0
 20
0.0
 30
0.0
  3
*D43
  1

  0
LINE
  5
2437
330
21D3
100
AcDbEntity
  8
寸法線
 62
     0
370
    -2
100
AcDbLine
 10
58.24737496703495
 20
410.1480724130037
 30
0.0
 11
46.89308073666461
 21
410.1480724130037
 31
0.0
  0
LINE
  5
2438
330
21D3
100
AcDbEntity
  8
寸法線
 62
     0
370
    -2
100
AcDbLine
 10
58.24737496703495
 20
437.5480724130037
 30
0.0
 11
46.89308073666462
 21
437.5480724130037
 31
0.0
  0
LINE
  5
2439
330
21D3
100
AcDbEntity
  8
寸法線
 62
     0
370
    -2
100
AcDbLine
 10
48.14308073666461
 20
412.6480724130037
 30
0.0
 11
48.14308073666462
 21
435.0480724130036
 31
0.0
  0
SOLID
  5
243A
330
21D3
100
AcDbEntity
  8
寸法線
 62
     0
100
AcDbTrace
 10
47.72641406999794
 20
412.6480724130037
 30
0.0
 11
48.55974740333127
 21
412.6480724130037
 31
0.0
 12
48.14308073666461
 22
410.1480724130037
 32
0.0
 13
48.14308073666461
 23
410.1480724130037
 33
0.0
  0
SOLID
  5
243B
330
21D3
100
AcDbEntity
  8
寸法線
 62
     0
100
AcDbTrace
 10
47.72641406999795
 20
435.0480724130036
 30
0.0
 11
48.55974740333128
 21
435.0480724130036
 31
0.0
 12
48.14308073666462
 22
437.5480724130037
 32
0.0
 13
48.14308073666462
 23
437.5480724130037
 33
0.0
  0
MTEXT
  5
243C
330
21D3
100
AcDbEntity
  8
寸法線
 62
     0
100
AcDbMText
 10
45.47641406999789
 20
423.8480724130036
 30
0.0
 40
3.5
 41
0.0
 71
     5
 72
     1
  1
27,4
 11
0.0000000000000001
 21
1.0
 31
0.0
 73
     1
 44
1.0
1001
ACAD
1000
MTEXTBEGIN
1070
    73
1070
     1
1070
    44
1040
1.0
1070
    74
1070
     0
1000
MTEXTEND
  0
POINT
  5
243D
330
21D3
100
AcDbEntity
  8
DEFPOINTS
 62
     0
100
AcDbPoint
 10
58.87237496703495
 20
410.1480724130037
 30
0.0
  0
POINT
  5
243E
330
21D3
100
AcDbEntity
  8
DEFPOINTS
 62
     0
100
AcDbPoint
 10
58.87237496703495
 20
437.5480724130037
 30
0.0
  0
POINT
  5
243F
330
21D3
100
AcDbEntity
  8
DEFPOINTS
 62
     0
100
AcDbPoint
 10
48.14308073666462
 20
437.5480724130037
 30
0.0
  0
ENDBLK
  5
21D5
330
21D3
100
AcDbEntity
  8
0
100
AcDbBlockEnd
  0
BLOCK
  5
223C
330
2238
100
AcDbEntity
  8
0
100
AcDbBlockBegin
  2
A$C4F37032B
 70
     0
 10
0.0
 20
0.0
 30
0.0
  3
A$C4F37032B
  1

  0
MTEXT
  5
2239
330
2238
100
AcDbEntity
  8
補足
100
AcDbMText
 10
3.183409675430424
 20
24.66405343841018
 30
0.0
 40
7.0
 41
149.6794791178914
 71
     1
 72
     5
  1
{\fMS PGothic|b0|i0|c128|p50;※本製品は内障子取付け\P　です（外障子品は別途）}
 73
     1
 44
1.0
1001
ACAD
1000
MTEXTBEGIN
1070
    73
1070
     1
1070
    44
1040
1.0
1070
    74
1070
     0
1000
MTEXTEND
  0
ENDBLK
  5
223D
330
2238
100
AcDbEntity
  8
0
100
AcDbBlockEnd
  0
BLOCK
  5
2252
330
2251
100
AcDbEntity
  8
0
100
AcDbBlockBegin
  2
*D45
 70
     1
 10
0.0
 20
0.0
 30
0.0
  3
*D45
  1

  0
LINE
  5
242F
330
2251
100
AcDbEntity
  8
寸法線
 62
     0
370
    -2
100
AcDbLine
 10
259.3485634385161
 20
304.4658376483198
 30
0.0
 11
226.8858888229694
 21
301.6989579987219
 31
0.0
  0
LINE
  5
2430
330
2251
100
AcDbEntity
  8
寸法線
 62
     0
370
    -2
100
AcDbLine
 10
217.7191250243623
 20
300.9176504660735
 30
0.0
 11
215.2281566008281
 21
300.7053386365496
 31
0.0
  0
MTEXT
  5
2431
330
2251
100
AcDbEntity
  8
寸法線
 62
     0
100
AcDbMText
 10
245.5073957433501
 20
306.422448706832
 30
0.0
 40
5.0
 41
0.0
 71
     5
 72
     1
  1
2-φ4.2
 11
0.9963873694136584
 21
0.0849247318095851
 31
0.0
 73
     1
 44
1.0
1001
ACAD
1000
MTEXTBEGIN
1070
    73
1070
     1
1070
    44
1040
1.0
1070
    74
1070
     0
1000
MTEXTEND
  0
LINE
  5
2432
330
2251
100
AcDbEntity
  8
寸法線
 62
     0
370
    -2
100
AcDbLine
 10
220.2100934478964
 20
301.1299622955975
 30
0.0
 11
224.3949203994353
 21
301.4866461691979
 31
0.0
  0
SOLID
  5
2433
330
2251
100
AcDbEntity
  8
寸法線
 62
     0
100
AcDbTrace
 10
217.6837397194416
 20
301.332811869996
 30
0.0
 11
217.7545103292829
 21
300.5024890621512
 31
0.0
 12
220.2100934478964
 22
301.1299622955975
 32
0.0
 13
220.2100934478964
 23
301.1299622955975
 33
0.0
  0
SOLID
  5
2434
330
2251
100
AcDbEntity
  8
寸法線
 62
     0
100
AcDbTrace
 10
226.8505035180488
 20
302.1141194026443
 30
0.0
 11
226.9212741278901
 21
301.2837965947995
 31
0.0
 12
224.3949203994353
 22
301.4866461691979
 32
0.0
 13
224.3949203994353
 23
301.4866461691979
 33
0.0
  0
POINT
  5
2435
330
2251
100
AcDbEntity
  8
DEFPOINTS
 62
     0
100
AcDbPoint
 10
224.3949203994353
 20
301.4866461691979
 30
0.0
  0
POINT
  5
2436
330
2251
100
AcDbEntity
  8
DEFPOINTS
 62
     0
100
AcDbPoint
 10
220.2100934478964
 20
301.1299622955975
 30
0.0
  0
ENDBLK
  5
2253
330
2251
100
AcDbEntity
  8
0
100
AcDbBlockEnd
  0
BLOCK
  5
2323
330
2322
100
AcDbEntity
  8
0
100
AcDbBlockBegin
  2
*D46
 70
     1
 10
0.0
 20
0.0
 30
0.0
  3
*D46
  1

  0
LINE
  5
2426
330
2322
100
AcDbEntity
  8
寸法線
 62
     0
370
    -2
100
AcDbLine
 10
306.3885339943019
 20
96.12693827702223
 30
0.0
 11
306.3885339943019
 21
101.267230628423
 31
0.0
  0
LINE
  5
2427
330
2322
100
AcDbEntity
  8
寸法線
 62
     0
370
    -2
100
AcDbLine
 10
316.3885339943018
 20
96.12693827702223
 30
0.0
 11
316.3885339943018
 21
101.267230628423
 31
0.0
  0
LINE
  5
2428
330
2322
100
AcDbEntity
  8
寸法線
 62
     0
370
    -2
100
AcDbLine
 10
308.8885339943019
 20
100.017230628423
 30
0.0
 11
313.8885339943018
 21
100.017230628423
 31
0.0
  0
SOLID
  5
2429
330
2322
100
AcDbEntity
  8
寸法線
 62
     0
100
AcDbTrace
 10
308.8885339943019
 20
100.4338972950897
 30
0.0
 11
308.8885339943019
 21
99.60056396175636
 31
0.0
 12
306.3885339943019
 22
100.017230628423
 32
0.0
 13
306.3885339943019
 23
100.017230628423
 33
0.0
  0
SOLID
  5
242A
330
2322
100
AcDbEntity
  8
寸法線
 62
     0
100
AcDbTrace
 10
313.8885339943018
 20
100.4338972950897
 30
0.0
 11
313.8885339943018
 21
99.60056396175636
 31
0.0
 12
316.3885339943018
 22
100.017230628423
 32
0.0
 13
316.3885339943018
 23
100.017230628423
 33
0.0
  0
MTEXT
  5
242B
330
2322
100
AcDbEntity
  8
寸法線
 62
     0
100
AcDbMText
 10
311.3885339943018
 20
102.392230628423
 30
0.0
 40
3.5
 41
0.0
 71
     5
 72
     1
  1
10
 73
     1
 44
1.0
1001
ACAD
1000
MTEXTBEGIN
1070
    73
1070
     1
1070
    44
1040
1.0
1070
    74
1070
     0
1000
MTEXTEND
  0
POINT
  5
242C
330
2322
100
AcDbEntity
  8
DEFPOINTS
 62
     0
100
AcDbPoint
 10
306.3885339943019
 20
95.50193827702223
 30
0.0
  0
POINT
  5
242D
330
2322
100
AcDbEntity
  8
DEFPOINTS
 62
     0
100
AcDbPoint
 10
316.3885339943018
 20
95.50193827702223
 30
0.0
  0
POINT
  5
242E
330
2322
100
AcDbEntity
  8
DEFPOINTS
 62
     0
100
AcDbPoint
 10
316.3885339943018
 20
100.017230628423
 30
0.0
  0
ENDBLK
  5
2324
330
2322
100
AcDbEntity
  8
0
100
AcDbBlockEnd
  0
BLOCK
  5
2370
330
236F
100
AcDbEntity
  8
0
100
AcDbBlockBegin
  2
*D47
 70
     1
 10
0.0
 20
0.0
 30
0.0
  3
*D47
  1

  0
LINE
  5
241D
330
236F
100
AcDbEntity
  8
寸法線
 62
     0
370
    -2
100
AcDbLine
 10
200.7807
 20
87.86281116630766
 30
0.0
 11
200.7807
 21
68.4490454942329
 31
0.0
  0
LINE
  5
241E
330
236F
100
AcDbEntity
  8
寸法線
 62
     0
370
    -2
100
AcDbLine
 10
262.78071021882
 20
56.61397893674458
 30
0.0
 11
262.78071021882
 21
70.9490454942329
 31
0.0
  0
LINE
  5
241F
330
236F
100
AcDbEntity
  8
寸法線
 62
     0
370
    -2
100
AcDbLine
 10
203.2807
 20
69.6990454942329
 30
0.0
 11
260.28071021882
 21
69.6990454942329
 31
0.0
  0
SOLID
  5
2420
330
236F
100
AcDbEntity
  8
寸法線
 62
     0
100
AcDbTrace
 10
203.2807
 20
70.11571216089958
 30
0.0
 11
203.2807
 21
69.28237882756623
 31
0.0
 12
200.7807
 22
69.6990454942329
 32
0.0
 13
200.7807
 23
69.6990454942329
 33
0.0
  0
SOLID
  5
2421
330
236F
100
AcDbEntity
  8
寸法線
 62
     0
100
AcDbTrace
 10
260.28071021882
 20
70.11571216089958
 30
0.0
 11
260.28071021882
 21
69.28237882756623
 31
0.0
 12
262.78071021882
 22
69.6990454942329
 32
0.0
 13
262.78071021882
 23
69.6990454942329
 33
0.0
  0
MTEXT
  5
2422
330
236F
100
AcDbEntity
  8
寸法線
 62
     0
100
AcDbMText
 10
231.78070510941
 20
72.07404549423291
 30
0.0
 40
3.5
 41
0.0
 71
     5
 72
     1
  1
62
 73
     1
 44
1.0
1001
ACAD
1000
MTEXTBEGIN
1070
    73
1070
     1
1070
    44
1040
1.0
1070
    74
1070
     0
1000
MTEXTEND
  0
POINT
  5
2423
330
236F
100
AcDbEntity
  8
DEFPOINTS
 62
     0
100
AcDbPoint
 10
200.7807
 20
88.48781116630766
 30
0.0
  0
POINT
  5
2424
330
236F
100
AcDbEntity
  8
DEFPOINTS
 62
     0
100
AcDbPoint
 10
262.78071021882
 20
55.98897893674458
 30
0.0
  0
POINT
  5
2425
330
236F
100
AcDbEntity
  8
DEFPOINTS
 62
     0
100
AcDbPoint
 10
262.78071021882
 20
69.6990454942329
 30
0.0
  0
ENDBLK
  5
2371
330
236F
100
AcDbEntity
  8
0
100
AcDbBlockEnd
  0
ENDSEC
  0
SECTION
  2
ENTITIES
  0
LINE
  5
48F
330
1F
100
AcDbEntity
  8
0
100
AcDbLine
 10
0.0000000000002274
 20
16.00000000000022
 30
0.0
 11
370.45
 21
16.00000000000022
 31
0.0
  0
LINE
  5
490
330
1F
100
AcDbEntity
  8
0
100
AcDbLine
 10
1.549999999999499
 20
31.99999999999932
 30
0.0
 11
370.45
 21
31.99999999999932
 31
0.0
  0
LINE
  5
491
330
1F
100
AcDbEntity
  8
0
100
AcDbLine
 10
200.5499999999995
 20
31.99999999999932
 30
0.0
 11
200.5499999999995
 21
0.0000000000002274
 31
0.0
  0
LINE
  5
495
330
1F
100
AcDbEntity
  8
0
100
AcDbLine
 10
0.0000000000002274
 20
31.99999999999932
 30
0.0
 11
370.45
 21
31.99999999999932
 31
0.0
  0
TEXT
  5
496
330
1F
100
AcDbEntity
  8
0
100
AcDbText
 10
55.24999999999931
 20
20.95000000000005
 30
0.0
 40
7.349999999999996
  1
単位 mm
  7
BIGFONT
100
AcDbText
  0
TEXT
  5
497
330
1F
100
AcDbEntity
  8
0
100
AcDbText
 10
234.4499999999992
 20
4.399999999999863
 30
0.0
 40
7.349999999999997
  1
　日本電子工業株式会社
  7
BIGFONT
100
AcDbText
  0
LINE
  5
498
330
1F
100
AcDbEntity
  8
0
100
AcDbLine
 10
0.0000000000002274
 20
523.4999999999993
 30
0.0
 11
370.45
 21
523.4999999999993
 31
0.0
  0
TEXT
  5
499
330
1F
100
AcDbEntity
  8
0
100
AcDbText
 10
55.24999999999931
 20
4.399999999999863
 30
0.0
 40
7.349999999999996
  1
尺度　　　１／2
  7
BIGFONT
100
AcDbText
  0
LINE
  5
49B
330
1F
100
AcDbEntity
  8
0
100
AcDbLine
 10
233.8296387909743
 20
31.99999999999932
 30
0.0
 11
233.8296387909743
 21
16.00000000000022
 31
0.0
  0
TEXT
  5
49C
330
1F
100
AcDbEntity
  8
0
100
AcDbText
 10
245.1275646159293
 20
20.95000000000005
 30
0.0
 40
7.349999999999996
  1
WL131(L)_V3_3M
  7
BIGFONT
100
AcDbText
  0
TEXT
  5
49D
330
1F
100
AcDbEntity
  8
0
100
AcDbText
 10
205.4469376093885
 20
20.95000000000005
 30
0.0
 40
7.349999999999996
  1
図番
  7
BIGFONT
100
AcDbText
  0
MTEXT
  5
4A2
330
1F
100
AcDbEntity
  8
補足
100
AcDbMText
 10
27.49151391651992
 20
494.5184926227642
 30
0.0
 40
7.0
 41
97.60864549221331
 71
     1
 72
     5
  1
{\fMS PGothic|b0|i0|c128|p50;電気錠本体}
 73
     1
 44
1.0
1001
ACAD
1000
MTEXTBEGIN
1070
    73
1070
     1
1070
    44
1040
1.0
1070
    74
1070
     0
1000
MTEXTEND
  0
MTEXT
  5
4A3
330
1F
100
AcDbEntity
  8
補足
100
AcDbMText
 10
154.2273796508011
 20
475.9613650453495
 30
0.0
 40
5.0
 41
57.60420509074203
 71
     1
 72
     5
  1
取付ベース
  7
BIGFONT
 73
     1
 44
1.0
1001
ACAD
1000
MTEXTBEGIN
1070
    73
1070
     1
1070
    44
1040
1.0
1070
    74
1070
     0
1000
MTEXTEND
  0
MTEXT
  5
4A4
330
1F
100
AcDbEntity
  8
補足
100
AcDbMText
 10
74.21087783613131
 20
474.1481985657895
 30
0.0
 40
5.0
 41
57.60420509074203
 71
     1
 72
     5
  1
配線引込穴
  7
BIGFONT
 73
     1
 44
1.0
1001
ACAD
1000
MTEXTBEGIN
1070
    73
1070
     1
1070
    44
1040
1.0
1070
    74
1070
     0
1000
MTEXTEND
  0
MTEXT
  5
4A5
330
1F
100
AcDbEntity
  8
補足
100
AcDbMText
 10
252.2614033366171
 20
471.0817972116795
 30
0.0
 40
5.0
 41
43.00640813655809
 71
     1
 72
     5
  1
ラッチ
  7
BIGFONT
 73
     1
 44
1.0
1001
ACAD
1000
MTEXTBEGIN
1070
    73
1070
     1
1070
    44
1040
1.0
1070
    74
1070
     0
1000
MTEXTEND
1000
ACAD_MTEXT_DEFINED_HEIGHT_BEGIN
1070
    46
1040
5.650556946984123
1000
ACAD_MTEXT_DEFINED_HEIGHT_END
  0
TEXT
  5
52F
330
1F
100
AcDbEntity
  8
補足
100
AcDbText
 10
317.0970063913058
 20
37.26001738209993
 30
0.0
 40
7.349999999999996
  1
1109.v3-4
  7
BIGFONT
100
AcDbText
  0
LINE
  5
564
102
{ACAD_REACTORS
330
1B6D
102
}
330
1F
100
AcDbEntity
  8
電気錠
  6
Continuous
100
AcDbLine
 10
33.87237496703404
 20
409.3480724130037
 30
0.0
 11
33.87237496703404
 21
438.3480724130037
 31
0.0
  0
ARC
  5
565
102
{ACAD_REACTORS
330
1B6D
102
}
330
1F
100
AcDbEntity
  8
電気錠
  6
Continuous
100
AcDbCircle
 10
36.87237496703494
 20
438.3480724130037
 30
0.0
 40
3.0
100
AcDbArc
 50
90.0
 51
180.0
  0
LINE
  5
566
102
{ACAD_REACTORS
330
1B6D
102
}
330
1F
100
AcDbEntity
  8
電気錠
  6
Continuous
100
AcDbLine
 10
36.87237496703494
 20
443.3480724130038
 30
0.0
 11
36.87237496703494
 21
441.3480724130037
 31
0.0
  0
INSERT
  5
567
102
{ACAD_REACTORS
330
BBB
330
1B6D
102
}
330
1F
100
AcDbEntity
  8
電気錠
100
AcDbBlockReference
  2
*U2
 10
146.8723749670349
 20
481.3480724130037
 30
0.0
 50
180.0
  0
LINE
  5
568
102
{ACAD_REACTORS
330
1B6D
102
}
330
1F
100
AcDbEntity
  8
電気錠
  6
Continuous
100
AcDbLine
 10
68.87237496703495
 20
432.8480724130037
 30
0.0
 11
68.87237496703495
 21
414.8480724130036
 31
0.0
  0
ARC
  5
569
102
{ACAD_REACTORS
330
1B6D
102
}
330
1F
100
AcDbEntity
  8
電気錠
  6
Continuous
100
AcDbCircle
 10
102.8723749670349
 20
432.8480724130037
 30
0.0
 40
2.0
100
AcDbArc
 50
0.0
 51
90.0
  0
LINE
  5
56A
102
{ACAD_REACTORS
330
B6F
330
1B6D
102
}
330
1F
100
AcDbEntity
  8
電気錠
  6
Continuous
100
AcDbLine
 10
102.8723749670349
 20
434.8480724130038
 30
0.0
 11
70.87237496703494
 21
434.8480724130038
 31
0.0
  0
ARC
  5
56B
102
{ACAD_REACTORS
330
1B6D
102
}
330
1F
100
AcDbEntity
  8
電気錠
  6
Continuous
100
AcDbCircle
 10
70.87237496703494
 20
432.8480724130037
 30
0.0
 40
2.0
100
AcDbArc
 50
90.0
 51
180.0
  0
ARC
  5
56C
102
{ACAD_REACTORS
330
1B6D
102
}
330
1F
100
AcDbEntity
  8
電気錠
  6
Continuous
100
AcDbCircle
 10
102.8723749670349
 20
414.8480724130036
 30
0.0
 40
2.0
100
AcDbArc
 50
270.0
 51
0.0
  0
LINE
  5
56D
102
{ACAD_REACTORS
330
1B6D
102
}
330
1F
100
AcDbEntity
  8
電気錠
  6
Continuous
100
AcDbLine
 10
104.872374967034
 20
432.8480724130037
 30
0.0
 11
104.872374967034
 21
414.8480724130036
 31
0.0
  0
LINE
  5
56E
102
{ACAD_REACTORS
330
B6F
330
1B6D
102
}
330
1F
100
AcDbEntity
  8
電気錠
  6
Continuous
100
AcDbLine
 10
70.87237496703494
 20
412.8480724130037
 30
0.0
 11
102.8723749670349
 21
412.8480724130037
 31
0.0
  0
ARC
  5
56F
102
{ACAD_REACTORS
330
1B6D
102
}
330
1F
100
AcDbEntity
  8
電気錠
  6
Continuous
100
AcDbCircle
 10
70.87237496703494
 20
414.8480724130036
 30
0.0
 40
2.0
100
AcDbArc
 50
180.0
 51
270.0
  0
ARC
  5
57C
102
{ACAD_REACTORS
330
1B6D
102
}
330
1F
100
AcDbEntity
  8
電気錠
  6
Continuous
100
AcDbCircle
 10
36.87237496703494
 20
409.3480724130037
 30
0.0
 40
3.0
100
AcDbArc
 50
180.0
 51
270.0
  0
LINE
  5
585
102
{ACAD_REACTORS
330
1B6D
102
}
330
1F
100
AcDbEntity
  8
電気錠
  6
Continuous
100
AcDbLine
 10
36.87237496703494
 20
406.3480724130037
 30
0.0
 11
36.87237496703494
 21
404.3480724130037
 31
0.0
  0
LINE
  5
587
102
{ACAD_REACTORS
330
1B6D
102
}
330
1F
100
AcDbEntity
  8
電気錠
  6
Continuous
100
AcDbLine
 10
262.4406866825353
 20
403.565563712003
 30
0.0
 11
262.5406866825348
 21
403.565563712003
 31
0.0
  0
LINE
  5
588
102
{ACAD_REACTORS
330
1B6D
102
}
330
1F
100
AcDbEntity
  8
電気錠
  6
Continuous
100
AcDbLine
 10
325.872374967035
 20
438.3480724130037
 30
0.0
 11
325.872374967035
 21
409.3480724130037
 31
0.0
  0
ARC
  5
589
102
{ACAD_REACTORS
330
1B6D
102
}
330
1F
100
AcDbEntity
  8
電気錠
  6
Continuous
100
AcDbCircle
 10
322.8723749670349
 20
409.3480724130037
 30
0.0
 40
3.0
100
AcDbArc
 50
270.0
 51
0.0
  0
LINE
  5
58A
102
{ACAD_REACTORS
330
1B6D
102
}
330
1F
100
AcDbEntity
  8
電気錠
  6
Continuous
100
AcDbLine
 10
322.8723749670349
 20
404.3480724130037
 30
0.0
 11
322.8723749670349
 21
406.3480724130037
 31
0.0
  0
INSERT
  5
58B
102
{ACAD_REACTORS
330
B0C
330
11FF
330
1B6D
102
}
330
1F
100
AcDbEntity
  8
電気錠
100
AcDbBlockReference
  2
*U3
 10
146.8723749670349
 20
481.3480724130037
 30
0.0
 50
180.0
  0
ARC
  5
58C
102
{ACAD_REACTORS
330
1B6D
102
}
330
1F
100
AcDbEntity
  8
電気錠
  6
Continuous
100
AcDbCircle
 10
322.8723749670349
 20
438.3480724130037
 30
0.0
 40
3.0
100
AcDbArc
 50
0.0
 51
90.0
  0
LINE
  5
58D
102
{ACAD_REACTORS
330
1B6D
102
}
330
1F
100
AcDbEntity
  8
電気錠
  6
Continuous
100
AcDbLine
 10
322.8723749670349
 20
441.3480724130037
 30
0.0
 11
322.8723749670349
 21
443.3480724130037
 31
0.0
  0
ARC
  5
58E
102
{ACAD_REACTORS
330
1B6D
102
}
330
1F
100
AcDbEntity
  8
電気錠
  6
Continuous
100
AcDbCircle
 10
275.8719830876349
 20
448.3480724130036
 30
0.0
 40
1.0
100
AcDbArc
 50
90.0
 51
180.0
  0
LINE
  5
58F
102
{ACAD_REACTORS
330
1233
330
1B6D
102
}
330
1F
100
AcDbEntity
  8
電気錠
  6
Continuous
100
AcDbLine
 10
275.8719830876349
 20
449.3480724130035
 30
0.0
 11
276.871983087634
 21
449.3480724130035
 31
0.0
  0
LINE
  5
590
102
{ACAD_REACTORS
330
1217
330
1233
330
1B6D
102
}
330
1F
100
AcDbEntity
  8
電気錠
  6
Continuous
100
AcDbLine
 10
274.8719830876349
 20
443.3480724130037
 30
0.0
 11
274.8719830876349
 21
448.3480724130036
 31
0.0
  0
LINE
  5
591
102
{ACAD_REACTORS
330
1217
330
1B6D
102
}
330
1F
100
AcDbEntity
  8
電気錠
  6
Continuous
100
AcDbLine
 10
276.871983087634
 20
449.3480724130035
 30
0.0
 11
287.26428793303
 21
443.3480724130037
 31
0.0
  0
ARC
  5
597
102
{ACAD_REACTORS
330
1B6F
102
}
330
1F
100
AcDbEntity
  8
電気錠
  6
DASHED
100
AcDbCircle
 10
38.63600575858987
 20
279.0086673149821
 30
0.0
 40
3.000000000000479
100
AcDbArc
 50
189.380484367127
 51
269.999999999987
  0
LINE
  5
598
102
{ACAD_REACTORS
330
1B6F
102
}
330
1F
100
AcDbEntity
  8
電気錠
  6
DASHED
100
AcDbLine
 10
38.63600575858942
 20
274.0086673149819
 30
0.0
 11
38.63600575858942
 21
276.0086673149819
 31
0.0
  0
LINE
  5
59A
102
{ACAD_REACTORS
330
1B6E
102
}
330
1F
100
AcDbEntity
  8
電気錠
  6
DASHED
100
AcDbLine
 10
299.6884678007794
 20
376.7953936022631
 30
0.0
 11
304.0884678007782
 21
376.7953898537643
 31
0.0
  0
LINE
  5
59B
102
{ACAD_REACTORS
330
1B6E
102
}
330
1F
100
AcDbEntity
  8
電気錠
  6
DASHED
100
AcDbLine
 10
304.0884678007782
 20
376.7953908722637
 30
0.0
 11
304.0884678007782
 21
374.7956395701648
 31
0.0
  0
LINE
  5
59C
102
{ACAD_REACTORS
330
1B6E
102
}
330
1F
100
AcDbEntity
  8
電気錠
  6
DASHED
100
AcDbLine
 10
299.6884678007794
 20
376.7953908722637
 30
0.0
 11
299.6884678007794
 21
374.7956395701648
 31
0.0
  0
LINE
  5
59D
102
{ACAD_REACTORS
330
1B6E
102
}
330
1F
100
AcDbEntity
  8
電気錠
  6
DASHED
100
AcDbLine
 10
291.8884678007783
 20
376.7955960411645
 30
0.0
 11
291.8884678007783
 21
374.7958447390637
 31
0.0
  0
LINE
  5
59E
102
{ACAD_REACTORS
330
1B6E
102
}
330
1F
100
AcDbEntity
  8
電気錠
  6
DASHED
100
AcDbLine
 10
255.8884678007792
 20
376.7953704922637
 30
0.0
 11
255.8884678007792
 21
374.7956191901638
 31
0.0
  0
LINE
  5
59F
102
{ACAD_REACTORS
330
1B6F
102
}
330
1F
100
AcDbEntity
  8
電気錠
  6
Continuous
100
AcDbLine
 10
277.6356138791894
 20
267.8394431987574
 30
0.0
 11
278.6356138791885
 21
267.8394431987574
 31
0.0
  0
ARC
  5
5A0
102
{ACAD_REACTORS
330
127C
330
1B6F
102
}
330
1F
100
AcDbEntity
  8
電気錠
  6
Continuous
100
AcDbCircle
 10
277.6356138791894
 20
268.8394431987573
 30
0.0
 40
1.0
100
AcDbArc
 50
180.0
 51
270.0
  0
LINE
  5
5A1
102
{ACAD_REACTORS
330
1B6F
102
}
330
1F
100
AcDbEntity
  8
電気錠
  6
Continuous
100
AcDbLine
 10
278.6356138791885
 20
267.8394431987574
 30
0.0
 11
295.6352205826893
 21
277.6541707051575
 31
0.0
  0
LINE
  5
5A2
102
{ACAD_REACTORS
330
127C
330
1B6F
102
}
330
1F
100
AcDbEntity
  8
電気錠
  6
Continuous
100
AcDbLine
 10
276.6356138791894
 20
278.5196975717573
 30
0.0
 11
276.6356138791894
 21
268.8394431987573
 31
0.0
  0
LINE
  5
5A3
102
{ACAD_REACTORS
330
1294
330
1B6F
102
}
330
1F
100
AcDbEntity
  8
電気錠
  6
DASHED
100
AcDbLine
 10
295.6352205826893
 20
277.6541707051575
 30
0.0
 11
295.6352205826893
 21
278.5196975717573
 31
0.0
  0
LINE
  5
5A8
102
{ACAD_REACTORS
330
1B6F
102
}
330
1F
100
AcDbEntity
  8
電気錠
  6
DASHED
100
AcDbLine
 10
322.6360057585893
 20
276.0086673149818
 30
0.0
 11
322.6360057585893
 21
274.0086673149818
 31
0.0
  0
ARC
  5
5AD
102
{ACAD_REACTORS
330
1B6F
102
}
330
1F
100
AcDbEntity
  8
電気錠
  6
DASHED
100
AcDbCircle
 10
322.6360057585887
 20
279.0086673149825
 30
0.0
 40
3.000000000000681
100
AcDbArc
 50
270.000000000013
 51
350.6195156328597
  0
LINE
  5
5B2
102
{ACAD_REACTORS
330
1B6E
102
}
330
1F
100
AcDbEntity
  8
電気錠
  6
Continuous
100
AcDbLine
 10
34.96146620847902
 20
374.7958678880631
 30
0.0
 11
38.90642027477804
 21
374.7958678880631
 31
0.0
  0
LINE
  5
5B3
102
{ACAD_REACTORS
330
1B6E
102
}
330
1F
100
AcDbEntity
  8
電気錠
  6
Continuous
100
AcDbLine
 10
34.96146620847902
 20
374.7958678880631
 30
0.0
 11
34.96146620847902
 21
376.7956191901638
 31
0.0
  0
LINE
  5
5B4
102
{ACAD_REACTORS
330
1B6E
102
}
330
1F
100
AcDbEntity
  8
電気錠
  6
DASHED
100
AcDbLine
 10
49.79090244157886
 20
376.7956037644633
 30
0.0
 11
49.79090244157886
 21
374.7958524624636
 31
0.0
  0
LINE
  5
5B5
102
{ACAD_REACTORS
330
1B6E
102
}
330
1F
100
AcDbEntity
  8
電気錠
  6
DASHED
100
AcDbLine
 10
54.19090244157938
 20
376.7956037644633
 30
0.0
 11
54.19090244157938
 21
374.7958524624636
 31
0.0
  0
LINE
  5
5B6
102
{ACAD_REACTORS
330
1B6E
102
}
330
1F
100
AcDbEntity
  8
電気錠
  6
DASHED
100
AcDbLine
 10
49.79090244157886
 20
376.7956064944637
 30
0.0
 11
54.19090244157938
 21
376.7956027460631
 31
0.0
  0
LINE
  5
5B8
330
1F
100
AcDbEntity
  8
寸法線
  6
BORDER
100
AcDbLine
 10
180.8884678007792
 20
447.8908131556261
 30
0.0
 11
180.8884678007792
 21
261.7956191901638
 31
0.0
  0
LINE
  5
5BB
102
{ACAD_REACTORS
330
1B6E
102
}
330
1F
100
AcDbEntity
  8
電気錠
  6
DASHED
100
AcDbLine
 10
87.38885968017838
 20
364.7956191901638
 30
0.0
 11
66.88885968017837
 21
364.7956191901638
 31
0.0
  0
LINE
  5
5BC
102
{ACAD_REACTORS
330
1B6E
102
}
330
1F
100
AcDbEntity
  8
電気錠
  6
Continuous
100
AcDbLine
 10
326.7273031208791
 20
376.7953704922637
 30
0.0
 11
326.7273031208791
 21
374.7956191901638
 31
0.0
  0
LINE
  5
5BD
102
{ACAD_REACTORS
330
1B6E
102
}
330
1F
100
AcDbEntity
  8
電気錠
  6
Continuous
100
AcDbLine
 10
321.8003015284779
 20
374.7956191901638
 30
0.0
 11
326.7273031208791
 21
374.7956191901638
 31
0.0
  0
LINE
  5
5C4
102
{ACAD_REACTORS
330
1B6D
102
}
330
1F
100
AcDbEntity
  8
電気錠
  6
Continuous
100
AcDbLine
 10
322.9605815299352
 20
443.3480724130037
 30
0.0
 11
36.87237496703494
 21
443.3480724130038
 31
0.0
  0
INSERT
  5
5C5
102
{ACAD_REACTORS
330
B0C
330
BBB
330
1254
330
1B6D
102
}
330
1F
100
AcDbEntity
  8
電気錠
100
AcDbBlockReference
  2
*U4
 10
146.8723749670349
 20
481.3480724130037
 30
0.0
 50
180.0
  0
LINE
  5
5C6
102
{ACAD_REACTORS
330
1B6D
102
}
330
1F
100
AcDbEntity
  8
電気錠
  6
DASHED
100
AcDbLine
 10
322.8723749670349
 20
406.3480724130037
 30
0.0
 11
36.87237496703494
 21
406.3480724130037
 31
0.0
  0
LINE
  5
5C7
102
{ACAD_REACTORS
330
1B6E
102
}
330
1F
100
AcDbEntity
  8
電気錠
  6
DASHED
100
AcDbLine
 10
37.88846780077836
 20
374.7958678880631
 30
0.0
 11
321.8884678007793
 21
374.7958678880631
 31
0.0
  0
LINE
  5
5C8
102
{ACAD_REACTORS
330
1B6E
102
}
330
1F
100
AcDbEntity
  8
電気錠
  6
Continuous
100
AcDbLine
 10
34.96146620847902
 20
376.7956191901638
 30
0.0
 11
326.8884678007793
 21
376.7956191901638
 31
0.0
  0
LINE
  5
5C9
102
{ACAD_REACTORS
330
1B6E
102
}
330
1F
100
AcDbEntity
  8
電気錠
  6
Continuous
100
AcDbLine
 10
34.88846780077836
 20
376.7956191901638
 30
0.0
 11
326.8154693930786
 21
376.7953704922637
 31
0.0
  0
INSERT
  5
5CA
102
{ACAD_REACTORS
330
9A9
330
1B6E
102
}
330
1F
100
AcDbEntity
  8
電気錠
100
AcDbBlockReference
  2
*U6
 10
213.8884678007784
 20
366.7956191901638
 30
0.0
  0
LINE
  5
5CB
102
{ACAD_REACTORS
330
1B6D
102
}
330
1F
100
AcDbEntity
  8
電気錠
  6
DASHED
100
AcDbLine
 10
322.8723749670349
 20
441.3480724130037
 30
0.0
 11
36.87237496703494
 21
441.3480724130037
 31
0.0
  0
LINE
  5
5CC
102
{ACAD_REACTORS
330
1294
330
1B6F
102
}
330
1F
100
AcDbEntity
  8
電気錠
  6
DASHED
100
AcDbLine
 10
276.6356138791894
 20
274.0086673149818
 30
0.0
 11
38.63600575858942
 21
274.0086673149819
 31
0.0
  0
LINE
  5
5CD
102
{ACAD_REACTORS
330
1B6F
102
}
330
1F
100
AcDbEntity
  8
電気錠
  6
DASHED
100
AcDbLine
 10
276.6356138791894
 20
276.0086673149818
 30
0.0
 11
38.63600575858942
 21
276.0086673149819
 31
0.0
  0
MTEXT
  5
5D1
330
1F
100
AcDbEntity
  8
補足
100
AcDbMText
 10
11.62713618888426
 20
472.7182755144925
 30
0.0
 40
5.0
 41
82.09991240626502
 71
     1
 72
     5
  1
(窓開口終端側)
  7
BIGFONT
 73
     1
 44
1.0
1001
ACAD
1000
MTEXTBEGIN
1070
    73
1070
     1
1070
    44
1040
1.0
1070
    74
1070
     0
1000
MTEXTEND
1000
ACAD_MTEXT_DEFINED_HEIGHT_BEGIN
1070
    46
1040
6.242553872839577
1000
ACAD_MTEXT_DEFINED_HEIGHT_END
  0
DIMENSION
  5
7F0
330
1F
100
AcDbEntity
  8
寸法線
100
AcDbDimension
  2
*D7
 10
329.6360057585894
 20
245.7157791448384
 30
0.0
 11
180.6360057585894
 21
250.3407791448384
 31
0.0
 70
    32
 71
     5
 42
298.0
  3
ISO-25
100
AcDbAlignedDimension
 13
31.63600575858942
 23
274.0196975717574
 33
0.0
 14
329.6360057585894
 24
274.0196975717573
 34
0.0
100
AcDbRotatedDimension
1001
ACAD
1000
DSTYLE
1002
{
1070
   140
1040
8.0
1002
}
  0
LINE
  5
8C2
330
1F
100
AcDbEntity
  8
補足
100
AcDbLine
 10
30.87237496703494
 20
466.4757216416528
 30
0.0
 11
30.87237496703493
 21
401.3480724130037
 31
0.0
  0
LINE
  5
8C3
330
1F
100
AcDbEntity
  8
補足
100
AcDbLine
 10
99.30897953777458
 20
464.3796669602495
 30
0.0
 11
91.20013471571235
 21
419.3852919952706
 31
0.0
  0
LINE
  5
8C4
330
1F
100
AcDbEntity
  8
補足
100
AcDbLine
 10
164.5077352901207
 20
466.416676653215
 30
0.0
 11
157.5810031316863
 21
424.8766551063822
 31
0.0
  0
LINE
  5
8C5
330
1F
100
AcDbEntity
  8
補足
100
AcDbLine
 10
264.152933316619
 20
461.1235727967611
 30
0.0
 11
279.0232284213463
 21
445.731819735711
 31
0.0
  0
MTEXT
  5
8CB
330
1F
100
AcDbEntity
  8
補足
100
AcDbMText
 10
298.2242458932908
 20
473.2990296313623
 30
0.0
 40
5.0
 41
59.74855413319119
 71
     1
 72
     5
  1
止め穴
  7
BIGFONT
 73
     1
 44
1.0
1001
ACAD
1000
MTEXTBEGIN
1070
    73
1070
     1
1070
    44
1040
1.0
1070
    74
1070
     0
1000
MTEXTEND
1000
ACAD_MTEXT_DEFINED_HEIGHT_BEGIN
1070
    46
1040
6.242553872839577
1000
ACAD_MTEXT_DEFINED_HEIGHT_END
  0
LINE
  5
8CC
330
1F
100
AcDbEntity
  8
補足
100
AcDbLine
 10
309.1003918820065
 20
434.7661598299053
 30
0.0
 11
306.5569492656003
 21
466.5340808101028
 31
0.0
  0
LINE
  5
8E5
102
{ACAD_REACTORS
330
1B6F
102
}
330
1F
100
AcDbEntity
  8
電気錠
  6
Continuous
100
AcDbLine
 10
328.6360057585894
 20
315.0197155015572
 30
0.0
 11
32.63600575858942
 21
315.0197155015573
 31
0.0
  0
LINE
  5
8E6
102
{ACAD_REACTORS
330
1B6F
102
}
330
1F
100
AcDbEntity
  8
電気錠
  6
Continuous
100
AcDbLine
 10
328.6360057585894
 20
317.0195593848572
 30
0.0
 11
32.63600575858942
 21
317.0195593848573
 31
0.0
  0
LINE
  5
8E7
102
{ACAD_REACTORS
330
1B6F
102
}
330
1F
100
AcDbEntity
  8
電気錠
  6
Continuous
100
AcDbLine
 10
31.63600575858942
 20
278.5196975717574
 30
0.0
 11
329.6360057585894
 21
278.5196975717573
 31
0.0
  0
LINE
  5
8E8
102
{ACAD_REACTORS
330
1B6F
102
}
330
1F
100
AcDbEntity
  8
電気錠
  6
Continuous
100
AcDbLine
 10
33.63600575858942
 20
317.0086673149819
 30
0.0
 11
327.6360057585894
 21
317.0086673149818
 31
0.0
  0
LINE
  5
8E9
102
{ACAD_REACTORS
330
1B6F
102
}
330
1F
100
AcDbEntity
  8
電気錠
  6
Continuous
100
AcDbLine
 10
329.6360057585894
 20
316.0196975717573
 30
0.0
 11
329.6360057585894
 21
274.0196975717573
 31
0.0
  0
ARC
  5
8EA
102
{ACAD_REACTORS
330
1B6F
102
}
330
1F
100
AcDbEntity
  8
電気錠
  6
Continuous
100
AcDbCircle
 10
328.6360057585894
 20
314.0196975717573
 30
0.0
 40
1.0
100
AcDbArc
 50
0.0
 51
90.0
  0
ARC
  5
8EB
102
{ACAD_REACTORS
330
1B6F
102
}
330
1F
100
AcDbEntity
  8
電気錠
  6
Continuous
100
AcDbCircle
 10
328.6360057585894
 20
316.0196975717573
 30
0.0
 40
1.0
100
AcDbArc
 50
0.0
 51
90.0
  0
LINE
  5
8EC
102
{ACAD_REACTORS
330
1B6F
102
}
330
1F
100
AcDbEntity
  8
電気錠
  6
Continuous
100
AcDbLine
 10
329.6360057585894
 20
274.0086673149818
 30
0.0
 11
327.1359636490725
 21
274.0086673149818
 31
0.0
  0
LINE
  5
8ED
102
{ACAD_REACTORS
330
1B6F
102
}
330
1F
100
AcDbEntity
  8
電気錠
  6
Continuous
100
AcDbLine
 10
327.1359636490725
 20
274.0196975717573
 30
0.0
 11
327.1359636490725
 21
278.5196975717573
 31
0.0
  0
LINE
  5
8EE
102
{ACAD_REACTORS
330
1B6F
102
}
330
1F
100
AcDbEntity
  8
電気錠
  6
Continuous
100
AcDbLine
 10
31.63600575858942
 20
274.0196975717574
 30
0.0
 11
34.13600575858942
 21
274.0196975717574
 31
0.0
  0
LINE
  5
8EF
102
{ACAD_REACTORS
330
1B6F
102
}
330
1F
100
AcDbEntity
  8
電気錠
  6
Continuous
100
AcDbLine
 10
31.63596364907249
 20
274.0086343037573
 30
0.0
 11
33.49250014588944
 21
274.0086343037573
 31
0.0
  0
LINE
  5
8F0
102
{ACAD_REACTORS
330
1B6F
102
}
330
1F
100
AcDbEntity
  8
電気錠
  6
Continuous
100
AcDbLine
 10
34.13600575858942
 20
278.5196975717574
 30
0.0
 11
34.13600575858942
 21
274.0196975717574
 31
0.0
  0
ARC
  5
8F1
102
{ACAD_REACTORS
330
1B6F
102
}
330
1F
100
AcDbEntity
  8
電気錠
  6
Continuous
100
AcDbCircle
 10
32.63600575858942
 20
316.0196975717574
 30
0.0
 40
1.0
100
AcDbArc
 50
90.0
 51
180.0
  0
ARC
  5
8F2
102
{ACAD_REACTORS
330
1B6F
102
}
330
1F
100
AcDbEntity
  8
電気錠
  6
Continuous
100
AcDbCircle
 10
32.63600575858942
 20
314.0198536884574
 30
0.0
 40
0.999779232
100
AcDbArc
 50
90.0
 51
180.0000013966057
  0
LINE
  5
8F3
102
{ACAD_REACTORS
330
1B6F
102
}
330
1F
100
AcDbEntity
  8
電気錠
  6
Continuous
100
AcDbLine
 10
31.63600575858942
 20
316.0196975717574
 30
0.0
 11
31.63600575858942
 21
274.0196975717574
 31
0.0
  0
DIMENSION
  5
93B
330
1F
100
AcDbEntity
  8
寸法線
100
AcDbDimension
  2
*D8
 10
139.6360057585894
 20
290.9998071038109
 30
0.0
 11
186.9153318941835
 21
290.9998071038109
 31
0.0
 70
   160
  1
穴ピッチ 82
 71
     5
 42
82.0
  3
ISO-25
100
AcDbAlignedDimension
 13
221.6360057585894
 23
293.5196975717573
 33
0.0
 14
139.6360057585894
 24
293.5196975717573
 34
0.0
 50
180.0
100
AcDbRotatedDimension
1001
ACAD
1000
DSTYLE
1002
{
1070
   140
1040
5.0
1002
}
  0
DIMENSION
  5
992
102
{ACAD_XDICTIONARY
360
99F
102
}
102
{ACAD_REACTORS
330
9A9
102
}
330
1F
100
AcDbEntity
  8
寸法線
100
AcDbDimension
  2
*D9
 10
350.9675175325197
 20
338.7953704300638
 30
0.0
 11
346.3425175325197
 21
357.7953704300638
 31
0.0
 70
    32
 71
     5
 42
37.99999999999994
  3
ISO-25
100
AcDbAlignedDimension
 13
328.6884678007784
 23
376.7953704300638
 33
0.0
 14
328.6884678007784
 24
338.7953704300638
 34
0.0
 50
90.0
100
AcDbRotatedDimension
1001
ACAD
1000
DSTYLE
1002
{
1070
   140
1040
8.0
1002
}
  0
DIMENSION
  5
AF5
102
{ACAD_XDICTIONARY
360
B02
102
}
102
{ACAD_REACTORS
330
B0C
102
}
330
1F
100
AcDbEntity
  8
寸法線
100
AcDbDimension
  2
*D10
 10
328.8723749670349
 20
416.511914106806
 30
0.0
 11
318.8723749670349
 21
419.136914106806
 31
0.0
 70
    32
  1
(20)
 71
     5
 42
19.99999999999988
  3
ISO-25
100
AcDbAlignedDimension
 13
308.872374967035
 23
435.3480724130037
 33
0.0
 14
328.8723749670349
 24
443.3480724130037
 34
0.0
 50
180.0
100
AcDbRotatedDimension
1001
ACAD
1000
DSTYLE
1002
{
1070
   140
1040
4.0
1002
}
  0
DIMENSION
  5
B0D
330
1F
100
AcDbEntity
  8
寸法線
100
AcDbDimension
  2
*D11
 10
58.87237496703495
 20
452.3017330360047
 30
0.0
 11
190.2670419466737
 21
452.3017330360047
 31
0.0
 70
   160
  1
穴ピッチ 250
 71
     5
 42
250.0
  3
ISO-25
100
AcDbAlignedDimension
 13
308.872374967035
 23
434.7230724130037
 33
0.0
 14
58.87237496703495
 24
435.3480724130037
 34
0.0
 50
180.0
100
AcDbRotatedDimension
1001
ACAD
1000
DSTYLE
1002
{
1070
   140
1040
5.0
1002
}
  0
DIMENSION
  5
B25
330
1F
100
AcDbEntity
  8
寸法線
100
AcDbDimension
  2
*D12
 10
68.87237496703495
 20
393.6189743972116
 30
0.0
 11
86.87237496703446
 21
395.9939743972116
 31
0.0
 70
    32
 71
     5
 42
35.99999999999905
  3
ISO-25
100
AcDbAlignedDimension
 13
104.872374967034
 23
432.8480724130037
 33
0.0
 14
68.87237496703495
 24
432.8480724130037
 34
0.0
 50
180.0
100
AcDbRotatedDimension
1001
ACAD
1000
DSTYLE
1002
{
1070
   140
1040
3.5
1002
}
  0
DIMENSION
  5
B58
102
{ACAD_XDICTIONARY
360
B65
102
}
102
{ACAD_REACTORS
330
B6F
102
}
330
1F
100
AcDbEntity
  8
寸法線
100
AcDbDimension
  2
*D13
 10
110.6761135601181
 20
434.8480724130038
 30
0.0
 11
108.301113560118
 21
423.8480724130037
 31
0.0
 70
    32
 71
     5
 42
22.00000000000011
  3
ISO-25
100
AcDbAlignedDimension
 13
102.8723749670349
 23
412.8480724130037
 33
0.0
 14
102.8723749670349
 24
434.8480724130038
 34
0.0
 50
270.0
100
AcDbRotatedDimension
1001
ACAD
1000
DSTYLE
1002
{
1070
   140
1040
3.5
1002
}
  0
DIMENSION
  5
BA4
102
{ACAD_XDICTIONARY
360
BB1
102
}
102
{ACAD_REACTORS
330
BBB
102
}
330
1F
100
AcDbEntity
  8
寸法線
100
AcDbDimension
  2
*D14
 10
30.87237496703494
 20
393.6189743972116
 30
0.0
 11
44.87237496703494
 21
395.9939743972116
 31
0.0
 70
    32
 71
     5
 42
28.00000000000001
  3
ISO-25
100
AcDbAlignedDimension
 13
58.87237496703495
 23
435.3480724130037
 33
0.0
 14
30.87237496703494
 24
443.3480724130037
 34
0.0
 50
180.0
100
AcDbRotatedDimension
1001
ACAD
1000
DSTYLE
1002
{
1070
   140
1040
3.5
1002
}
  0
DIMENSION
  5
BBC
330
1F
100
AcDbEntity
  8
寸法線
100
AcDbDimension
  2
*D15
 10
68.87237496703495
 20
393.6189743972116
 30
0.0
 11
63.87237496703495
 21
395.9939743972116
 31
0.0
 70
    32
 71
     5
 42
9.999999999999992
  3
ISO-25
100
AcDbAlignedDimension
 13
58.87237496703495
 23
437.5480724130039
 33
0.0
 14
68.87237496703495
 24
433.4730724130038
 34
0.0
 50
180.0
100
AcDbRotatedDimension
1001
ACAD
1000
DSTYLE
1002
{
1070
   140
1040
3.5
1002
}
  0
DIMENSION
  5
CB6
330
1F
100
AcDbEntity
  8
寸法線
100
AcDbDimension
  2
*D16
 10
339.0470367391348
 20
316.0196975717573
 30
0.0
 11
336.4220367391348
 21
308.5196975717574
 31
0.0
 70
    32
 71
     5
 42
15.0
  3
ISO-25
100
AcDbAlignedDimension
 13
229.1360057585894
 23
301.0196975717573
 33
0.0
 14
329.6360057585894
 24
316.0196975717573
 34
0.0
 50
270.0
100
AcDbRotatedDimension
1001
ACAD
1000
DSTYLE
1002
{
1070
   140
1040
4.0
1002
}
  0
LINE
  5
1062
330
1F
100
AcDbEntity
  8
0
100
AcDbLine
 10
0.0000000000000462
 20
0.0000000000000391
 30
0.0
 11
370.45
 21
0.0000000000000391
 31
0.0
  0
LINE
  5
1063
330
1F
100
AcDbEntity
  8
0
100
AcDbLine
 10
370.45
 20
0.0000000000000391
 30
0.0
 11
370.45
 21
0.0000000000000391
 31
0.0
  0
LINE
  5
1064
330
1F
100
AcDbEntity
  8
0
100
AcDbLine
 10
370.45
 20
0.0000000000000391
 30
0.0
 11
370.45
 21
523.4999999999993
 31
0.0
  0
LINE
  5
1065
330
1F
100
AcDbEntity
  8
0
100
AcDbLine
 10
370.45
 20
502.4497790018178
 30
0.0
 11
0.0000000000002274
 21
502.4497790018178
 31
0.0
  0
LINE
  5
1066
330
1F
100
AcDbEntity
  8
0
100
AcDbLine
 10
0.0000000000002274
 20
523.4999999999993
 30
0.0
 11
0.0000000000000462
 21
0.0000000000000391
 31
0.0
  0
DIMENSION
  5
11E4
102
{ACAD_XDICTIONARY
360
11F3
102
}
102
{ACAD_REACTORS
330
11FF
102
}
330
1F
100
AcDbEntity
  8
寸法線
100
AcDbDimension
  2
*D17
 10
311.0723749670349
 20
431.4390127132821
 30
0.0
 11
320.4890416337016
 21
434.1056793799487
 31
0.0
 70
    32
 71
     5
 42
4.399999999999977
  3
ISO-25
100
AcDbAlignedDimension
 13
306.6723749670349
 23
435.3480724130037
 33
0.0
 14
311.0723749670349
 24
435.3480724130037
 34
0.0
 50
180.0
100
AcDbRotatedDimension
1001
ACAD
1000
DSTYLE
1002
{
1070
   140
1040
3.5
1002
}
  0
DIMENSION
  5
1200
102
{ACAD_XDICTIONARY
360
120D
102
}
102
{ACAD_REACTORS
330
1217
102
}
330
1F
100
AcDbEntity
  8
寸法線
100
AcDbDimension
  2
*D18
 10
274.8719830876349
 20
433.3079286082681
 30
0.0
 11
281.0681355103324
 21
435.6829286082681
 31
0.0
 70
    32
  1
(12)
 71
     5
 42
12.39230484539507
  3
ISO-25
100
AcDbAlignedDimension
 13
287.26428793303
 23
443.3480724130037
 33
0.0
 14
274.8719830876349
 24
443.3480724130037
 34
0.0
 50
180.0
100
AcDbRotatedDimension
1001
ACAD
1000
DSTYLE
1002
{
1070
   140
1040
3.5
1002
}
  0
DIMENSION
  5
1218
102
{ACAD_XDICTIONARY
360
1227
102
}
102
{ACAD_REACTORS
330
1233
102
}
330
1F
100
AcDbEntity
  8
寸法線
100
AcDbDimension
  2
*D19
 10
268.7132345864142
 20
449.3480724130035
 30
0.0
 11
266.338234586414
 21
446.3480724130037
 31
0.0
 70
    32
 71
     5
 42
5.999999999999886
  3
ISO-25
100
AcDbAlignedDimension
 13
274.8719830876349
 23
443.3480724130037
 33
0.0
 14
275.8719830876349
 24
449.3480724130035
 34
0.0
 50
270.0
100
AcDbRotatedDimension
1001
ACAD
1000
DSTYLE
1002
{
1070
   140
1040
3.5
1002
}
  0
DIMENSION
  5
123D
102
{ACAD_XDICTIONARY
360
124A
102
}
102
{ACAD_REACTORS
330
1254
102
}
330
1F
100
AcDbEntity
  8
寸法線
100
AcDbDimension
  2
*D20
 10
328.8723749670349
 20
424.0584641580173
 30
0.0
 11
301.8721790273349
 21
426.4334641580173
 31
0.0
 70
    32
 71
     5
 42
54.00039187940001
  3
ISO-25
100
AcDbAlignedDimension
 13
274.8719830876349
 23
443.9730724130035
 33
0.0
 14
328.8723749670349
 24
443.3480724130037
 34
0.0
 50
180.0
100
AcDbRotatedDimension
1001
ACAD
1000
DSTYLE
1002
{
1070
   140
1040
3.5
1002
}
  0
LINE
  5
125C
102
{ACAD_REACTORS
330
1B6F
102
}
330
1F
100
AcDbEntity
  8
電気錠
  6
DASHED
100
AcDbLine
 10
322.6360057585893
 20
276.0086673149818
 30
0.0
 11
292.785125106883
 21
276.0086673149818
 31
0.0
  0
LINE
  5
1264
102
{ACAD_REACTORS
330
1B6F
102
}
330
1F
100
AcDbEntity
  8
電気錠
  6
DASHED
100
AcDbLine
 10
322.6360058625622
 20
274.008667097448
 30
0.0
 11
289.3210231149712
 21
274.008667097448
 31
0.0
  0
DIMENSION
  5
1265
102
{ACAD_XDICTIONARY
360
1272
102
}
102
{ACAD_REACTORS
330
127C
102
}
330
1F
100
AcDbEntity
  8
寸法線
100
AcDbDimension
  2
*D21
 10
302.4244731229177
 20
278.5196975717573
 30
0.0
 11
302.4244731229176
 21
259.9918312179029
 31
0.0
 70
   160
  1
(10)
 71
     5
 42
10.68025437299997
  3
ISO-25
100
AcDbAlignedDimension
 13
277.6356138791894
 23
267.8394431987574
 33
0.0
 14
276.6356138791894
 24
278.5196975717573
 34
0.0
 50
270.0
100
AcDbRotatedDimension
1001
ACAD
1000
DSTYLE
1002
{
1070
   140
1040
3.5
1002
}
  0
DIMENSION
  5
127D
102
{ACAD_XDICTIONARY
360
128A
102
}
102
{ACAD_REACTORS
330
1294
102
}
330
1F
100
AcDbEntity
  8
寸法線
100
AcDbDimension
  2
*D22
 10
276.6356138791894
 20
286.4338194822131
 30
0.0
 11
286.1354172309394
 21
288.8088194822131
 31
0.0
 70
    32
 71
     5
 42
18.99960670349992
  3
ISO-25
100
AcDbAlignedDimension
 13
295.6352205826893
 23
277.6541707051575
 33
0.0
 14
276.6356138791894
 24
274.0086673149818
 34
0.0
 50
180.0
100
AcDbRotatedDimension
1001
ACAD
1000
DSTYLE
1002
{
1070
   140
1040
3.5
1002
}
  0
MTEXT
  5
17BC
330
1F
100
AcDbEntity
  8
補足
100
AcDbMText
 10
104.3439156491581
 20
272.2369366016782
 30
0.0
 40
5.0
 41
57.60420509074203
 71
     1
 72
     5
  1
カバー固定穴
  7
BIGFONT
 73
     1
 44
1.0
1001
ACAD
1000
MTEXTBEGIN
1070
    73
1070
     1
1070
    44
1040
1.0
1070
    74
1070
     0
1000
MTEXTEND
  0
LINE
  5
17C4
330
1F
100
AcDbEntity
  8
補足
100
AcDbLine
 10
139.6855842662448
 20
301.2151767321072
 30
0.0
 11
123.0047045560077
 21
272.5757360617888
 31
0.0
  0
LINE
  5
197C
330
1F
100
AcDbEntity
  8
寸法線
  6
BORDER
100
AcDbLine
 10
139.6360057585894
 20
308.5196975717573
 30
0.0
 11
139.6360057585894
 21
293.5196975717573
 31
0.0
  0
CIRCLE
  5
197D
102
{ACAD_REACTORS
330
1B6F
102
}
330
1F
100
AcDbEntity
  8
電気錠
  6
Continuous
100
AcDbCircle
 10
139.6360057585894
 20
301.0196975717573
 30
0.0
 40
2.1
  0
CIRCLE
  5
197E
102
{ACAD_REACTORS
330
1B6F
102
}
330
1F
100
AcDbEntity
  8
電気錠
  6
Continuous
100
AcDbCircle
 10
139.6360057585894
 20
301.0196975717573
 30
0.0
 40
5.0
  0
LINE
  5
197F
330
1F
100
AcDbEntity
  8
寸法線
  6
BORDER
100
AcDbLine
 10
147.1360057585894
 20
301.0196975717573
 30
0.0
 11
132.1360057585894
 21
301.0196975717573
 31
0.0
  0
LINE
  5
1991
330
1F
100
AcDbEntity
  8
寸法線
  6
BORDER
100
AcDbLine
 10
221.6360057585895
 20
308.5196975717573
 30
0.0
 11
221.6360057585894
 21
293.5196975717573
 31
0.0
  0
CIRCLE
  5
1992
102
{ACAD_REACTORS
330
1B6F
102
}
330
1F
100
AcDbEntity
  8
電気錠
  6
Continuous
100
AcDbCircle
 10
221.6360057585895
 20
301.0196975717573
 30
0.0
 40
2.1
  0
CIRCLE
  5
1993
102
{ACAD_REACTORS
330
1B6F
102
}
330
1F
100
AcDbEntity
  8
電気錠
  6
Continuous
100
AcDbCircle
 10
221.6360057585895
 20
301.0196975717573
 30
0.0
 40
5.0
  0
LINE
  5
1994
330
1F
100
AcDbEntity
  8
寸法線
  6
BORDER
100
AcDbLine
 10
229.1360057585894
 20
301.0196975717573
 30
0.0
 11
214.1360057585894
 21
301.0196975717573
 31
0.0
  0
MTEXT
  5
19B4
330
1F
100
AcDbEntity
  8
補足
100
AcDbMText
 10
25.71410815387378
 20
122.5931413132524
 30
0.0
 40
7.0
 41
97.60864549221331
 71
     1
 72
     5
  1
{\fMS PGothic|b0|i0|c128|p50;受座}
 73
     1
 44
1.0
1001
ACAD
1000
MTEXTBEGIN
1070
    73
1070
     1
1070
    44
1040
1.0
1070
    74
1070
     0
1000
MTEXTEND
  0
DIMENSION
  5
19FA
330
1F
100
AcDbEntity
  8
寸法線
100
AcDbDimension
  2
*D23
 10
262.78071021882
 20
108.1658252745264
 30
0.0
 11
172.78071021882
 21
112.7908252745264
 31
0.0
 70
    32
 71
     5
 42
180.0
  3
ISO-25
100
AcDbAlignedDimension
 13
82.78071021881997
 23
55.98897893674458
 33
0.0
 14
262.78071021882
 24
55.98897893674458
 34
0.0
100
AcDbRotatedDimension
1001
ACAD
1000
DSTYLE
1002
{
1070
   140
1040
8.0
1002
}
  0
DIMENSION
  5
19FB
330
1F
100
AcDbEntity
  8
寸法線
100
AcDbDimension
  2
*D24
 10
324.3885
 20
67.60442550118671
 30
0.0
 11
315.388516997151
 21
69.97942550118671
 31
0.0
 70
    32
 71
     5
 42
17.99996600569812
  3
ISO-25
100
AcDbAlignedDimension
 13
306.3885339943019
 23
81.50193827702223
 33
0.0
 14
324.3885
 24
81.50193827702223
 34
0.0
100
AcDbRotatedDimension
1001
ACAD
1000
DSTYLE
1002
{
1070
   140
1040
3.5
1002
}
  0
DIMENSION
  5
19FC
330
1F
100
AcDbEntity
  8
寸法線
100
AcDbDimension
  2
*D25
 10
288.2074952529656
 20
55.98897893674457
 30
0.0
 11
285.5824952529656
 21
51.98898946837232
 31
0.0
 70
    32
 71
     5
 42
7.999978936744575
  3
ISO-25
100
AcDbAlignedDimension
 13
262.78071021882
 23
47.98899999999999
 33
0.0
 14
263.40571021882
 24
55.98897893674458
 34
0.0
 50
90.0
100
AcDbRotatedDimension
1001
ACAD
1000
DSTYLE
1002
{
1070
   140
1040
4.0
1002
}
  0
LINE
  5
1A65
330
1F
100
AcDbEntity
  8
電気錠
  6
Continuous
100
AcDbLine
 10
324.3885
 20
81.50193827702223
 30
0.0
 11
316.3885339943018
 21
81.50193827702223
 31
0.0
  0
LINE
  5
1A66
330
1F
100
AcDbEntity
  8
電気錠
  6
Continuous
100
AcDbLine
 10
316.3885339943018
 20
95.50193827702223
 30
0.0
 11
324.3885
 21
95.50193827702223
 31
0.0
  0
LINE
  5
1A67
330
1F
100
AcDbEntity
  8
電気錠
  6
Continuous
100
AcDbLine
 10
324.3885
 20
95.50193827702223
 30
0.0
 11
324.3885
 21
81.50193827702223
 31
0.0
  0
LINE
  5
1A6A
330
1F
100
AcDbEntity
  8
電気錠
  6
Continuous
100
AcDbLine
 10
316.3885339943018
 20
81.50193827702223
 30
0.0
 11
316.3885339943018
 21
95.50193827702223
 31
0.0
  0
LINE
  5
1A6B
330
1F
100
AcDbEntity
  8
電気錠
  6
Continuous
100
AcDbLine
 10
306.3885339943019
 20
95.50193827702223
 30
0.0
 11
306.3885339943019
 21
81.50193827702223
 31
0.0
  0
LINE
  5
1A6C
330
1F
100
AcDbEntity
  8
電気錠
  6
Continuous
100
AcDbLine
 10
316.3885339943018
 20
95.50193827702223
 30
0.0
 11
306.3885339943019
 21
95.50193827702223
 31
0.0
  0
LINE
  5
1A6D
330
1F
100
AcDbEntity
  8
電気錠
  6
Continuous
100
AcDbLine
 10
306.3885339943019
 20
81.50193827702223
 30
0.0
 11
316.3885339943018
 21
81.50193827702223
 31
0.0
  0
DIMENSION
  5
1AC6
330
1F
100
AcDbEntity
  8
寸法線
100
AcDbDimension
  2
*D26
 10
333.384459818094
 20
95.50193827702223
 30
0.0
 11
330.759459818094
 21
88.50193827702229
 31
0.0
 70
    32
 71
     5
 42
14.0
  3
ISO-25
100
AcDbAlignedDimension
 13
324.3885
 23
81.50193827702223
 33
0.0
 14
324.3885
 24
95.50193827702223
 34
0.0
 50
90.0
100
AcDbRotatedDimension
1001
ACAD
1000
DSTYLE
1002
{
1070
   140
1040
4.0
1002
}
  0
DIMENSION
  5
1B20
330
1F
100
AcDbEntity
  8
寸法線
100
AcDbDimension
  2
*D27
 10
198.9361920894355
 20
87.87825882175006
 30
0.0
 11
225.6853360624004
 21
96.71801674864324
 31
0.0
 70
   163
  1
2-M4ｻﾗ
 71
     5
 42
4.200000000001551
  3
ISO-25
100
AcDbDiametricDimension
 15
202.9240756862818
 25
89.19612999072572
 35
0.0
 40
0.0
1001
ACAD_DSTYLE_DIMRADIAL_EXTENSION
1070
   387
1070
     1
1070
   388
1040
0.0
1070
   390
1040
0.0
1001
ACAD
1000
DSTYLE
1002
{
1070
   279
1070
     1
1070
   140
1040
5.0
1070
   288
1070
     1
1002
}
  0
DIMENSION
  5
1BB1
330
1F
100
AcDbEntity
  8
寸法線
100
AcDbDimension
  2
*D28
 10
200.9071880090482
 20
69.64725503616636
 30
0.0
 11
177.7706614990379
 21
69.64725503616636
 31
0.0
 70
   160
  1
穴ピッチ 50
 71
     5
 42
50.0
  3
ISO-25
100
AcDbAlignedDimension
 13
150.9071880090482
 23
88.54078173649881
 33
0.0
 14
200.9071880090482
 24
88.54078173649881
 34
0.0
100
AcDbRotatedDimension
1001
ACAD
1000
DSTYLE
1002
{
1070
   140
1040
5.0
1002
}
  0
LINE
  5
1D29
330
1F
100
AcDbEntity
  8
電気錠
  6
Continuous
100
AcDbLine
 10
82.78071021881997
 20
55.98897893674458
 30
0.0
 11
82.78071021881997
 21
47.98899999999999
 31
0.0
  0
LINE
  5
1D2E
330
1F
100
AcDbEntity
  8
電気錠
  6
DASHED
100
AcDbLine
 10
203.01128407092
 20
53.04432301054458
 30
0.0
 11
206.01128407092
 21
56.04432301054457
 31
0.0
  0
LINE
  5
1D2F
330
1F
100
AcDbEntity
  8
電気錠
  6
DASHED
100
AcDbLine
 10
203.01128407092
 20
47.98899999999999
 30
0.0
 11
203.01128407092
 21
53.04432301054458
 31
0.0
  0
LINE
  5
1D31
330
1F
100
AcDbEntity
  8
電気錠
  6
DASHED
100
AcDbLine
 10
198.51128407092
 20
53.04432301054458
 30
0.0
 11
195.5112840709199
 21
56.04432301054457
 31
0.0
  0
LINE
  5
1D32
330
1F
100
AcDbEntity
  8
電気錠
  6
DASHED
100
AcDbLine
 10
198.51128407092
 20
53.04432301054458
 30
0.0
 11
198.51128407092
 21
47.98899999999999
 31
0.0
  0
LINE
  5
1D3E
330
1F
100
AcDbEntity
  8
電気錠
  6
Continuous
100
AcDbLine
 10
262.78071021882
 20
49.98897893674457
 30
0.0
 11
262.78071021882
 21
55.98897893674458
 31
0.0
  0
LINE
  5
1D3F
330
1F
100
AcDbEntity
  8
電気錠
  6
Continuous
100
AcDbLine
 10
262.78071021882
 20
47.98899999999999
 30
0.0
 11
262.78071021882
 21
55.98897893674458
 31
0.0
  0
LINE
  5
1D40
330
1F
100
AcDbEntity
  8
電気錠
  6
Continuous
100
AcDbLine
 10
96.28071021881996
 20
55.98897893674458
 30
0.0
 11
113.2807102188199
 21
65.98897893674458
 31
0.0
  0
LINE
  5
1D41
330
1F
100
AcDbEntity
  8
電気錠
  6
Continuous
100
AcDbLine
 10
236.2807102188201
 20
55.98897893674458
 30
0.0
 11
253.2807102188201
 21
65.98897893674458
 31
0.0
  0
LINE
  5
1D42
330
1F
100
AcDbEntity
  8
電気錠
  6
Continuous
100
AcDbLine
 10
254.7807102188201
 20
65.4889789367446
 30
0.0
 11
254.7807102188201
 21
55.98897893674458
 31
0.0
  0
ARC
  5
1D43
330
1F
100
AcDbEntity
  8
電気錠
  6
Continuous
100
AcDbCircle
 10
254.28071021882
 20
65.4889789367446
 30
0.0
 40
0.5
100
AcDbArc
 50
0.0
 51
90.0
  0
LINE
  5
1D44
330
1F
100
AcDbEntity
  8
電気錠
  6
Continuous
100
AcDbLine
 10
254.28071021882
 20
65.98897893674458
 30
0.0
 11
253.2807102188201
 21
65.98897893674458
 31
0.0
  0
LINE
  5
1D45
330
1F
100
AcDbEntity
  8
電気錠
  6
Continuous
100
AcDbLine
 10
254.7807102188201
 20
55.98897893674458
 30
0.0
 11
254.7807102188201
 21
65.4889789367446
 31
0.0
  0
LINE
  5
1D46
330
1F
100
AcDbEntity
  8
電気錠
  6
Continuous
100
AcDbLine
 10
254.7807102188201
 20
65.4889789367446
 30
0.0
 11
254.7807102188201
 21
55.98897893674458
 31
0.0
  0
LINE
  5
1D47
330
1F
100
AcDbEntity
  8
電気錠
  6
Continuous
100
AcDbLine
 10
254.28071021882
 20
65.98897893674458
 30
0.0
 11
253.2807102188201
 21
65.98897893674458
 31
0.0
  0
ARC
  5
1D48
330
1F
100
AcDbEntity
  8
電気錠
  6
Continuous
100
AcDbCircle
 10
254.28071021882
 20
65.4889789367446
 30
0.0
 40
0.5
100
AcDbArc
 50
0.0
 51
90.0
  0
LINE
  5
1D49
330
1F
100
AcDbEntity
  8
電気錠
  6
Continuous
100
AcDbLine
 10
236.2807102188201
 20
55.98897893674458
 30
0.0
 11
253.2807102188201
 21
65.98897893674458
 31
0.0
  0
LINE
  5
1D4A
330
1F
100
AcDbEntity
  8
電気錠
  6
Continuous
100
AcDbLine
 10
236.2807102188201
 20
55.98897893674458
 30
0.0
 11
253.2807102188201
 21
65.98897893674458
 31
0.0
  0
LINE
  5
1D4B
330
1F
100
AcDbEntity
  8
電気錠
  6
Continuous
100
AcDbLine
 10
96.28071021881996
 20
55.98897893674458
 30
0.0
 11
113.2807102188199
 21
65.98897893674458
 31
0.0
  0
ARC
  5
1D4D
330
1F
100
AcDbEntity
  8
電気錠
  6
Continuous
100
AcDbCircle
 10
114.2807102188199
 20
65.4889789367446
 30
0.0
 40
0.5
100
AcDbArc
 50
0.0
 51
90.0
  0
LINE
  5
1D4E
330
1F
100
AcDbEntity
  8
電気錠
  6
Continuous
100
AcDbLine
 10
114.2807102188199
 20
65.98897893674458
 30
0.0
 11
113.2807102188199
 21
65.98897893674458
 31
0.0
  0
LINE
  5
1D4F
330
1F
100
AcDbEntity
  8
電気錠
  6
Continuous
100
AcDbLine
 10
114.7807102188199
 20
55.98897893674458
 30
0.0
 11
114.7807102188199
 21
65.4889789367446
 31
0.0
  0
LINE
  5
1D51
330
1F
100
AcDbEntity
  8
電気錠
  6
Continuous
100
AcDbLine
 10
114.2807102188199
 20
65.98897893674458
 30
0.0
 11
113.2807102188199
 21
65.98897893674458
 31
0.0
  0
ARC
  5
1D52
330
1F
100
AcDbEntity
  8
電気錠
  6
Continuous
100
AcDbCircle
 10
114.2807102188199
 20
65.4889789367446
 30
0.0
 40
0.5
100
AcDbArc
 50
0.0
 51
90.0
  0
LINE
  5
1D53
330
1F
100
AcDbEntity
  8
電気錠
  6
Continuous
100
AcDbLine
 10
96.28071021881996
 20
55.98897893674458
 30
0.0
 11
113.2807102188199
 21
65.98897893674458
 31
0.0
  0
LINE
  5
1D54
330
1F
100
AcDbEntity
  8
電気錠
  6
Continuous
100
AcDbLine
 10
262.78071021882
 20
47.98899999999999
 30
0.0
 11
82.78071021881997
 21
47.98899999999999
 31
0.0
  0
LINE
  5
1D55
330
1F
100
AcDbEntity
  8
電気錠
  6
Continuous
100
AcDbLine
 10
262.78071021882
 20
55.98897893674458
 30
0.0
 11
82.78071021881997
 21
55.98897893674458
 31
0.0
  0
LINE
  5
1D56
330
1F
100
AcDbEntity
  8
電気錠
  6
Continuous
100
AcDbLine
 10
114.7807102188199
 20
55.98897893674458
 30
0.0
 11
114.7807102188199
 21
65.4889789367446
 31
0.0
  0
LINE
  5
1D57
330
1F
100
AcDbEntity
  8
電気錠
  6
Continuous
100
AcDbLine
 10
114.7807102188199
 20
65.4889789367446
 30
0.0
 11
114.7807102188199
 21
55.98897893674458
 31
0.0
  0
LINE
  5
1D58
330
1F
100
AcDbEntity
  8
電気錠
  6
Continuous
100
AcDbLine
 10
114.7807102188199
 20
55.98897893674458
 30
0.0
 11
114.7807102188199
 21
65.4889789367446
 31
0.0
  0
ARC
  5
1D59
330
1F
100
AcDbEntity
  8
電気錠
  6
Continuous
100
AcDbCircle
 10
255.8274901208482
 20
88.54123544789878
 30
0.0
 40
7.0
100
AcDbArc
 50
270.0
 51
90.0
  0
ARC
  5
1D5A
330
1F
100
AcDbEntity
  8
電気錠
  6
Continuous
100
AcDbCircle
 10
89.90718800904822
 20
88.54078173649881
 30
0.0
 40
7.0
100
AcDbArc
 50
90.0
 51
270.0
  0
LINE
  5
1D5C
330
1F
100
AcDbEntity
  8
電気錠
  6
Continuous
100
AcDbLine
 10
89.90718800904822
 20
95.54078173649882
 30
0.0
 11
255.9071880090483
 21
95.54078173649882
 31
0.0
  0
LINE
  5
1D5D
330
1F
100
AcDbEntity
  8
電気錠
  6
Continuous
100
AcDbLine
 10
89.90718800904822
 20
81.54078173649882
 30
0.0
 11
255.9071880090483
 21
81.54078173649882
 31
0.0
  0
CIRCLE
  5
1D5E
330
1F
100
AcDbEntity
  8
電気錠
  6
Continuous
100
AcDbCircle
 10
200.7807
 20
88.54078173649881
 30
0.0
 40
2.25
  0
CIRCLE
  5
1D5F
330
1F
100
AcDbEntity
  8
電気錠
  6
Continuous
100
AcDbCircle
 10
200.7807
 20
88.54078173649881
 30
0.0
 40
5.25
  0
CIRCLE
  5
1D60
330
1F
100
AcDbEntity
  8
電気錠
  6
Continuous
100
AcDbCircle
 10
150.9071880090482
 20
88.54078173649881
 30
0.0
 40
5.25
  0
CIRCLE
  5
1D61
330
1F
100
AcDbEntity
  8
電気錠
  6
Continuous
100
AcDbCircle
 10
150.9071880090482
 20
88.54078173649881
 30
0.0
 40
2.25
  0
TEXT
  5
1EE3
330
1F
100
AcDbEntity
  8
0
100
AcDbText
 10
114.5635379559432
 20
225.8879016072831
 30
0.0
 40
7.0
  1
  ABS　t=2mm 
  7
BIGFONT
100
AcDbText
  0
TEXT
  5
1EE4
330
1F
100
AcDbEntity
  8
0
100
AcDbText
 10
56.56353795594418
 20
225.8879016072831
 30
0.0
 40
7.0
  1
カバー材
  7
BIGFONT
100
AcDbText
  0
LINE
  5
1EE5
330
1F
100
AcDbEntity
  8
0
100
AcDbLine
 10
50.75348242197993
 20
235.2879016072837
 30
0.0
 11
239.7034824219797
 21
235.2879016072837
 31
0.0
  0
LINE
  5
1EE6
330
1F
100
AcDbEntity
  8
0
100
AcDbLine
 10
50.75348242197993
 20
223.2879016072827
 30
0.0
 11
239.7034824219797
 21
223.2879016072827
 31
0.0
  0
LINE
  5
1EE7
330
1F
100
AcDbEntity
  8
0
100
AcDbLine
 10
50.75348242197993
 20
235.2879016072837
 30
0.0
 11
50.75348242197994
 21
199.2879016072827
 31
0.0
  0
LINE
  5
1EE8
330
1F
100
AcDbEntity
  8
0
100
AcDbLine
 10
110.7534824219799
 20
235.2879016072837
 30
0.0
 11
110.7534824219799
 21
199.2879016072827
 31
0.0
  0
LINE
  5
1EE9
330
1F
100
AcDbEntity
  8
0
100
AcDbLine
 10
239.7034824219797
 20
235.2879016072837
 30
0.0
 11
239.7034824219797
 21
199.2879016072827
 31
0.0
  0
LINE
  5
1EEA
330
1F
100
AcDbEntity
  8
0
100
AcDbLine
 10
50.75348242197993
 20
199.2879016072826
 30
0.0
 11
239.7034824219797
 21
199.2879016072826
 31
0.0
  0
TEXT
  5
1EEB
330
1F
100
AcDbEntity
  8
0
100
AcDbText
 10
114.5635379559432
 20
201.887901607284
 30
0.0
 40
7.0
  1
  298(L)×38(D)×43(H) mm
  7
BIGFONT
100
AcDbText
  0
TEXT
  5
1EEC
330
1F
100
AcDbEntity
  8
0
100
AcDbText
 10
56.56353795594419
 20
201.887901607283
 30
0.0
 40
7.0
  1
寸　　　法
  7
BIGFONT
100
AcDbText
  0
TEXT
  5
1EED
330
1F
100
AcDbEntity
  8
0
100
AcDbText
 10
114.5635379559432
 20
185.5423310297481
 30
0.0
 40
7.0
  1
DC24V ±20%%%
  7
BIGFONT
100
AcDbText
  0
TEXT
  5
1EEE
330
1F
100
AcDbEntity
  8
0
100
AcDbText
 10
56.56353795594418
 20
185.5423310297481
 30
0.0
 40
7.0
  1
定格電圧
  7
BIGFONT
100
AcDbText
  0
LINE
  5
1EEF
330
1F
100
AcDbEntity
  8
0
100
AcDbLine
 10
50.75348242197993
 20
194.9423310297477
 30
0.0
 11
239.7034824219797
 21
194.9423310297477
 31
0.0
  0
LINE
  5
1EF0
330
1F
100
AcDbEntity
  8
0
100
AcDbLine
 10
50.75348242197993
 20
182.9423310297468
 30
0.0
 11
239.7034824219797
 21
182.9423310297468
 31
0.0
  0
LINE
  5
1EF1
330
1F
100
AcDbEntity
  8
0
100
AcDbLine
 10
50.75348242197993
 20
194.9423310297477
 30
0.0
 11
50.75348242197993
 21
170.9423310297468
 31
0.0
  0
LINE
  5
1EF2
330
1F
100
AcDbEntity
  8
0
100
AcDbLine
 10
110.7534824219799
 20
194.9423310297477
 30
0.0
 11
110.7534824219799
 21
170.9423310297468
 31
0.0
  0
LINE
  5
1EF3
330
1F
100
AcDbEntity
  8
0
100
AcDbLine
 10
239.7034824219797
 20
194.9423310297477
 30
0.0
 11
239.7034824219797
 21
170.9423310297468
 31
0.0
  0
LINE
  5
1EF4
330
1F
100
AcDbEntity
  8
0
100
AcDbLine
 10
50.75348242197993
 20
170.9423310297468
 30
0.0
 11
239.7034824219797
 21
170.9423310297468
 31
0.0
  0
TEXT
  5
1EF5
330
1F
100
AcDbEntity
  8
0
100
AcDbText
 10
114.5635379559432
 20
173.5423310297472
 30
0.0
 40
7.0
  1
0.2A ±20%%%
  7
BIGFONT
100
AcDbText
  0
TEXT
  5
1EF6
330
1F
100
AcDbEntity
  8
0
100
AcDbText
 10
56.56353795594418
 20
173.5423310297472
 30
0.0
 40
7.0
  1
定格電流
  7
BIGFONT
100
AcDbText
  0
TEXT
  5
1EF7
330
1F
100
AcDbEntity
  8
0
100
AcDbText
 10
114.5635379559432
 20
161.5423310297472
 30
0.0
 40
7.0
  1
DC24V, 0.1A　(抵抗負荷)
  7
BIGFONT
100
AcDbText
  0
TEXT
  5
1EF8
330
1F
100
AcDbEntity
  8
0
100
AcDbText
 10
56.56353795594418
 20
161.5423310297472
 30
0.0
 40
7.0
  1
ＳＷ容量
  7
BIGFONT
100
AcDbText
  0
LINE
  5
1EF9
330
1F
100
AcDbEntity
  8
0
100
AcDbLine
 10
50.75348242197993
 20
170.9423310297468
 30
0.0
 11
239.7034824219797
 21
170.9423310297468
 31
0.0
  0
LINE
  5
1EFA
330
1F
100
AcDbEntity
  8
0
100
AcDbLine
 10
50.75348242197993
 20
158.9423310297468
 30
0.0
 11
239.7034824219797
 21
158.9423310297468
 31
0.0
  0
LINE
  5
1EFB
330
1F
100
AcDbEntity
  8
0
100
AcDbLine
 10
50.75348242197993
 20
170.9423310297468
 30
0.0
 11
50.75348242197993
 21
146.9423310297477
 31
0.0
  0
LINE
  5
1EFC
330
1F
100
AcDbEntity
  8
0
100
AcDbLine
 10
110.7534824219799
 20
170.9423310297468
 30
0.0
 11
110.7534824219799
 21
146.9423310297477
 31
0.0
  0
LINE
  5
1EFD
330
1F
100
AcDbEntity
  8
0
100
AcDbLine
 10
239.7034824219797
 20
170.9423310297468
 30
0.0
 11
239.7034824219797
 21
146.9423310297468
 31
0.0
  0
LINE
  5
1EFE
330
1F
100
AcDbEntity
  8
0
100
AcDbLine
 10
50.75348242197993
 20
146.9423310297477
 30
0.0
 11
239.7034824219797
 21
146.9423310297468
 31
0.0
  0
TEXT
  5
1EFF
330
1F
100
AcDbEntity
  8
0
100
AcDbText
 10
114.5635379559432
 20
149.5423310297471
 30
0.0
 40
7.0
  1
-10～+50℃（氷結なきこと）
  7
BIGFONT
100
AcDbText
  0
TEXT
  5
1F00
330
1F
100
AcDbEntity
  8
0
100
AcDbText
 10
56.56353795594418
 20
149.5423310297471
 30
0.0
 40
7.0
  1
温度範囲
  7
BIGFONT
100
AcDbText
  0
TEXT
  5
1F01
330
1F
100
AcDbEntity
  8
0
100
AcDbText
 10
114.5635379559432
 20
137.5423310297472
 30
0.0
 40
7.0
  1
   0.7kg　(本体重量）
  7
BIGFONT
100
AcDbText
  0
TEXT
  5
1F02
330
1F
100
AcDbEntity
  8
0
100
AcDbText
 10
56.56353795594418
 20
137.5423310297472
 30
0.0
 40
7.0
  1
重　　量
  7
BIGFONT
100
AcDbText
  0
LINE
  5
1F03
330
1F
100
AcDbEntity
  8
0
100
AcDbLine
 10
50.75348242197993
 20
146.9423310297477
 30
0.0
 11
239.7034824219797
 21
146.9423310297468
 31
0.0
  0
LINE
  5
1F04
330
1F
100
AcDbEntity
  8
0
100
AcDbLine
 10
50.75348242197993
 20
134.9423310297468
 30
0.0
 11
239.7034824219797
 21
134.9423310297468
 31
0.0
  0
LINE
  5
1F05
330
1F
100
AcDbEntity
  8
0
100
AcDbLine
 10
50.75348242197993
 20
146.9423310297477
 30
0.0
 11
50.75348242197993
 21
122.9423310297468
 31
0.0
  0
LINE
  5
1F06
330
1F
100
AcDbEntity
  8
0
100
AcDbLine
 10
110.7534824219799
 20
146.9423310297468
 30
0.0
 11
110.7534824219799
 21
122.9423310297468
 31
0.0
  0
LINE
  5
1F07
330
1F
100
AcDbEntity
  8
0
100
AcDbLine
 10
239.7034824219797
 20
146.9423310297468
 30
0.0
 11
239.7034824219797
 21
122.9423310297468
 31
0.0
  0
LINE
  5
1F08
330
1F
100
AcDbEntity
  8
0
100
AcDbLine
 10
50.75348242197993
 20
122.9423310297468
 30
0.0
 11
239.7034824219797
 21
122.9423310297468
 31
0.0
  0
TEXT
  5
1F09
330
1F
100
AcDbEntity
  8
0
100
AcDbText
 10
114.5635379559432
 20
125.5423310297472
 30
0.0
 40
7.0
  1
0/130mm（100mmオプション）
  7
BIGFONT
100
AcDbText
  0
TEXT
  5
1F0A
330
1F
100
AcDbEntity
  8
0
100
AcDbText
 10
56.56353795594418
 20
125.5423310297472
 30
0.0
 40
7.0
  1
窓開放寸法
  7
BIGFONT
100
AcDbText
  0
LINE
  5
1F0B
330
1F
100
AcDbEntity
  8
0
100
AcDbLine
 10
50.75348242197993
 20
122.9423310297468
 30
0.0
 11
239.7034824219797
 21
122.9423310297468
 31
0.0
  0
LINE
  5
1F0C
102
{ACAD_REACTORS
330
1F23
102
}
330
1F
100
AcDbEntity
  8
電気錠
  6
Continuous
100
AcDbLine
 10
307.2640898280746
 20
188.0391607837678
 30
0.0
 11
317.2640898280746
 21
188.0391607837678
 31
0.0
  0
LINE
  5
1F0D
102
{ACAD_REACTORS
330
1F23
330
1F29
102
}
330
1F
100
AcDbEntity
  8
電気錠
  6
Continuous
100
AcDbLine
 10
317.2640898280746
 20
188.0391607837678
 30
0.0
 11
317.2640898280746
 21
198.0391607837678
 31
0.0
  0
LINE
  5
1F0E
102
{ACAD_REACTORS
330
1F26
330
1F29
102
}
330
1F
100
AcDbEntity
  8
電気錠
  6
Continuous
100
AcDbLine
 10
317.2640898280746
 20
198.0391607837678
 30
0.0
 11
307.431059550075
 21
198.0391607837678
 31
0.0
  0
ARC
  5
1F0F
330
1F
100
AcDbEntity
  8
電気錠
  6
Continuous
100
AcDbCircle
 10
298.764006884075
 20
187.968615539668
 30
0.0
 40
30.0
100
AcDbArc
 50
158.9600889793986
 51
206.6884063062937
  0
ARC
  5
1F10
330
1F
100
AcDbEntity
  8
電気錠
  6
Continuous
100
AcDbCircle
 10
272.8620128147744
 20
174.9264669464679
 30
0.0
 40
1.0
100
AcDbArc
 50
205.5944206819947
 51
270.5944206820019
  0
LINE
  5
1F11
330
1F
100
AcDbEntity
  8
電気錠
  6
Continuous
100
AcDbLine
 10
270.7640898280746
 20
198.7391607837676
 30
0.0
 11
270.7640898280746
 21
209.7391607837677
 31
0.0
  0
ARC
  5
1F12
330
1F
100
AcDbEntity
  8
電気錠
  6
Continuous
100
AcDbCircle
 10
271.7640898280746
 20
209.7391607837677
 30
0.0
 40
1.0
100
AcDbArc
 50
90.0
 51
180.0
  0
LINE
  5
1F13
330
1F
100
AcDbEntity
  8
電気錠
  6
Continuous
100
AcDbLine
 10
307.2640898280746
 20
172.7391607837667
 30
0.0
 11
272.8275379790742
 21
173.9270613802669
 31
0.0
  0
LINE
  5
1F14
330
1F
100
AcDbEntity
  8
電気錠
  6
Continuous
100
AcDbLine
 10
310.7640898280746
 20
210.7391607837676
 30
0.0
 11
271.7640898280746
 21
210.7391607837676
 31
0.0
  0
LINE
  5
1F15
102
{ACAD_REACTORS
330
1F20
102
}
330
1F
100
AcDbEntity
  8
電気錠
  6
Continuous
100
AcDbLine
 10
307.2640898280746
 20
197.2391607837676
 30
0.0
 11
307.2640898280746
 21
172.7391607837667
 31
0.0
  0
LINE
  5
1F16
330
1F
100
AcDbEntity
  8
電気錠
  6
Continuous
100
AcDbLine
 10
309.2640898280746
 20
199.2391607837685
 30
0.0
 11
310.7640898280746
 21
199.2391607837685
 31
0.0
  0
ARC
  5
1F17
330
1F
100
AcDbEntity
  8
電気錠
  6
Continuous
100
AcDbCircle
 10
309.2640898280746
 20
197.2391607837676
 30
0.0
 40
2.0
100
AcDbArc
 50
90.0
 51
180.0
  0
ARC
  5
1F18
330
1F
100
AcDbEntity
  8
電気錠
  6
Continuous
100
AcDbCircle
 10
310.7640898280746
 20
200.2391607837668
 30
0.0
 40
1.0
100
AcDbArc
 50
270.0
 51
0.0
  0
LINE
  5
1F19
102
{ACAD_REACTORS
330
1F1D
330
1F20
102
}
330
1F
100
AcDbEntity
  8
電気錠
  6
Continuous
100
AcDbLine
 10
311.7640898280746
 20
209.7391607837677
 30
0.0
 11
311.7640898280746
 21
200.2391607837668
 31
0.0
  0
ARC
  5
1F1A
330
1F
100
AcDbEntity
  8
電気錠
  6
Continuous
100
AcDbCircle
 10
310.7640898280746
 20
209.7391607837677
 30
0.0
 40
1.0
100
AcDbArc
 50
0.0
 51
90.0
  0
DIMENSION
  5
1F1B
102
{ACAD_XDICTIONARY
360
1F1C
102
}
102
{ACAD_REACTORS
330
1F1D
102
}
330
1F
100
AcDbEntity
  8
寸法線
100
AcDbDimension
  2
*D37
 10
311.7640898280746
 20
217.7898402365185
 30
0.0
 11
290.3336388456574
 21
220.1648402365185
 31
0.0
 70
    32
  1
(43)
 71
     5
 42
42.86090196483428
  3
ISO-25
100
AcDbAlignedDimension
 13
268.9031878632403
 23
190.855047143735
 33
0.0
 14
311.7640898280746
 24
209.7391607837677
 34
0.0
 50
180.0
100
AcDbRotatedDimension
1001
ACAD
1000
DSTYLE
1002
{
1070
   140
1040
3.5
1002
}
  0
DIMENSION
  5
1F1E
102
{ACAD_XDICTIONARY
360
1F1F
102
}
102
{ACAD_REACTORS
330
1F20
102
}
330
1F
100
AcDbEntity
  8
寸法線
100
AcDbDimension
  2
*D38
 10
311.7640898280746
 20
203.0803824317354
 30
0.0
 11
295.8057564947412
 21
203.0803824317354
 31
0.0
 70
   160
  1
(4.5)
 71
     5
 42
4.5
  3
ISO-25
100
AcDbAlignedDimension
 13
307.2640898280746
 23
172.7391607837667
 33
0.0
 14
311.7640898280746
 24
200.2391607837668
 34
0.0
 50
180.0
100
AcDbRotatedDimension
1001
ACAD
1000
DSTYLE
1002
{
1070
   140
1040
3.0
1002
}
  0
DIMENSION
  5
1F21
102
{ACAD_XDICTIONARY
360
1F22
102
}
102
{ACAD_REACTORS
330
1F23
102
}
330
1F
100
AcDbEntity
  8
寸法線
100
AcDbDimension
  2
*D39
 10
317.2640898280746
 20
176.0874102837345
 30
0.0
 11
327.8954857203392
 21
176.0874102837345
 31
0.0
 70
   160
 71
     5
 42
10.0
  3
ISO-25
100
AcDbAlignedDimension
 13
307.2640898280746
 23
188.0391607837678
 33
0.0
 14
317.2640898280746
 24
188.0391607837678
 34
0.0
 50
180.0
100
AcDbRotatedDimension
1001
ACAD
1000
DSTYLE
1002
{
1070
   140
1040
3.5
1002
}
  0
DIMENSION
  5
1F24
102
{ACAD_XDICTIONARY
360
1F25
102
}
102
{ACAD_REACTORS
330
1F26
102
}
330
1F
100
AcDbEntity
  8
寸法線
100
AcDbDimension
  2
*D40
 10
327.2424730522747
 20
210.7391607837675
 30
0.0
 11
324.575806385608
 21
204.3891607837677
 31
0.0
 70
    32
 71
     5
 42
12.69999999999976
  3
ISO-25
100
AcDbAlignedDimension
 13
317.2640898280746
 23
198.0391607837678
 33
0.0
 14
310.1390898280746
 24
210.7391607837676
 34
0.0
 50
270.0
100
AcDbRotatedDimension
1001
ACAD
1000
DSTYLE
1002
{
1070
   140
1040
3.5
1002
}
  0
DIMENSION
  5
1F27
102
{ACAD_XDICTIONARY
360
1F28
102
}
102
{ACAD_REACTORS
330
1F29
102
}
330
1F
100
AcDbEntity
  8
寸法線
100
AcDbDimension
  2
*D41
 10
327.2424730522747
 20
188.0391607837678
 30
0.0
 11
324.8674730522747
 21
193.0391607837678
 31
0.0
 70
    32
 71
     5
 42
10.0
  3
ISO-25
100
AcDbAlignedDimension
 13
317.2640898280746
 23
198.0391607837678
 33
0.0
 14
317.2640898280746
 24
188.0391607837678
 34
0.0
 50
270.0
100
AcDbRotatedDimension
1001
ACAD
1000
DSTYLE
1002
{
1070
   140
1040
3.5
1002
}
  0
DIMENSION
  5
1F2A
330
1F
100
AcDbEntity
  8
寸法線
100
AcDbDimension
  2
*D36
 10
260.5763508951189
 20
172.7391607837667
 30
0.0
 11
258.2013508951188
 21
191.7391607837671
 31
0.0
 70
    32
 71
     5
 42
38.00000000000091
  3
ISO-25
100
AcDbAlignedDimension
 13
271.7640898280746
 23
210.7391607837676
 33
0.0
 14
307.2640898280746
 24
172.7391607837667
 34
0.0
 50
270.0
100
AcDbRotatedDimension
1001
ACAD
1000
DSTYLE
1002
{
1070
   140
1040
3.5
1002
}
  0
MTEXT
  5
1F2B
330
1F
100
AcDbEntity
  8
補足
100
AcDbMText
 10
270.2100325771958
 20
235.8270990594466
 30
0.0
 40
5.0
 41
57.60420509074203
 71
     1
 72
     5
  1
Ａ－Ａ' 断面
  7
BIGFONT
 73
     1
 44
1.0
1001
ACAD
1000
MTEXTBEGIN
1070
    73
1070
     1
1070
    44
1040
1.0
1070
    74
1070
     0
1000
MTEXTEND
  0
LINE
  5
2079
330
1F
100
AcDbEntity
  8
補足
100
AcDbLine
 10
275.912830074744
 20
381.9181400659768
 30
0.0
 11
275.9128618237931
 21
334.1822048394718
 31
0.0
  0
MTEXT
  5
207A
330
1F
100
AcDbEntity
  8
補足
100
AcDbMText
 10
278.6684490863222
 20
390.1745592168932
 30
0.0
 40
5.0
 41
14.51541514712792
 71
     3
 72
     5
  1
Ａ
  7
BIGFONT
 73
     1
 44
1.0
1001
ACAD
1000
MTEXTBEGIN
1070
    73
1070
     1
1070
    44
1040
1.0
1070
    74
1070
     0
1000
MTEXTEND
1000
ACAD_MTEXT_DEFINED_HEIGHT_BEGIN
1070
    46
1040
5.650556946984123
1000
ACAD_MTEXT_DEFINED_HEIGHT_END
  0
MTEXT
  5
207B
330
1F
100
AcDbEntity
  8
補足
100
AcDbMText
 10
280.1139969417118
 20
332.2696836257184
 30
0.0
 40
5.0
 41
14.51541514712792
 71
     3
 72
     5
  1
Ａ’
  7
BIGFONT
 73
     1
 44
1.0
1001
ACAD
1000
MTEXTBEGIN
1070
    73
1070
     1
1070
    44
1040
1.0
1070
    74
1070
     0
1000
MTEXTEND
1000
ACAD_MTEXT_DEFINED_HEIGHT_BEGIN
1070
    46
1040
5.650556946984123
1000
ACAD_MTEXT_DEFINED_HEIGHT_END
  0
DIMENSION
  5
2160
330
1F
100
AcDbEntity
  8
寸法線
100
AcDbDimension
  2
*D42
 10
351.9430287563959
 20
317.0196975717573
 30
0.0
 11
347.3180287563958
 21
295.5196975717574
 31
0.0
 70
    32
 71
     5
 42
43.0
  3
ISO-25
100
AcDbAlignedDimension
 13
329.6360057585894
 23
274.0196975717573
 33
0.0
 14
328.6360057585894
 24
317.0196975717573
 34
0.0
 50
90.0
100
AcDbRotatedDimension
1001
ACAD
1000
DSTYLE
1002
{
1070
   140
1040
8.0
1002
}
  0
DIMENSION
  5
21D2
330
1F
100
AcDbEntity
  8
寸法線
100
AcDbDimension
  2
*D43
 10
48.14308073666462
 20
437.5480724130037
 30
0.0
 11
45.47641406999789
 21
423.8480724130036
 31
0.0
 70
    32
 71
     5
 42
27.39999999999998
  3
ISO-25
100
AcDbAlignedDimension
 13
58.87237496703495
 23
410.1480724130037
 33
0.0
 14
58.87237496703495
 24
437.5480724130037
 34
0.0
 50
270.0
100
AcDbRotatedDimension
1001
ACAD
1000
DSTYLE
1002
{
1070
   140
1040
3.5
1002
}
  0
DIMENSION
  5
2250
330
1F
100
AcDbEntity
  8
寸法線
100
AcDbDimension
  2
*D45
 10
220.2100934478964
 20
301.1299622955975
 30
0.0
 11
245.772785530255
 21
303.3087381774143
 31
0.0
 70
   163
  1
2-φ4.2
 71
     5
 42
4.200000000001551
  3
ISO-25
100
AcDbDiametricDimension
 15
224.3949203994353
 25
301.4866461691979
 35
0.0
 40
0.0
1001
ACAD_DSTYLE_DIMRADIAL_EXTENSION
1070
   387
1070
     1
1070
   388
1040
0.0
1070
   390
1040
0.0
1001
ACAD
1000
DSTYLE
1002
{
1070
   279
1070
     1
1070
   140
1040
5.0
1070
   288
1070
     1
1002
}
  0
DIMENSION
  5
2321
330
1F
100
AcDbEntity
  8
寸法線
100
AcDbDimension
  2
*D46
 10
316.3885339943018
 20
100.017230628423
 30
0.0
 11
311.3885339943018
 21
102.392230628423
 31
0.0
 70
    32
 71
     5
 42
9.999999999999886
  3
ISO-25
100
AcDbAlignedDimension
 13
306.3885339943019
 23
95.50193827702223
 33
0.0
 14
316.3885339943018
 24
95.50193827702223
 34
0.0
100
AcDbRotatedDimension
1001
ACAD
1000
DSTYLE
1002
{
1070
   140
1040
3.5
1002
}
  0
DIMENSION
  5
236E
330
1F
100
AcDbEntity
  8
寸法線
100
AcDbDimension
  2
*D47
 10
262.78071021882
 20
69.6990454942329
 30
0.0
 11
231.78070510941
 21
72.07404549423291
 31
0.0
 70
    32
 71
     5
 42
62.00001021882005
  3
ISO-25
100
AcDbAlignedDimension
 13
200.7807
 23
88.48781116630766
 33
0.0
 14
262.78071021882
 24
55.98897893674458
 34
0.0
100
AcDbRotatedDimension
1001
ACAD
1000
DSTYLE
1002
{
1070
   140
1040
3.5
1002
}
  0
LINE
  5
2396
330
1F
100
AcDbEntity
  8
電気錠
  6
Continuous
100
AcDbLine
 10
236.9071880090482
 20
81.54078173649882
 30
0.0
 11
253.9071880090482
 21
81.54078173649882
 31
0.0
  0
LINE
  5
2398
330
1F
100
AcDbEntity
  8
電気錠
  6
Continuous
100
AcDbLine
 10
253.9071880090482
 20
81.54078173649882
 30
0.0
 11
253.9071880090482
 21
95.54078173649882
 31
0.0
  0
LINE
  5
2399
330
1F
100
AcDbEntity
  8
電気錠
  6
Continuous
100
AcDbLine
 10
236.9071880090482
 20
95.54078173649882
 30
0.0
 11
236.9071880090482
 21
81.54078173649882
 31
0.0
  0
LINE
  5
239A
330
1F
100
AcDbEntity
  8
電気錠
  6
Continuous
100
AcDbLine
 10
236.9071880090482
 20
95.54078173649882
 30
0.0
 11
253.9071880090482
 21
95.54078173649882
 31
0.0
  0
LINE
  5
239E
330
1F
100
AcDbEntity
  8
電気錠
100
AcDbLine
 10
254.7807102188201
 20
55.98897893674458
 30
0.0
 11
114.7807102188199
 21
55.98897893674458
 31
0.0
  0
LINE
  5
23B3
330
1F
100
AcDbEntity
  8
電気錠
  6
Continuous
100
AcDbLine
 10
113.9071880090481
 20
81.54078173649882
 30
0.0
 11
113.9071880090481
 21
95.54078173649882
 31
0.0
  0
LINE
  5
23B4
330
1F
100
AcDbEntity
  8
電気錠
  6
Continuous
100
AcDbLine
 10
96.90718800904818
 20
95.54078173649882
 30
0.0
 11
96.90718800904818
 21
81.54078173649882
 31
0.0
  0
LINE
  5
23B5
330
1F
100
AcDbEntity
  8
電気錠
  6
Continuous
100
AcDbLine
 10
96.90718800904818
 20
95.54078173649882
 30
0.0
 11
113.9071880090481
 21
95.54078173649882
 31
0.0
  0
LINE
  5
23B6
330
1F
100
AcDbEntity
  8
電気錠
  6
Continuous
100
AcDbLine
 10
96.90718800904818
 20
81.54078173649882
 30
0.0
 11
113.9071880090481
 21
81.54078173649882
 31
0.0
  0
LINE
  5
23C6
102
{ACAD_REACTORS
330
23CA
102
}
330
1F
100
AcDbEntity
  8
電気錠
  6
DASHED
100
AcDbLine
 10
152.7854387991185
 20
52.98897893674457
 30
0.0
 11
155.7854387991184
 21
55.98897893674458
 31
0.0
  0
LINE
  5
23C7
102
{ACAD_REACTORS
330
23CA
102
}
330
1F
100
AcDbEntity
  8
電気錠
  6
DASHED
100
AcDbLine
 10
152.7854387991185
 20
47.93365592619999
 30
0.0
 11
152.7854387991185
 21
52.98897893674457
 31
0.0
  0
LINE
  5
23C8
102
{ACAD_REACTORS
330
23CA
102
}
330
1F
100
AcDbEntity
  8
電気錠
  6
DASHED
100
AcDbLine
 10
148.2854387991185
 20
52.98897893674457
 30
0.0
 11
145.2854387991184
 21
55.98897893674458
 31
0.0
  0
LINE
  5
23C9
102
{ACAD_REACTORS
330
23CA
102
}
330
1F
100
AcDbEntity
  8
電気錠
  6
DASHED
100
AcDbLine
 10
148.2854387991185
 20
52.98897893674457
 30
0.0
 11
148.2854387991185
 21
47.93365592619999
 31
0.0
  0
MTEXT
  5
2554
330
1F
100
AcDbEntity
  8
電気錠
100
AcDbMText
 10
185.2250000000001
 20
512.9748895009085
 30
0.0
 40
7.0
 41
200.0
 71
     5
 72
     5
  1
{\fMS PMincho|b0|i0|c128|p18;ケアロック《３モード》左勝手_ブラック}
 73
     1
 44
1.0
1001
ACAD
1000
MTEXTBEGIN
1070
    73
1070
     1
1070
    44
1040
1.0
1070
    74
1070
     0
1000
MTEXTEND
  0
MTEXT
  5
2555
330
1F
100
AcDbEntity
  8
電気錠
100
AcDbMText
 10
365.45
 20
512.9748895009085
 30
0.0
 40
7.0
 41
50.0
 71
     6
 72
     5
  1
{\fMS PMincho|b0|i0|c128|p18;WP0270-03B}
 73
     1
 44
1.0
1001
ACAD
1000
MTEXTBEGIN
1070
    73
1070
     1
1070
    44
1040
1.0
1070
    74
1070
     0
1000
MTEXTEND
  0
LINE
  5
2557
330
1F
100
AcDbEntity
  8
0
100
AcDbLine
 10
50.75348242197993
 20
211.2879016072817
 30
0.0
 11
239.7034824219797
 21
211.2879016072817
 31
0.0
  0
TEXT
  5
2558
330
1F
100
AcDbEntity
  8
0
100
AcDbText
 10
120.0810657349495
 20
213.8879016072821
 30
0.0
 40
7.0
  1
ブラック
  7
BIGFONT
100
AcDbText
  0
TEXT
  5
2559
330
1F
100
AcDbEntity
  8
0
100
AcDbText
 10
56.56353795594418
 20
213.8879016072821
 30
0.0
 40
7.0
  1
カバー色
  7
BIGFONT
100
AcDbText
  0
ENDSEC
  0
SECTION
  2
OBJECTS
  0
DICTIONARY
  5
C
330
0
100
AcDbDictionary
281
     1
  3
ACAD_COLOR
350
6B
  3
ACAD_GROUP
350
D
  3
ACAD_LAYOUT
350
1A
  3
ACAD_MATERIAL
350
6A
  3
ACAD_MLEADERSTYLE
350
12D
  3
ACAD_MLINESTYLE
350
17
  3
ACAD_PLOTSETTINGS
350
19
  3
ACAD_PLOTSTYLENAME
350
E
  3
ACAD_SCALELIST
350
10C
  3
ACAD_TABLESTYLE
350
7E
  3
ACAD_VISUALSTYLE
350
EF
  3
ACDB_RECOMPOSE_DATA
350
15D
  3
AcDbVariableDictionary
350
5E
  3
DWGPROPS
350
257A
  0
DICTIONARY
  5
17DD
330
8
100
AcDbDictionary
280
     1
281
     1
  0
DICTIONARY
  5
1887
330
2
100
AcDbDictionary
280
     1
281
     1
  3
ACAD_LAYERFILTERS
360
1C6B
  3
ACLYDICTIONARY
360
1C6A
  0
DICTIONARY
  5
13C
330
10
100
AcDbDictionary
280
     1
281
     1
  3
ADSK_XREC_LAYER_RECONCILED
360
157F
  0
DICTIONARY
  5
1580
330
327
100
AcDbDictionary
280
     1
281
     1
  3
ADSK_XREC_LAYER_RECONCILED
360
1581
  0
DICTIONARY
  5
1582
330
328
100
AcDbDictionary
280
     1
281
     1
  3
ADSK_XREC_LAYER_RECONCILED
360
1583
  0
DICTIONARY
  5
8F5
330
1F
100
AcDbDictionary
280
     1
281
     1
  3
ACAD_SORTENTS
360
8F6
  0
DICTIONARY
  5
1E45
330
1E24
100
AcDbDictionary
280
     1
281
     1
  3
ACAD_SORTENTS
360
1E46
  0
DICTIONARY
  5
223A
330
2238
100
AcDbDictionary
280
     1
281
     1
  3
ACAD_SORTENTS
360
223B
  0
DICTIONARY
  5
1E35
330
1E34
100
AcDbDictionary
280
     1
281
     1
  3
ACAD_DIMASSOC
360
1E36
  0
DICTIONARY
  5
1E38
330
1E37
100
AcDbDictionary
280
     1
281
     1
  3
ACAD_DIMASSOC
360
1E39
  0
DICTIONARY
  5
1E3B
330
1E3A
100
AcDbDictionary
280
     1
281
     1
  3
ACAD_DIMASSOC
360
1E3C
  0
DICTIONARY
  5
1E3E
330
1E3D
100
AcDbDictionary
280
     1
281
     1
  3
ACAD_DIMASSOC
360
1E3F
  0
DICTIONARY
  5
1E41
330
1E40
100
AcDbDictionary
280
     1
281
     1
  3
ACAD_DIMASSOC
360
1E42
  0
DICTIONARY
  5
99F
330
992
100
AcDbDictionary
280
     1
281
     1
  3
ACAD_DIMASSOC
360
9A9
  0
DICTIONARY
  5
B02
330
AF5
100
AcDbDictionary
280
     1
281
     1
  3
ACAD_DIMASSOC
360
B0C
  0
DICTIONARY
  5
B65
330
B58
100
AcDbDictionary
280
     1
281
     1
  3
ACAD_DIMASSOC
360
B6F
  0
DICTIONARY
  5
BB1
330
BA4
100
AcDbDictionary
280
     1
281
     1
  3
ACAD_DIMASSOC
360
BBB
  0
DICTIONARY
  5
11F3
330
11E4
100
AcDbDictionary
280
     1
281
     1
  3
ACAD_DIMASSOC
360
11FF
  0
DICTIONARY
  5
120D
330
1200
100
AcDbDictionary
280
     1
281
     1
  3
ACAD_DIMASSOC
360
1217
  0
DICTIONARY
  5
1227
330
1218
100
AcDbDictionary
280
     1
281
     1
  3
ACAD_DIMASSOC
360
1233
  0
DICTIONARY
  5
124A
330
123D
100
AcDbDictionary
280
     1
281
     1
  3
ACAD_DIMASSOC
360
1254
  0
DICTIONARY
  5
1272
330
1265
100
AcDbDictionary
280
     1
281
     1
  3
ACAD_DIMASSOC
360
127C
  0
DICTIONARY
  5
128A
330
127D
100
AcDbDictionary
280
     1
281
     1
  3
ACAD_DIMASSOC
360
1294
  0
DICTIONARY
  5
1F1C
330
1F1B
100
AcDbDictionary
280
     1
281
     1
  3
ACAD_DIMASSOC
360
1F1D
  0
DICTIONARY
  5
1F1F
330
1F1E
100
AcDbDictionary
280
     1
281
     1
  3
ACAD_DIMASSOC
360
1F20
  0
DICTIONARY
  5
1F22
330
1F21
100
AcDbDictionary
280
     1
281
     1
  3
ACAD_DIMASSOC
360
1F23
  0
DICTIONARY
  5
1F25
330
1F24
100
AcDbDictionary
280
     1
281
     1
  3
ACAD_DIMASSOC
360
1F26
  0
DICTIONARY
  5
1F28
330
1F27
100
AcDbDictionary
280
     1
281
     1
  3
ACAD_DIMASSOC
360
1F29
  0
DICTIONARY
  5
6B
102
{ACAD_REACTORS
330
C
102
}
330
C
100
AcDbDictionary
281
     1
  0
DICTIONARY
  5
D
102
{ACAD_REACTORS
330
C
102
}
330
C
100
AcDbDictionary
281
     1
  3
*A1
350
1B52
  3
*A2
350
23CA
  3
*A3
350
1B53
  3
*A4
350
1B6C
  3
*A5
350
1B6D
  3
*A6
350
1B6E
  3
*A7
350
1B6F
  0
DICTIONARY
  5
1A
102
{ACAD_REACTORS
330
C
102
}
330
C
100
AcDbDictionary
281
     1
  3
Model
350
22
  3
レイアウト1
350
D3
  3
レイアウト2
350
D7
  0
DICTIONARY
  5
6A
102
{ACAD_REACTORS
330
C
102
}
330
C
100
AcDbDictionary
281
     1
  3
ByBlock
350
ED
  3
ByLayer
350
EC
  3
Global
350
EE
  0
DICTIONARY
  5
12D
102
{ACAD_REACTORS
330
C
102
}
330
C
100
AcDbDictionary
281
     1
  3
Annotative
350
13B
  3
Standard
350
12E
  0
DICTIONARY
  5
17
102
{ACAD_REACTORS
330
C
102
}
330
C
100
AcDbDictionary
281
     1
  3
Standard
350
18
  0
DICTIONARY
  5
19
102
{ACAD_REACTORS
330
C
102
}
330
C
100
AcDbDictionary
281
     1
  0
ACDBDICTIONARYWDFLT
  5
E
102
{ACAD_REACTORS
330
C
102
}
330
C
100
AcDbDictionary
281
     1
  3
Normal
350
F
100
AcDbDictionaryWithDefault
340
F
  0
DICTIONARY
  5
10C
102
{ACAD_REACTORS
330
C
102
}
330
C
100
AcDbDictionary
281
     1
  3
A0
350
10D
  3
A1
350
188
  3
A2
350
189
  3
A3
350
18A
  3
A4
350
18B
  3
A5
350
18C
  3
A6
350
18D
  3
A7
350
18E
  3
A8
350
18F
  3
A9
350
190
  3
B0
350
191
  3
B1
350
192
  3
B2
350
193
  3
B3
350
194
  3
B4
350
195
  3
B5
350
196
  3
B6
350
197
  3
B7
350
198
  3
B8
350
199
  3
B9
350
19A
  3
C0
350
19B
  3
C1
350
19C
  3
C2
350
19D
  3
C3
350
19E
  3
C4
350
19F
  3
C5
350
1A0
  3
C6
350
1A1
  3
C7
350
1A2
  3
C8
350
1A3
  3
C9
350
1A4
  3
D0
350
1A5
  3
D1
350
1A6
  3
D2
350
1A7
  0
DICTIONARY
  5
7E
102
{ACAD_REACTORS
330
C
102
}
330
C
100
AcDbDictionary
281
     1
  3
Standard
350
7F
  0
DICTIONARY
  5
EF
102
{ACAD_REACTORS
330
C
102
}
330
C
100
AcDbDictionary
281
     1
  3
2dWireframe
350
F5
  3
3D Hidden
350
F7
  3
3dWireframe
350
F6
  3
Basic
350
F4
  3
Brighten
350
FB
  3
ColorChange
350
FF
  3
Conceptual
350
F8
  3
Dim
350
FA
  3
Facepattern
350
FE
  3
Flat
350
F0
  3
FlatWithEdges
350
F1
  3
Gouraud
350
F2
  3
GouraudWithEdges
350
F3
  3
Linepattern
350
FD
  3
Realistic
350
F9
  3
Thicken
350
FC
  0
XRECORD
  5
15D
102
{ACAD_REACTORS
330
C
102
}
330
C
100
AcDbXrecord
280
     1
 90
        1
330
7F
  0
DICTIONARY
  5
5E
102
{ACAD_REACTORS
330
C
102
}
330
C
100
AcDbDictionary
281
     1
  3
CANNOSCALE
350
146
  3
CMLEADERSTYLE
350
145
  3
CTABLESTYLE
350
84
  3
DIMASSOC
350
5F
  3
HIDETEXT
350
63
  3
INDEXCTL
350
15A2
  3
LIGHTINGUNITS
350
15A0
  3
MSLTSCALE
350
159F
  3
PSOLHEIGHT
350
2578
  3
PSOLWIDTH
350
2577
  3
SORTENTS
350
15A1
  0
XRECORD
  5
257A
102
{ACAD_REACTORS
330
C
102
}
330
C
100
AcDbXrecord
280
     1
  1
DWGPROPS COOKIE
  2

  3

  4

  6

  7

  8
Takeshi_Nakagawa
  9

300
=
301
=
302
=
303
=
304
=
305
=
306
=
307
=
308
=
309
=
 40
14.26961296296296
 41
2455682.522393299
 42
2456553.621107477
  1

 90
        0
  0
DICTIONARY
  5
1C6B
102
{ACAD_REACTORS
330
1887
102
}
330
1887
100
AcDbDictionary
281
     1
  0
DICTIONARY
  5
1C6A
102
{ACAD_REACTORS
330
1887
102
}
330
1887
100
AcDbDictionary
281
     1
1001
ACAD
1000
<All
  0
XRECORD
  5
157F
102
{ACAD_REACTORS
330
13C
102
}
330
13C
100
AcDbXrecord
280
     1
290
     1
  0
XRECORD
  5
1581
102
{ACAD_REACTORS
330
1580
102
}
330
1580
100
AcDbXrecord
280
     1
290
     1
  0
XRECORD
  5
1583
102
{ACAD_REACTORS
330
1582
102
}
330
1582
100
AcDbXrecord
280
     1
290
     1
  0
SORTENTSTABLE
  5
8F6
102
{ACAD_REACTORS
330
8F5
102
}
330
8F5
100
AcDbSortentsTable
330
1F
331
1BB1
  5
1BB1
331
207B
  5
239F
331
1EED
  5
1EFB
331
1EF5
  5
1F03
331
239A
  5
1EF0
331
1EFD
  5
1F0B
331
1F05
  5
1F13
331
568
  5
568
331
B58
  5
11CC
331
1A6A
  5
1A60
331
491
  5
491
331
8E6
  5
7F0
331
AF5
  5
1064
331
1265
  5
1449
331
1D29
  5
1D29
331
588
  5
588
331
499
  5
499
331
5C7
  5
5C7
331
8EE
  5
8E5
331
1993
  5
8EF
331
1D31
  5
1D31
331
1F0D
  5
1F1B
331
1D58
  5
1D58
331
1F15
  5
207A
331
1D60
  5
1EEB
331
1EE6
  5
1EF4
331
590
  5
590
331
19FB
  5
1A6C
331
127D
  5
144A
331
598
  5
598
331
B0D
  5
1065
331
1D41
  5
1D41
331
17BC
  5
1A67
331
5A0
  5
5A0
331
1D49
  5
1D49
331
17C4
  5
1A68
331
5A8
  5
5A8
331
B25
  5
1066
331
1EEE
  5
1EFC
331
1EF6
  5
1F04
331
1EFE
  5
1F0C
331
23B3
  5
1D5C
331
1F06
  5
1F14
331
569
  5
569
331
5B8
  5
5B8
331
1A6B
  5
1A61
331
197C
  5
8F1
331
8E7
  5
8C2
331
1994
  5
8F0
331
5C8
  5
5C8
331
589
  5
589
331
8EF
  5
8E6
331
1D32
  5
1D32
331
19B4
  5
1A6A
331
1D51
  5
1D51
331
1F0E
  5
1F1E
331
1D59
  5
1D59
331
1F16
  5
207B
331
1D61
  5
1EEC
331
1F1E
  5
2396
331
1EE7
  5
1EF5
331
4A2
  5
4A2
331
591
  5
591
331
19FC
  5
1A6D
331
1200
  5
1443
331
7F0
  5
95C
331
1D42
  5
1D42
331
5A1
  5
5A1
331
1D4A
  5
1D4A
331
1EEF
  5
1EFD
331
1EF7
  5
1F05
331
23B4
  5
1D5D
331
1EFF
  5
1F0D
331
1F07
  5
1F15
331
56A
  5
56A
331
1218
  5
1444
331
1A6C
  5
1A62
331
197D
  5
8F2
331
8E8
  5
8C3
331
5C9
  5
5C9
331
58A
  5
58A
331
49B
  5
49B
331
8F0
  5
8E7
331
1D52
  5
1D52
331
1D5A
  5
1D5A
331
1F0F
  5
1F21
331
1F17
  5
2160
331
1F27
  5
2399
331
5D1
  5
93B
331
4A3
  5
4A3
331
59A
  5
59A
331
1D43
  5
1D43
331
5A2
  5
5A2
331
1D4B
  5
1D4B
331
1EE8
  5
1EF6
331
1EF0
  5
1EFE
331
1EF8
  5
1F06
331
23B5
  5
1D5E
331
1F00
  5
1F0E
331
56B
  5
56B
331
5B2
  5
5B2
331
1A65
  5
1994
331
1062
  5
123D
331
1A6D
  5
1A63
331
197E
  5
8F3
331
8E9
  5
8C4
331
8F1
  5
8E8
331
5CA
  5
5CA
331
58B
  5
58B
331
49C
  5
49C
331
1F08
  5
1F16
331
1D53
  5
1D53
331
1F10
  5
1F24
331
1F18
  5
21D2
331
236E
  5
23B6
331
4A4
  5
4A4
331
59B
  5
59B
331
1D44
  5
1D44
331
8C2
  5
992
331
564
  5
564
331
5A3
  5
5A3
331
1EE9
  5
1EF7
331
2396
  5
1EED
331
1EF1
  5
1EFF
331
239E
  5
23B7
331
1EF9
  5
1F07
331
1F01
  5
1F0F
331
23B6
  5
1D5F
331
56C
  5
56C
331
5B3
  5
5B3
331
1A66
  5
19B4
331
1063
  5
125C
331
57C
  5
57C
331
5BB
  5
5BB
331
197F
  5
909
331
495
  5
495
331
8EA
  5
8C5
331
1AC6
  5
1AC6
331
8F2
  5
8E9
331
5CB
  5
5CB
331
49D
  5
49D
331
58C
  5
58C
331
1F09
  5
1F17
331
1D54
  5
1D54
331
1F11
  5
1F27
331
1D5C
  5
1EE5
331
1F19
  5
2250
331
1F21
  5
2397
331
BA4
  5
11E4
331
4A5
  5
4A5
331
59C
  5
59C
331
1D45
  5
1D45
331
BBC
  5
1200
331
8C3
  5
9B3
331
565
  5
565
331
992
  5
B58
331
1D4D
  5
1D4D
331
1EEA
  5
1EF8
331
2160
  5
23A0
331
1EF2
  5
1F00
331
1EFA
  5
1F08
331
1F02
  5
1F10
331
8CB
  5
A57
331
56D
  5
56D
331
5B4
  5
5B4
331
1A67
  5
19FA
331
1064
  5
1264
331
5BC
  5
5BC
331
11E4
  5
1442
331
496
  5
496
331
585
  5
585
331
5C4
  5
5C4
331
8EB
  5
8CB
331
1D2E
  5
1D2E
331
8F3
  5
8EA
331
5CC
  5
5CC
331
58D
  5
58D
331
1F0A
  5
1F18
331
1D55
  5
1D55
331
2250
  5
23B4
331
1F12
  5
1F2A
331
1D5D
  5
1EE6
331
1F1A
  5
2321
331
1EE3
  5
1EF1
331
1D3E
  5
1D3E
331
93B
  5
B0D
331
59D
  5
59D
331
1D46
  5
1D46
331
8C4
  5
A19
331
566
  5
566
331
1D4E
  5
1D4E
331
5AD
  5
5AD
331
2079
  5
239C
331
1F2A
  5
239A
331
1EEB
  5
1EF9
331
1EF3
  5
1F01
331
2398
  5
1EEE
331
1EFB
  5
1F09
331
1F03
  5
1F11
331
8CC
  5
A6F
331
56E
  5
56E
331
5B5
  5
5B5
331
1065
  5
1265
331
48F
  5
48F
331
5BD
  5
5BD
331
1991
  5
8ED
331
497
  5
497
331
5C5
  5
5C5
331
8EC
  5
8CC
331
1D2F
  5
1D2F
331
5CD
  5
5CD
331
58E
  5
58E
331
1F0B
  5
1F19
331
1D56
  5
1D56
331
1F13
  5
1F2B
331
1D5E
  5
1EE7
331
2321
  5
23B5
331
1F1B
  5
236E
331
1EE4
  5
1EF2
331
1B20
  5
1B20
331
52F
  5
52F
331
59E
  5
59E
331
1D3F
  5
1D3F
331
567
  5
567
331
8C5
  5
A35
331
1D47
  5
1D47
331
1D4F
  5
1D4F
331
CB6
  5
1218
331
207A
  5
239E
331
1F2B
  5
239B
331
1EEC
  5
1EFA
331
1EF4
  5
1F02
331
2399
  5
1EEF
331
1EFC
  5
1F0A
331
21D2
  5
23B3
331
1F04
  5
1F12
331
56F
  5
56F
331
5B6
  5
5B6
331
125C
  5
1446
331
8E5
  5
5D1
331
490
  5
490
331
1066
  5
127D
331
1264
  5
1448
331
498
  5
498
331
587
  5
587
331
5C6
  5
5C6
331
8ED
  5
8CD
331
1992
  5
8EE
331
58F
  5
58F
331
1F0C
  5
1F1A
331
1D57
  5
1D57
331
1F14
  5
2079
331
1D5F
  5
1EEA
331
1F24
  5
2398
331
1EE5
  5
1EF3
331
19FA
  5
1A6B
331
597
  5
597
331
123D
  5
1445
331
59F
  5
59F
331
1D40
  5
1D40
331
1D48
  5
1D48
  0
SORTENTSTABLE
  5
1E46
102
{ACAD_REACTORS
330
1E45
102
}
330
1E45
100
AcDbSortentsTable
330
1E24
  0
SORTENTSTABLE
  5
223B
102
{ACAD_REACTORS
330
223A
102
}
330
223A
100
AcDbSortentsTable
330
2238
  0
DIMASSOC
  5
1E36
102
{ACAD_REACTORS
330
1E35
102
}
330
1E35
100
AcDbDimAssoc
330
1E34
 90
        2
 70
     0
 71
     0
  1
AcDbOsnapPointRef
 72
    13
331
1E32
 73
     2
 91
        0
 40
0.0
 10
0.0
 20
0.0
 30
2.000000000000000E+50
 75
     0
  0
DIMASSOC
  5
1E39
102
{ACAD_REACTORS
330
1E38
102
}
330
1E38
100
AcDbDimAssoc
330
1E37
 90
        3
 70
     0
 71
     0
  1
AcDbOsnapPointRef
 72
     1
331
1E2E
 73
     2
 91
        0
 40
1.0
 10
0.0
 20
0.0
 30
2.000000000000000E+50
 75
     0
  1
AcDbOsnapPointRef
 72
     1
331
1E32
 73
     2
 91
        0
 40
1.0
 10
0.0
 20
0.0
 30
2.000000000000000E+50
 75
     0
  0
DIMASSOC
  5
1E3C
102
{ACAD_REACTORS
330
1E3B
102
}
330
1E3B
100
AcDbDimAssoc
330
1E3A
 90
        3
 70
     0
 71
     0
  1
AcDbOsnapPointRef
 72
    13
331
1E25
 73
     2
 91
        0
 40
0.0
 10
0.0
 20
0.0
 30
2.000000000000000E+50
 75
     0
  1
AcDbOsnapPointRef
 72
    13
331
1E26
 73
     2
 91
        0
 40
0.0
 10
0.0
 20
0.0
 30
2.000000000000000E+50
 75
     0
  0
DIMASSOC
  5
1E3F
102
{ACAD_REACTORS
330
1E3E
102
}
330
1E3E
100
AcDbDimAssoc
330
1E3D
 90
        1
 70
     0
 71
     0
  1
AcDbOsnapPointRef
 72
    13
331
1E27
 73
     2
 91
        0
 40
0.0
 10
0.0
 20
0.0
 30
2.000000000000000E+50
 75
     0
  0
DIMASSOC
  5
1E42
102
{ACAD_REACTORS
330
1E41
102
}
330
1E41
100
AcDbDimAssoc
330
1E40
 90
        3
 70
     0
 71
     0
  1
AcDbOsnapPointRef
 72
    13
331
1E27
 73
     2
 91
        0
 40
0.0
 10
0.0
 20
0.0
 30
2.000000000000000E+50
 75
     0
  1
AcDbOsnapPointRef
 72
    13
331
1E26
 73
     2
 91
        0
 40
0.0
 10
0.0
 20
0.0
 30
2.000000000000000E+50
 75
     0
  0
DIMASSOC
  5
9A9
102
{ACAD_REACTORS
330
99F
102
}
330
99F
100
AcDbDimAssoc
330
992
 90
        3
 70
     0
 71
     0
  1
AcDbOsnapPointRef
 72
    13
331
5CA
331
2F0
 73
     2
 91
        0
 40
0.0
 10
0.0
 20
0.0
 30
2.000000000000000E+50
 75
     0
  1
AcDbOsnapPointRef
 72
     1
331
5CA
331
2E7
 73
     2
 91
        0
 40
1.0
 10
0.0
 20
0.0
 30
2.000000000000000E+50
 75
     0
  0
DIMASSOC
  5
B0C
102
{ACAD_REACTORS
330
B02
102
}
330
B02
100
AcDbDimAssoc
330
AF5
 90
        3
 70
     0
 71
     0
  1
AcDbOsnapPointRef
 72
     3
331
58B
331
2C4
 73
     2
 91
        0
 40
3.141592653589792
 10
0.0
 20
0.0
 30
0.0
 75
     0
  1
AcDbOsnapPointRef
 72
    13
331
5C5
331
2D0
 73
     2
 91
        0
 40
0.0
 10
0.0
 20
0.0
 30
2.000000000000000E+50
 75
     0
  0
DIMASSOC
  5
B6F
102
{ACAD_REACTORS
330
B65
102
}
330
B65
100
AcDbDimAssoc
330
B58
 90
        3
 70
     0
 71
     0
  1
AcDbOsnapPointRef
 72
     1
331
56E
 73
     2
 91
        0
 40
1.0
 10
0.0
 20
0.0
 30
2.000000000000000E+50
 75
     0
  1
AcDbOsnapPointRef
 72
    13
331
56A
 73
     2
 91
        0
 40
0.0
 10
0.0
 20
0.0
 30
2.000000000000000E+50
 75
     0
  0
DIMASSOC
  5
BBB
102
{ACAD_REACTORS
330
BB1
102
}
330
BB1
100
AcDbDimAssoc
330
BA4
 90
        3
 70
     0
 71
     0
  1
AcDbOsnapPointRef
 72
     3
331
567
331
2BD
 73
     2
 91
        0
 40
3.141592653589792
 10
0.0
 20
0.0
 30
0.0
 75
     0
  1
AcDbOsnapPointRef
 72
    13
331
5C5
331
2D4
 73
     2
 91
        0
 40
0.0
 10
0.0
 20
0.0
 30
2.000000000000000E+50
 75
     0
  0
DIMASSOC
  5
11FF
102
{ACAD_REACTORS
330
11F3
102
}
330
11F3
100
AcDbDimAssoc
330
11E4
 90
        3
 70
     0
 71
     0
  1
AcDbOsnapPointRef
 72
     1
331
58B
331
2C4
 73
     2
 91
        0
 40
6.283185307179585
 10
0.0
 20
0.0
 30
2.000000000000000E+50
 75
     0
  1
AcDbOsnapPointRef
 72
    13
331
58B
331
2C4
 73
     2
 91
        0
 40
3.141592653589792
 10
0.0
 20
0.0
 30
2.000000000000000E+50
 75
     0
  0
DIMASSOC
  5
1217
102
{ACAD_REACTORS
330
120D
102
}
330
120D
100
AcDbDimAssoc
330
1200
 90
        3
 70
     0
 71
     0
  1
AcDbOsnapPointRef
 72
     1
331
591
 73
     2
 91
        0
 40
0.9999999999999998
 10
0.0
 20
0.0
 30
2.000000000000000E+50
 75
     0
  1
AcDbOsnapPointRef
 72
    13
331
590
 73
     2
 91
        0
 40
0.0
 10
0.0
 20
0.0
 30
2.000000000000000E+50
 75
     0
  0
DIMASSOC
  5
1233
102
{ACAD_REACTORS
330
1227
102
}
330
1227
100
AcDbDimAssoc
330
1218
 90
        3
 70
     0
 71
     0
  1
AcDbOsnapPointRef
 72
    13
331
590
 73
     2
 91
        0
 40
0.0
 10
0.0
 20
0.0
 30
2.000000000000000E+50
 75
     0
  1
AcDbOsnapPointRef
 72
    13
331
58F
 73
     2
 91
        0
 40
0.0
 10
0.0
 20
0.0
 30
2.000000000000000E+50
 75
     0
  0
DIMASSOC
  5
1254
102
{ACAD_REACTORS
330
124A
102
}
330
124A
100
AcDbDimAssoc
330
123D
 90
        2
 70
     0
 71
     0
  1
AcDbOsnapPointRef
 72
    13
331
5C5
331
2D0
 73
     2
 91
        0
 40
0.0
 10
0.0
 20
0.0
 30
2.000000000000000E+50
 75
     0
  0
DIMASSOC
  5
127C
102
{ACAD_REACTORS
330
1272
102
}
330
1272
100
AcDbDimAssoc
330
1265
 90
        3
 70
     0
 71
     0
  1
AcDbOsnapPointRef
 72
     1
331
5A0
 73
     2
 91
        0
 40
1.570796326794896
 10
0.0
 20
0.0
 30
2.000000000000000E+50
 75
     0
  1
AcDbOsnapPointRef
 72
    13
331
5A2
 73
     2
 91
        0
 40
0.0
 10
0.0
 20
0.0
 30
2.000000000000000E+50
 75
     0
  0
DIMASSOC
  5
1294
102
{ACAD_REACTORS
330
128A
102
}
330
128A
100
AcDbDimAssoc
330
127D
 90
        3
 70
     0
 71
     0
  1
AcDbOsnapPointRef
 72
    13
331
5A3
 73
     2
 91
        0
 40
0.0
 10
0.0
 20
0.0
 30
2.000000000000000E+50
 75
     0
  1
AcDbOsnapPointRef
 72
    13
331
5CC
 73
     2
 91
        0
 40
0.0
 10
0.0
 20
0.0
 30
2.000000000000000E+50
 75
     0
  0
DIMASSOC
  5
1F1D
102
{ACAD_REACTORS
330
1F1C
102
}
330
1F1C
100
AcDbDimAssoc
330
1F1B
 90
        2
 70
     0
 71
     0
  1
AcDbOsnapPointRef
 72
    13
331
1F19
 73
     2
 91
        0
 40
0.0
 10
0.0
 20
0.0
 30
2.000000000000000E+50
 75
     0
  0
DIMASSOC
  5
1F20
102
{ACAD_REACTORS
330
1F1F
102
}
330
1F1F
100
AcDbDimAssoc
330
1F1E
 90
        3
 70
     0
 71
     0
  1
AcDbOsnapPointRef
 72
     1
331
1F15
 73
     2
 91
        0
 40
1.0
 10
0.0
 20
0.0
 30
2.000000000000000E+50
 75
     0
  1
AcDbOsnapPointRef
 72
     1
331
1F19
 73
     2
 91
        0
 40
1.0
 10
0.0
 20
0.0
 30
2.000000000000000E+50
 75
     0
  0
DIMASSOC
  5
1F23
102
{ACAD_REACTORS
330
1F22
102
}
330
1F22
100
AcDbDimAssoc
330
1F21
 90
        3
 70
     0
 71
     0
  1
AcDbOsnapPointRef
 72
    13
331
1F0C
 73
     2
 91
        0
 40
0.0
 10
0.0
 20
0.0
 30
2.000000000000000E+50
 75
     0
  1
AcDbOsnapPointRef
 72
    13
331
1F0D
 73
     2
 91
        0
 40
0.0
 10
0.0
 20
0.0
 30
2.000000000000000E+50
 75
     0
  0
DIMASSOC
  5
1F26
102
{ACAD_REACTORS
330
1F25
102
}
330
1F25
100
AcDbDimAssoc
330
1F24
 90
        1
 70
     0
 71
     0
  1
AcDbOsnapPointRef
 72
    13
331
1F0E
 73
     2
 91
        0
 40
0.0
 10
0.0
 20
0.0
 30
2.000000000000000E+50
 75
     0
  0
DIMASSOC
  5
1F29
102
{ACAD_REACTORS
330
1F28
102
}
330
1F28
100
AcDbDimAssoc
330
1F27
 90
        3
 70
     0
 71
     0
  1
AcDbOsnapPointRef
 72
    13
331
1F0E
 73
     2
 91
        0
 40
0.0
 10
0.0
 20
0.0
 30
2.000000000000000E+50
 75
     0
  1
AcDbOsnapPointRef
 72
    13
331
1F0D
 73
     2
 91
        0
 40
0.0
 10
0.0
 20
0.0
 30
2.000000000000000E+50
 75
     0
  0
GROUP
  5
1B52
102
{ACAD_REACTORS
330
D
102
}
330
D
100
AcDbGroup
300

 70
     1
 71
     1
  0
GROUP
  5
23CA
102
{ACAD_REACTORS
330
D
102
}
330
D
100
AcDbGroup
300

 70
     1
 71
     1
340
23C9
340
23C8
340
23C7
340
23C6
  0
GROUP
  5
1B53
102
{ACAD_REACTORS
330
D
102
}
330
D
100
AcDbGroup
300

 70
     1
 71
     1
  0
GROUP
  5
1B6C
102
{ACAD_REACTORS
330
D
102
}
330
D
100
AcDbGroup
300

 70
     1
 71
     1
  0
GROUP
  5
1B6D
102
{ACAD_REACTORS
330
D
102
}
330
D
100
AcDbGroup
300

 70
     1
 71
     1
340
5CB
340
5C6
340
5C5
340
5C4
340
591
340
590
340
58F
340
58E
340
58D
340
58C
340
58B
340
58A
340
589
340
588
340
587
340
585
340
57C
340
56F
340
56E
340
56D
340
56C
340
56B
340
56A
340
569
340
568
340
567
340
566
340
565
340
564
  0
GROUP
  5
1B6E
102
{ACAD_REACTORS
330
D
102
}
330
D
100
AcDbGroup
300

 70
     1
 71
     1
340
5CA
340
5C9
340
5C8
340
5C7
340
5BD
340
5BC
340
5BB
340
5B6
340
5B5
340
5B4
340
5B3
340
5B2
340
59E
340
59D
340
59C
340
59B
340
59A
  0
GROUP
  5
1B6F
102
{ACAD_REACTORS
330
D
102
}
330
D
100
AcDbGroup
300

 70
     1
 71
     1
340
1264
340
125C
340
197E
340
197D
340
1993
340
1992
340
8F3
340
8F2
340
8F1
340
8F0
340
8EF
340
8EE
340
8ED
340
8EC
340
8EB
340
8EA
340
8E9
340
8E8
340
8E7
340
8E6
340
8E5
340
5CD
340
5CC
340
5AD
340
5A8
340
5A3
340
5A2
340
5A1
340
5A0
340
59F
340
598
340
597
  0
LAYOUT
  5
22
102
{ACAD_XDICTIONARY
360
257B
102
}
102
{ACAD_REACTORS
330
1A
102
}
330
1A
100
AcDbPlotSettings
  1

  2
SHARP MX-3610FN SPDL2-c
  4
A4
  6

 40
5.027082920074462
 41
5.027085781097412
 42
5.027069091796875
 43
5.027069091796875
 44
209.9733276367186
 45
296.9259948730469
 46
7.347087812423751
 47
12.56092000007646
 48
0.0000000000002274
 49
0.0000000000000391
140
370.45
141
523.4999999999993
142
1.0
143
2.0
 70
 11940
 72
     1
 73
     0
 74
     4
  7

 75
     0
147
0.5396657460516872
148
-0.0000000000002274
149
-0.0000000000000391
100
AcDbLayout
  1
Model
 70
     1
 71
     0
 10
0.0
 20
0.0
 11
12.0
 21
9.0
 12
0.0
 22
0.0
 32
0.0
 14
0.0
 24
0.0
 34
0.0
 15
0.0
 25
0.0
 35
0.0
146
0.0
 13
0.0
 23
0.0
 33
0.0
 16
1.0
 26
0.0
 36
0.0
 17
0.0
 27
1.0
 37
0.0
 76
     0
330
1F
331
1CAC
1001
ACAD_PSEXT
1000
SHARP MX-3610FN SPDL2-c
1000
SHARP MX-3610FN SPDL2-c
1000
IP_192.168.5.100
1000

1070
     0
  0
LAYOUT
  5
D3
102
{ACAD_XDICTIONARY
360
257E
102
}
102
{ACAD_REACTORS
330
1A
102
}
330
1A
100
AcDbPlotSettings
  1

  2
C:\Documents and Settings\basas\Application Data\Autodesk\AutoCAD 2005\R16.1\enu\plotters\Default Windows System Printer.pc3
  4

  6

 40
0.0
 41
0.0
 42
0.0
 43
0.0
 44
0.0
 45
0.0
 46
0.0
 47
0.0
 48
0.0
 49
0.0
140
0.0
141
0.0
142
1.0
143
1.0
 70
   688
 72
     0
 73
     0
 74
     5
  7

 75
    16
147
1.0
148
0.0
149
0.0
100
AcDbLayout
  1
レイアウト1
 70
     1
 71
     1
 10
0.0
 20
0.0
 11
12.0
 21
9.0
 12
0.0
 22
0.0
 32
0.0
 14
0.0
 24
0.0
 34
0.0
 15
0.0
 25
0.0
 35
0.0
146
0.0
 13
0.0
 23
0.0
 33
0.0
 16
1.0
 26
0.0
 36
0.0
 17
0.0
 27
1.0
 37
0.0
 76
     0
330
D2
  0
LAYOUT
  5
D7
102
{ACAD_XDICTIONARY
360
2580
102
}
102
{ACAD_REACTORS
330
1A
102
}
330
1A
100
AcDbPlotSettings
  1

  2
C:\Documents and Settings\basas\Application Data\Autodesk\AutoCAD 2005\R16.1\enu\plotters\Default Windows System Printer.pc3
  4

  6

 40
0.0
 41
0.0
 42
0.0
 43
0.0
 44
0.0
 45
0.0
 46
0.0
 47
0.0
 48
0.0
 49
0.0
140
0.0
141
0.0
142
1.0
143
1.0
 70
   688
 72
     0
 73
     0
 74
     5
  7

 75
    16
147
1.0
148
0.0
149
0.0
100
AcDbLayout
  1
レイアウト2
 70
     1
 71
     2
 10
0.0
 20
0.0
 11
12.0
 21
9.0
 12
0.0
 22
0.0
 32
0.0
 14
0.0
 24
0.0
 34
0.0
 15
0.0
 25
0.0
 35
0.0
146
0.0
 13
0.0
 23
0.0
 33
0.0
 16
1.0
 26
0.0
 36
0.0
 17
0.0
 27
1.0
 37
0.0
 76
     0
330
D6
  0
MATERIAL
  5
ED
102
{ACAD_XDICTIONARY
360
2584
102
}
102
{ACAD_REACTORS
330
6A
102
}
330
6A
100
AcDbMaterial
  1
ByBlock
  0
MATERIAL
  5
EC
102
{ACAD_XDICTIONARY
360
2582
102
}
102
{ACAD_REACTORS
330
6A
102
}
330
6A
100
AcDbMaterial
  1
ByLayer
  0
MATERIAL
  5
EE
102
{ACAD_XDICTIONARY
360
173
102
}
102
{ACAD_REACTORS
330
6A
102
}
330
6A
100
AcDbMaterial
  1
Global
 43
0.0007999999797903
 43
0.0
 43
0.0
 43
0.0
 43
0.0
 43
0.0007999999797903
 43
0.0
 43
0.0
 43
0.0
 43
0.0
 43
1.0
 43
0.0
 43
0.0
 43
0.0
 43
0.0
 43
1.0
 49
0.0007999999797903
 49
0.0
 49
0.0
 49
0.0
 49
0.0
 49
0.0007999999797903
 49
0.0
 49
0.0
 49
0.0
 49
0.0
 49
1.0
 49
0.0
 49
0.0
 49
0.0
 49
0.0
 49
1.0
142
0.0007999999797903
142
0.0
142
0.0
142
0.0
142
0.0
142
0.0007999999797903
142
0.0
142
0.0
142
0.0
142
0.0
142
1.0
142
0.0
142
0.0
142
0.0
142
0.0
142
1.0
144
0.0007999999797903
144
0.0
144
0.0
144
0.0
144
0.0
144
0.0007999999797903
144
0.0
144
0.0
144
0.0
144
0.0
144
1.0
144
0.0
144
0.0
144
0.0
144
0.0
144
1.0
1001
ACAD
1070
    -1
1070
     3
1070
     0
1000

1071
        0
1070
     0
  0
MLEADERSTYLE
  5
13B
102
{ACAD_REACTORS
330
12D
102
}
330
12D
100
AcDbMLeaderStyle
170
     2
171
     1
172
     0
 90
        2
 40
0.0
 41
0.0
173
     1
 91
-1056964608
340
14
 92
       -2
290
     1
 42
2.0
291
     1
 43
8.0
  3
Standard
 44
4.0
300

342
11
174
     1
178
     1
175
     1
176
     0
 93
-1056964608
 45
4.0
292
     0
297
     0
 46
4.0
 94
-1056964608
 47
1.0
 49
1.0
140
1.0
293
     1
141
0.0
294
     1
177
     0
142
1.0
295
     0
296
     1
143
3.75
1001
ACAD_MLEADERVER
1070
     2
  0
MLEADERSTYLE
  5
12E
102
{ACAD_REACTORS
330
12D
102
}
330
12D
100
AcDbMLeaderStyle
170
     2
171
     1
172
     0
 90
        2
 40
0.0
 41
0.0
173
     1
 91
-1056964608
340
14
 92
       -2
290
     1
 42
2.0
291
     1
 43
8.0
  3
Standard
 44
4.0
300

342
11
174
     1
178
     1
175
     1
176
     0
 93
-1056964608
 45
4.0
292
     0
297
     0
 46
4.0
 94
-1056964608
 47
1.0
 49
1.0
140
1.0
293
     1
141
0.0
294
     1
177
     0
142
1.0
295
     0
296
     0
143
3.75
1001
ACAD_MLEADERVER
1070
     2
  0
MLINESTYLE
  5
18
102
{ACAD_REACTORS
330
17
102
}
330
17
100
AcDbMlineStyle
  2
STANDARD
 70
     0
  3

 62
   256
 51
90.0
 52
90.0
 71
     2
 49
0.5
 62
   256
  6
BYLAYER
 49
-0.5
 62
   256
  6
BYLAYER
  0
ACDBPLACEHOLDER
  5
F
102
{ACAD_REACTORS
330
E
102
}
330
E
  0
SCALE
  5
10D
102
{ACAD_REACTORS
330
10C
102
}
330
10C
100
AcDbScale
 70
     0
300
1:1
140
1.0
141
1.0
290
     1
  0
SCALE
  5
188
102
{ACAD_REACTORS
330
10C
102
}
330
10C
100
AcDbScale
 70
     0
300
1:2
140
1.0
141
2.0
290
     0
  0
SCALE
  5
189
102
{ACAD_REACTORS
330
10C
102
}
330
10C
100
AcDbScale
 70
     0
300
1:4
140
1.0
141
4.0
290
     0
  0
SCALE
  5
18A
102
{ACAD_REACTORS
330
10C
102
}
330
10C
100
AcDbScale
 70
     0
300
1:5
140
1.0
141
5.0
290
     0
  0
SCALE
  5
18B
102
{ACAD_REACTORS
330
10C
102
}
330
10C
100
AcDbScale
 70
     0
300
1:8
140
1.0
141
8.0
290
     0
  0
SCALE
  5
18C
102
{ACAD_REACTORS
330
10C
102
}
330
10C
100
AcDbScale
 70
     0
300
1:10
140
1.0
141
10.0
290
     0
  0
SCALE
  5
18D
102
{ACAD_REACTORS
330
10C
102
}
330
10C
100
AcDbScale
 70
     0
300
1:16
140
1.0
141
16.0
290
     0
  0
SCALE
  5
18E
102
{ACAD_REACTORS
330
10C
102
}
330
10C
100
AcDbScale
 70
     0
300
1:20
140
1.0
141
20.0
290
     0
  0
SCALE
  5
18F
102
{ACAD_REACTORS
330
10C
102
}
330
10C
100
AcDbScale
 70
     0
300
1:30
140
1.0
141
30.0
290
     0
  0
SCALE
  5
190
102
{ACAD_REACTORS
330
10C
102
}
330
10C
100
AcDbScale
 70
     0
300
1:40
140
1.0
141
40.0
290
     0
  0
SCALE
  5
191
102
{ACAD_REACTORS
330
10C
102
}
330
10C
100
AcDbScale
 70
     0
300
1:50
140
1.0
141
50.0
290
     0
  0
SCALE
  5
192
102
{ACAD_REACTORS
330
10C
102
}
330
10C
100
AcDbScale
 70
     0
300
1:100
140
1.0
141
100.0
290
     0
  0
SCALE
  5
193
102
{ACAD_REACTORS
330
10C
102
}
330
10C
100
AcDbScale
 70
     0
300
2:1
140
2.0
141
1.0
290
     0
  0
SCALE
  5
194
102
{ACAD_REACTORS
330
10C
102
}
330
10C
100
AcDbScale
 70
     0
300
4:1
140
4.0
141
1.0
290
     0
  0
SCALE
  5
195
102
{ACAD_REACTORS
330
10C
102
}
330
10C
100
AcDbScale
 70
     0
300
8:1
140
8.0
141
1.0
290
     0
  0
SCALE
  5
196
102
{ACAD_REACTORS
330
10C
102
}
330
10C
100
AcDbScale
 70
     0
300
10:1
140
10.0
141
1.0
290
     0
  0
SCALE
  5
197
102
{ACAD_REACTORS
330
10C
102
}
330
10C
100
AcDbScale
 70
     0
300
100:1
140
100.0
141
1.0
290
     0
  0
SCALE
  5
198
102
{ACAD_REACTORS
330
10C
102
}
330
10C
100
AcDbScale
 70
     0
300
1/128" = 1'-0"
140
0.0078125
141
12.0
290
     0
  0
SCALE
  5
199
102
{ACAD_REACTORS
330
10C
102
}
330
10C
100
AcDbScale
 70
     0
300
1/64" = 1'-0"
140
0.015625
141
12.0
290
     0
  0
SCALE
  5
19A
102
{ACAD_REACTORS
330
10C
102
}
330
10C
100
AcDbScale
 70
     0
300
1/32" = 1'-0"
140
0.03125
141
12.0
290
     0
  0
SCALE
  5
19B
102
{ACAD_REACTORS
330
10C
102
}
330
10C
100
AcDbScale
 70
     0
300
1/16" = 1'-0"
140
0.0625
141
12.0
290
     0
  0
SCALE
  5
19C
102
{ACAD_REACTORS
330
10C
102
}
330
10C
100
AcDbScale
 70
     0
300
3/32" = 1'-0"
140
0.09375
141
12.0
290
     0
  0
SCALE
  5
19D
102
{ACAD_REACTORS
330
10C
102
}
330
10C
100
AcDbScale
 70
     0
300
1/8" = 1'-0"
140
0.125
141
12.0
290
     0
  0
SCALE
  5
19E
102
{ACAD_REACTORS
330
10C
102
}
330
10C
100
AcDbScale
 70
     0
300
3/16" = 1'-0"
140
0.1875
141
12.0
290
     0
  0
SCALE
  5
19F
102
{ACAD_REACTORS
330
10C
102
}
330
10C
100
AcDbScale
 70
     0
300
1/4" = 1'-0"
140
0.25
141
12.0
290
     0
  0
SCALE
  5
1A0
102
{ACAD_REACTORS
330
10C
102
}
330
10C
100
AcDbScale
 70
     0
300
3/8" = 1'-0"
140
0.375
141
12.0
290
     0
  0
SCALE
  5
1A1
102
{ACAD_REACTORS
330
10C
102
}
330
10C
100
AcDbScale
 70
     0
300
1/2" = 1'-0"
140
0.5
141
12.0
290
     0
  0
SCALE
  5
1A2
102
{ACAD_REACTORS
330
10C
102
}
330
10C
100
AcDbScale
 70
     0
300
3/4" = 1'-0"
140
0.75
141
12.0
290
     0
  0
SCALE
  5
1A3
102
{ACAD_REACTORS
330
10C
102
}
330
10C
100
AcDbScale
 70
     0
300
1" = 1'-0"
140
1.0
141
12.0
290
     0
  0
SCALE
  5
1A4
102
{ACAD_REACTORS
330
10C
102
}
330
10C
100
AcDbScale
 70
     0
300
1-1/2" = 1'-0"
140
1.5
141
12.0
290
     0
  0
SCALE
  5
1A5
102
{ACAD_REACTORS
330
10C
102
}
330
10C
100
AcDbScale
 70
     0
300
3" = 1'-0"
140
3.0
141
12.0
290
     0
  0
SCALE
  5
1A6
102
{ACAD_REACTORS
330
10C
102
}
330
10C
100
AcDbScale
 70
     0
300
6" = 1'-0"
140
6.0
141
12.0
290
     0
  0
SCALE
  5
1A7
102
{ACAD_REACTORS
330
10C
102
}
330
10C
100
AcDbScale
 70
     0
300
1'-0" = 1'-0"
140
12.0
141
12.0
290
     0
  0
TABLESTYLE
  5
7F
102
{ACAD_XDICTIONARY
360
162
102
}
102
{ACAD_REACTORS
330
7E
102
}
330
7E
100
AcDbTableStyle
  3
Standard
 70
     0
 71
     0
 40
1.5
 41
1.5
280
     0
281
     0
  7
Standard
140
4.5
170
     2
 62
     0
 63
     7
283
     0
274
    -2
284
     1
 64
     0
275
    -2
285
     1
 65
     0
276
    -2
286
     1
 66
     0
277
    -2
287
     1
 67
     0
278
    -2
288
     1
 68
     0
279
    -2
289
     1
 69
     0
  7
Standard
140
6.0
170
     5
 62
     0
 63
     7
283
     0
274
    -2
284
     1
 64
     0
275
    -2
285
     1
 65
     0
276
    -2
286
     1
 66
     0
277
    -2
287
     1
 67
     0
278
    -2
288
     1
 68
     0
279
    -2
289
     1
 69
     0
  7
Standard
140
4.5
170
     5
 62
     0
 63
     7
283
     0
274
    -2
284
     1
 64
     0
275
    -2
285
     1
 65
     0
276
    -2
286
     1
 66
     0
277
    -2
287
     1
 67
     0
278
    -2
288
     1
 68
     0
279
    -2
289
     1
 69
     0
  0
VISUALSTYLE
  5
F5
102
{ACAD_REACTORS
330
EF
102
}
330
EF
100
AcDbVisualStyle
  2
2dWireframe
 70
     4
 71
     0
 72
     2
 73
     1
 90
        0
 40
-0.6
 41
-30.0
 62
     5
 63
     7
 74
     1
 91
        4
 64
     7
 65
   257
 75
     1
175
     1
 42
1.0
 92
        0
 66
   257
 43
1.0
 76
     1
 77
     6
 78
     2
 67
     7
 79
     5
170
     0
171
     0
290
     0
174
     0
 93
        1
 44
0.0
173
     0
291
     0
 45
0.0
1001
ACAD
1000
AcDbSavedByObjectVersion
1070
     0
  0
VISUALSTYLE
  5
F7
102
{ACAD_REACTORS
330
EF
102
}
330
EF
100
AcDbVisualStyle
  2
3D Hidden
 70
     6
 71
     1
 72
     2
 73
     2
 90
        0
 40
-0.6
 41
-30.0
 62
     5
 63
     7
 74
     2
 91
        2
 64
     7
 65
   257
 75
     2
175
     1
 42
40.0
 92
        0
 66
   257
 43
1.0
 76
     1
 77
     6
 78
     2
 67
     7
 79
     3
170
     0
171
     0
290
     0
174
     0
 93
        1
 44
0.0
173
     0
291
     0
 45
0.0
1001
ACAD
1000
AcDbSavedByObjectVersion
1070
     0
  0
VISUALSTYLE
  5
F6
102
{ACAD_REACTORS
330
EF
102
}
330
EF
100
AcDbVisualStyle
  2
3dWireframe
 70
     5
 71
     0
 72
     2
 73
     1
 90
        0
 40
-0.6
 41
-30.0
 62
     5
 63
     7
 74
     1
 91
        4
 64
     7
 65
   257
 75
     1
175
     1
 42
1.0
 92
        0
 66
   257
 43
1.0
 76
     1
 77
     6
 78
     2
 67
     7
 79
     5
170
     0
171
     0
290
     0
174
     0
 93
        1
 44
0.0
173
     0
291
     0
 45
0.0
1001
ACAD
1000
AcDbSavedByObjectVersion
1070
     0
  0
VISUALSTYLE
  5
F4
102
{ACAD_REACTORS
330
EF
102
}
330
EF
100
AcDbVisualStyle
  2
Basic
 70
     7
 71
     1
 72
     0
 73
     1
 90
        0
 40
-0.6
 41
-30.0
 62
     5
 63
     7
 74
     0
 91
        4
 64
     7
 65
   257
 75
     1
175
     1
 42
1.0
 92
        8
 66
     7
 43
1.0
 76
     1
 77
     6
 78
     2
 67
     7
 79
     5
170
     0
171
     0
290
     0
174
     0
 93
        1
 44
0.0
173
     0
291
     1
 45
0.0
1001
ACAD
1000
AcDbSavedByObjectVersion
1070
     0
  0
VISUALSTYLE
  5
FB
102
{ACAD_REACTORS
330
EF
102
}
330
EF
100
AcDbVisualStyle
  2
Brighten
 70
    12
 71
     2
 72
     2
 73
     1
 90
        0
 40
-0.6
 41
-30.0
 62
     5
 63
     7
 74
     1
 91
        4
 64
     7
 65
   257
 75
     1
175
     1
 42
1.0
 92
        8
 66
     7
 43
1.0
 76
     1
 77
     6
 78
     2
 67
     7
 79
     5
170
     0
171
     0
290
     0
174
     0
 93
        1
 44
50.0
173
     0
291
     1
 45
0.0
1001
ACAD
1000
AcDbSavedByObjectVersion
1070
     0
  0
VISUALSTYLE
  5
FF
102
{ACAD_REACTORS
330
EF
102
}
330
EF
100
AcDbVisualStyle
  2
ColorChange
 70
    16
 71
     2
 72
     2
 73
     3
 90
        0
 40
-0.6
 41
-30.0
 62
     5
 63
     8
 74
     1
 91
        4
 64
     7
 65
   257
 75
     1
175
     1
 42
1.0
 92
        8
 66
     8
 43
1.0
 76
     1
 77
     6
 78
     2
 67
     7
 79
     5
170
     0
171
     0
290
     0
174
     0
 93
        1
 44
0.0
173
     0
291
     1
 45
0.0
1001
ACAD
1000
AcDbSavedByObjectVersion
1070
     0
  0
VISUALSTYLE
  5
F8
102
{ACAD_REACTORS
330
EF
102
}
330
EF
100
AcDbVisualStyle
  2
Conceptual
 70
     9
 71
     3
 72
     2
 73
     1
 90
        0
 40
-0.6
 41
-30.0
 62
     5
 63
     7
 74
     2
 91
        2
 64
     7
 65
   257
 75
     1
175
     1
 42
40.0
 92
        8
 66
     7
 43
1.0
 76
     1
 77
     6
 78
     2
 67
     7
 79
     3
170
     0
171
     0
290
     0
174
     0
 93
        1
 44
0.0
173
     0
291
     0
 45
0.0
1001
ACAD
1000
AcDbSavedByObjectVersion
1070
     0
  0
VISUALSTYLE
  5
FA
102
{ACAD_REACTORS
330
EF
102
}
330
EF
100
AcDbVisualStyle
  2
Dim
 70
    11
 71
     2
 72
     2
 73
     1
 90
        0
 40
-0.6
 41
-30.0
 62
     5
 63
     7
 74
     1
 91
        4
 64
     7
 65
   257
 75
     1
175
     1
 42
1.0
 92
        8
 66
     7
 43
1.0
 76
     1
 77
     6
 78
     2
 67
     7
 79
     5
170
     0
171
     0
290
     0
174
     0
 93
        1
 44
-50.0
173
     0
291
     1
 45
0.0
1001
ACAD
1000
AcDbSavedByObjectVersion
1070
     0
  0
VISUALSTYLE
  5
FE
102
{ACAD_REACTORS
330
EF
102
}
330
EF
100
AcDbVisualStyle
  2
Facepattern
 70
    15
 71
     2
 72
     2
 73
     1
 90
        0
 40
-0.6
 41
-30.0
 62
     5
 63
     7
 74
     1
 91
        4
 64
     7
 65
   257
 75
     1
175
     1
 42
1.0
 92
        8
 66
     7
 43
1.0
 76
     1
 77
     6
 78
     2
 67
     7
 79
     5
170
     0
171
     0
290
     0
174
     0
 93
        1
 44
0.0
173
     0
291
     1
 45
0.0
1001
ACAD
1000
AcDbSavedByObjectVersion
1070
     0
  0
VISUALSTYLE
  5
F0
102
{ACAD_REACTORS
330
EF
102
}
330
EF
100
AcDbVisualStyle
  2
Flat
 70
     0
 71
     2
 72
     1
 73
     1
 90
        2
 40
-0.6
 41
30.0
 62
     5
 63
     7
 74
     0
 91
        4
 64
     7
 65
   257
 75
     1
175
     1
 42
1.0
 92
        8
 66
     7
 43
1.0
 76
     1
 77
     6
 78
     2
 67
     7
 79
     5
170
     0
171
     0
290
     0
174
     0
 93
        1
 44
0.0
173
     0
291
     1
 45
0.0
1001
ACAD
1000
AcDbSavedByObjectVersion
1070
     0
  0
VISUALSTYLE
  5
F1
102
{ACAD_REACTORS
330
EF
102
}
330
EF
100
AcDbVisualStyle
  2
FlatWithEdges
 70
     1
 71
     2
 72
     1
 73
     1
 90
        2
 40
-0.6
 41
30.0
 62
     5
 63
     7
 74
     1
 91
        4
 64
     7
 65
   257
 75
     1
175
     1
 42
1.0
 92
        0
 66
   257
 43
1.0
 76
     1
 77
     6
 78
     2
 67
     7
 79
     5
170
     0
171
     0
290
     0
174
     0
 93
        1
 44
0.0
173
     0
291
     1
 45
0.0
1001
ACAD
1000
AcDbSavedByObjectVersion
1070
     0
  0
VISUALSTYLE
  5
F2
102
{ACAD_REACTORS
330
EF
102
}
330
EF
100
AcDbVisualStyle
  2
Gouraud
 70
     2
 71
     2
 72
     2
 73
     1
 90
        2
 40
-0.6
 41
30.0
 62
     5
 63
     7
 74
     0
 91
        4
 64
     7
 65
   257
 75
     1
175
     1
 42
1.0
 92
        0
 66
     7
 43
1.0
 76
     1
 77
     6
 78
     2
 67
     7
 79
     5
170
     0
171
     0
290
     0
174
     0
 93
        1
 44
0.0
173
     0
291
     1
 45
0.0
1001
ACAD
1000
AcDbSavedByObjectVersion
1070
     0
  0
VISUALSTYLE
  5
F3
102
{ACAD_REACTORS
330
EF
102
}
330
EF
100
AcDbVisualStyle
  2
GouraudWithEdges
 70
     3
 71
     2
 72
     2
 73
     1
 90
        2
 40
-0.6
 41
30.0
 62
     5
 63
     7
 74
     1
 91
        4
 64
     7
 65
   257
 75
     1
175
     1
 42
1.0
 92
        0
 66
   257
 43
1.0
 76
     1
 77
     6
 78
     2
 67
     7
 79
     5
170
     0
171
     0
290
     0
174
     0
 93
        1
 44
0.0
173
     0
291
     1
 45
0.0
1001
ACAD
1000
AcDbSavedByObjectVersion
1070
     0
  0
VISUALSTYLE
  5
FD
102
{ACAD_REACTORS
330
EF
102
}
330
EF
100
AcDbVisualStyle
  2
Linepattern
 70
    14
 71
     2
 72
     2
 73
     1
 90
        0
 40
-0.6
 41
-30.0
 62
     5
 63
     7
 74
     1
 91
        4
 64
     7
 65
   257
 75
     7
175
     7
 42
1.0
 92
        8
 66
     7
 43
1.0
 76
     1
 77
     6
 78
     2
 67
     7
 79
     5
170
     0
171
     0
290
     0
174
     0
 93
        1
 44
0.0
173
     0
291
     1
 45
0.0
1001
ACAD
1000
AcDbSavedByObjectVersion
1070
     0
  0
VISUALSTYLE
  5
F9
102
{ACAD_REACTORS
330
EF
102
}
330
EF
100
AcDbVisualStyle
  2
Realistic
 70
     8
 71
     2
 72
     2
 73
     1
 90
        0
 40
-0.6
 41
-30.0
 62
     5
 63
     7
 74
     1
 91
        0
 64
     7
 65
   257
 75
     1
175
     1
 42
1.0
 92
        8
 66
     8
 43
1.0
 76
     1
 77
     6
 78
     2
 67
     7
 79
     5
170
     0
171
     0
290
     0
174
     0
 93
       13
 44
0.0
173
     0
291
     0
 45
0.0
1001
ACAD
1000
AcDbSavedByObjectVersion
1070
     0
  0
VISUALSTYLE
  5
FC
102
{ACAD_REACTORS
330
EF
102
}
330
EF
100
AcDbVisualStyle
  2
Thicken
 70
    13
 71
     2
 72
     2
 73
     1
 90
        0
 40
-0.6
 41
-30.0
 62
     5
 63
     7
 74
     1
 91
        4
 64
     7
 65
   257
 75
     1
175
     1
 42
1.0
 92
       12
 66
     7
 43
1.0
 76
     1
 77
     6
 78
     2
 67
     7
 79
     5
170
     0
171
     0
290
     0
174
     0
 93
        1
 44
0.0
173
     0
291
     1
 45
0.0
1001
ACAD
1000
AcDbSavedByObjectVersion
1070
     0
  0
DICTIONARYVAR
  5
146
102
{ACAD_REACTORS
330
5E
102
}
330
5E
100
DictionaryVariables
280
     0
  1
1:1
  0
DICTIONARYVAR
  5
145
102
{ACAD_REACTORS
330
5E
102
}
330
5E
100
DictionaryVariables
280
     0
  1
STANDARD
  0
DICTIONARYVAR
  5
84
102
{ACAD_REACTORS
330
5E
102
}
330
5E
100
DictionaryVariables
280
     0
  1
STANDARD
  0
DICTIONARYVAR
  5
5F
102
{ACAD_REACTORS
330
5E
102
}
330
5E
100
DictionaryVariables
280
     0
  1
2
  0
DICTIONARYVAR
  5
63
102
{ACAD_REACTORS
330
5E
102
}
330
5E
100
DictionaryVariables
280
     0
  1
1
  0
DICTIONARYVAR
  5
15A2
102
{ACAD_REACTORS
330
5E
102
}
330
5E
100
DictionaryVariables
280
     0
  1
0
  0
DICTIONARYVAR
  5
15A0
102
{ACAD_REACTORS
330
5E
102
}
330
5E
100
DictionaryVariables
280
     0
  1
2
  0
DICTIONARYVAR
  5
159F
102
{ACAD_REACTORS
330
5E
102
}
330
5E
100
DictionaryVariables
280
     0
  1
1
  0
DICTIONARYVAR
  5
2578
102
{ACAD_REACTORS
330
5E
102
}
330
5E
100
DictionaryVariables
280
     0
  1
80.000000
  0
DICTIONARYVAR
  5
2577
102
{ACAD_REACTORS
330
5E
102
}
330
5E
100
DictionaryVariables
280
     0
  1
5.000000
  0
DICTIONARYVAR
  5
15A1
102
{ACAD_REACTORS
330
5E
102
}
330
5E
100
DictionaryVariables
280
     0
  1
127
  0
DICTIONARY
  5
257B
330
22
100
AcDbDictionary
280
     1
281
     1
  3
ACAD_XREC_ROUNDTRIP
360
257C
  0
DICTIONARY
  5
257E
330
D3
100
AcDbDictionary
280
     1
281
     1
  3
ACAD_XREC_ROUNDTRIP
360
257F
  0
DICTIONARY
  5
2580
330
D7
100
AcDbDictionary
280
     1
281
     1
  3
ACAD_XREC_ROUNDTRIP
360
2581
  0
DICTIONARY
  5
2584
330
ED
100
AcDbDictionary
280
     1
281
     1
  3
ACAD_XREC_ROUNDTRIP
360
2585
  0
DICTIONARY
  5
2582
330
EC
100
AcDbDictionary
280
     1
281
     1
  3
ACAD_XREC_ROUNDTRIP
360
2583
  0
DICTIONARY
  5
173
330
EE
100
AcDbDictionary
280
     1
281
     1
  3
ACAD_XREC_ROUNDTRIP
360
2586
  3
BUMPTILE
360
175
  3
DIFFUSETILE
360
174
  3
OPACITYTILE
360
176
  3
REFLECTIONTILE
360
177
  0
DICTIONARY
  5
162
330
7F
100
AcDbDictionary
280
     1
281
     1
  3
ACAD_ROUNDTRIP_2008_TABLESTYLE_CELLSTYLEMAP
360
2579
  3
ACAD_XREC_ROUNDTRIP
360
257D
  0
XRECORD
  5
257C
102
{ACAD_REACTORS
330
257B
102
}
330
257B
100
AcDbXrecord
280
     1
102
SHADEPLOT
 70
     0
102
SHADEPLOTRESLEVEL
 70
     2
102
SHADEPLOTCUSTOMDPI
 70
   300
  0
XRECORD
  5
257F
102
{ACAD_REACTORS
330
257E
102
}
330
257E
100
AcDbXrecord
280
     1
102
SHADEPLOT
 70
     0
102
SHADEPLOTRESLEVEL
 70
     2
102
SHADEPLOTCUSTOMDPI
 70
   300
  0
XRECORD
  5
2581
102
{ACAD_REACTORS
330
2580
102
}
330
2580
100
AcDbXrecord
280
     1
102
SHADEPLOT
 70
     0
102
SHADEPLOTRESLEVEL
 70
     2
102
SHADEPLOTCUSTOMDPI
 70
   300
  0
XRECORD
  5
2585
102
{ACAD_REACTORS
330
2584
102
}
330
2584
100
AcDbXrecord
280
     1
102
MATERIAL
148
0.0
149
0.0
149
0.0
 93
        0
 94
      127
282
     0
 72
     1
 77
     1
171
     1
175
     1
179
     1
273
     0
  0
XRECORD
  5
2583
102
{ACAD_REACTORS
330
2582
102
}
330
2582
100
AcDbXrecord
280
     1
102
MATERIAL
148
0.0
149
0.0
149
0.0
 93
        0
 94
      127
282
     0
 72
     1
 77
     1
171
     1
175
     1
179
     1
273
     0
  0
XRECORD
  5
2586
102
{ACAD_REACTORS
330
173
102
}
330
173
100
AcDbXrecord
280
     1
102
MATERIAL
148
0.0
149
0.0
149
0.0
 93
        0
 94
      127
282
     0
 72
     1
 77
     1
171
     1
175
     1
179
     1
273
     0
  0
XRECORD
  5
175
102
{ACAD_REACTORS
330
173
102
}
330
173
100
AcDbXrecord
280
     1
270
     1
271
     1
  0
XRECORD
  5
174
102
{ACAD_REACTORS
330
173
102
}
330
173
100
AcDbXrecord
280
     1
270
     1
271
     1
  0
XRECORD
  5
176
102
{ACAD_REACTORS
330
173
102
}
330
173
100
AcDbXrecord
280
     1
270
     1
271
     1
  0
XRECORD
  5
177
102
{ACAD_REACTORS
330
173
102
}
330
173
100
AcDbXrecord
280
     1
270
     1
271
     1
  0
CELLSTYLEMAP
  5
2579
102
{ACAD_REACTORS
330
162
102
}
330
162
100
AcDbCellStyleMap
 90
        3
300
CELLSTYLE
  1
TABLEFORMAT_BEGIN
 90
        5
170
     1
 91
        0
 92
    32768
 62
   257
 93
        1
300
CONTENTFORMAT
  1
CONTENTFORMAT_BEGIN
 90
        0
 91
        0
 92
      512
 93
        0
300

 40
0.0
140
1.0
 94
        5
 62
     0
340
11
144
6.0
309
CONTENTFORMAT_END
171
     1
301
MARGIN
  1
CELLMARGIN_BEGIN
 40
1.5
 40
1.5
 40
1.5
 40
1.5
 40
0.18
 40
0.18
309
CELLMARGIN_END
 94
        6
 95
        1
302
GRIDFORMAT
  1
GRIDFORMAT_BEGIN
 90
        0
 91
        1
 62
     0
 92
       -2
340
14
 93
        0
 40
1.125
309
GRIDFORMAT_END
 95
        2
302
GRIDFORMAT
  1
GRIDFORMAT_BEGIN
 90
        0
 91
        1
 62
     0
 92
       -2
340
14
 93
        0
 40
1.125
309
GRIDFORMAT_END
 95
        4
302
GRIDFORMAT
  1
GRIDFORMAT_BEGIN
 90
        0
 91
        1
 62
     0
 92
       -2
340
14
 93
        0
 40
1.125
309
GRIDFORMAT_END
 95
        8
302
GRIDFORMAT
  1
GRIDFORMAT_BEGIN
 90
        0
 91
        1
 62
     0
 92
       -2
340
14
 93
        0
 40
1.125
309
GRIDFORMAT_END
 95
       16
302
GRIDFORMAT
  1
GRIDFORMAT_BEGIN
 90
        0
 91
        1
 62
     0
 92
       -2
340
14
 93
        0
 40
1.125
309
GRIDFORMAT_END
 95
       32
302
GRIDFORMAT
  1
GRIDFORMAT_BEGIN
 90
        0
 91
        1
 62
     0
 92
       -2
340
14
 93
        0
 40
1.125
309
GRIDFORMAT_END
309
TABLEFORMAT_END
  1
CELLSTYLE_BEGIN
 90
        1
 91
        1
300
_TITLE
309
CELLSTYLE_END
300
CELLSTYLE
  1
TABLEFORMAT_BEGIN
 90
        5
170
     1
 91
        0
 92
        0
 62
   257
 93
        1
300
CONTENTFORMAT
  1
CONTENTFORMAT_BEGIN
 90
        0
 91
        0
 92
      512
 93
        0
300

 40
0.0
140
1.0
 94
        5
 62
     0
340
11
144
4.5
309
CONTENTFORMAT_END
171
     1
301
MARGIN
  1
CELLMARGIN_BEGIN
 40
1.5
 40
1.5
 40
1.5
 40
1.5
 40
0.18
 40
0.18
309
CELLMARGIN_END
 94
        6
 95
        1
302
GRIDFORMAT
  1
GRIDFORMAT_BEGIN
 90
        0
 91
        1
 62
     0
 92
       -2
340
14
 93
        0
 40
1.125
309
GRIDFORMAT_END
 95
        2
302
GRIDFORMAT
  1
GRIDFORMAT_BEGIN
 90
        0
 91
        1
 62
     0
 92
       -2
340
14
 93
        0
 40
1.125
309
GRIDFORMAT_END
 95
        4
302
GRIDFORMAT
  1
GRIDFORMAT_BEGIN
 90
        0
 91
        1
 62
     0
 92
       -2
340
14
 93
        0
 40
1.125
309
GRIDFORMAT_END
 95
        8
302
GRIDFORMAT
  1
GRIDFORMAT_BEGIN
 90
        0
 91
        1
 62
     0
 92
       -2
340
14
 93
        0
 40
1.125
309
GRIDFORMAT_END
 95
       16
302
GRIDFORMAT
  1
GRIDFORMAT_BEGIN
 90
        0
 91
        1
 62
     0
 92
       -2
340
14
 93
        0
 40
1.125
309
GRIDFORMAT_END
 95
       32
302
GRIDFORMAT
  1
GRIDFORMAT_BEGIN
 90
        0
 91
        1
 62
     0
 92
       -2
340
14
 93
        0
 40
1.125
309
GRIDFORMAT_END
309
TABLEFORMAT_END
  1
CELLSTYLE_BEGIN
 90
        2
 91
        1
300
_HEADER
309
CELLSTYLE_END
300
CELLSTYLE
  1
TABLEFORMAT_BEGIN
 90
        5
170
     1
 91
        0
 92
        0
 62
   257
 93
        1
300
CONTENTFORMAT
  1
CONTENTFORMAT_BEGIN
 90
        0
 91
        0
 92
      512
 93
        0
300

 40
0.0
140
1.0
 94
        2
 62
     0
340
11
144
4.5
309
CONTENTFORMAT_END
171
     1
301
MARGIN
  1
CELLMARGIN_BEGIN
 40
1.5
 40
1.5
 40
1.5
 40
1.5
 40
0.18
 40
0.18
309
CELLMARGIN_END
 94
        6
 95
        1
302
GRIDFORMAT
  1
GRIDFORMAT_BEGIN
 90
        0
 91
        1
 62
     0
 92
       -2
340
14
 93
        0
 40
1.125
309
GRIDFORMAT_END
 95
        2
302
GRIDFORMAT
  1
GRIDFORMAT_BEGIN
 90
        0
 91
        1
 62
     0
 92
       -2
340
14
 93
        0
 40
1.125
309
GRIDFORMAT_END
 95
        4
302
GRIDFORMAT
  1
GRIDFORMAT_BEGIN
 90
        0
 91
        1
 62
     0
 92
       -2
340
14
 93
        0
 40
1.125
309
GRIDFORMAT_END
 95
        8
302
GRIDFORMAT
  1
GRIDFORMAT_BEGIN
 90
        0
 91
        1
 62
     0
 92
       -2
340
14
 93
        0
 40
1.125
309
GRIDFORMAT_END
 95
       16
302
GRIDFORMAT
  1
GRIDFORMAT_BEGIN
 90
        0
 91
        1
 62
     0
 92
       -2
340
14
 93
        0
 40
1.125
309
GRIDFORMAT_END
 95
       32
302
GRIDFORMAT
  1
GRIDFORMAT_BEGIN
 90
        0
 91
        1
 62
     0
 92
       -2
340
14
 93
        0
 40
1.125
309
GRIDFORMAT_END
309
TABLEFORMAT_END
  1
CELLSTYLE_BEGIN
 90
        3
 91
        2
300
_DATA
309
CELLSTYLE_END
  0
XRECORD
  5
257D
102
{ACAD_REACTORS
330
162
102
}
330
162
100
AcDbXrecord
280
     1
102
ACAD_ROUNDTRIP_PRE2007_TABLESTYLE
 90
      512
 91
        0
  1

 92
      512
 93
        0
  2

 94
      512
 95
        0
  3

  0
ENDSEC
  0
EOF
