  0
SECTION
  2
HEADER
  9
$ACADVER
  1
AC1015
  9
$ACADMAINTVER
 70
    20
  9
$DWGCODEPAGE
  3
ANSI_932
  9
$INSBASE
 10
0.0
 20
0.0
 30
0.0
  9
$EXTMIN
 10
4.199999999999954
 20
8.274999999999977
 30
0.0
  9
$EXTMAX
 10
189.4249999999999
 20
280.0749999999998
 30
0.0
  9
$LIMMIN
 10
0.0
 20
0.0
  9
$LIMMAX
 10
194.0
 20
282.0
  9
$ORTHOMODE
 70
     0
  9
$REGENMODE
 70
     1
  9
$FILLMODE
 70
     1
  9
$QTEXTMODE
 70
     0
  9
$MIRRTEXT
 70
     0
  9
$LTSCALE
 40
1.0
  9
$ATTMODE
 70
     1
  9
$TEXTSIZE
 40
0.2
  9
$TRACEWID
 40
0.05
  9
$TEXTSTYLE
  7
BIGFONT
  9
$CLAYER
  8
0
  9
$CELTYPE
  6
CONTINUOUS
  9
$CECOLOR
 62
   256
  9
$CELTSCALE
 40
1.0
  9
$DISPSILH
 70
     0
  9
$DIMSCALE
 40
1.0
  9
$DIMASZ
 40
3.0
  9
$DIMEXO
 40
0.0625
  9
$DIMDLI
 40
0.38
  9
$DIMRND
 40
0.0
  9
$DIMDLE
 40
0.0
  9
$DIMEXE
 40
1.0
  9
$DIMTP
 40
0.0
  9
$DIMTM
 40
0.0
  9
$DIMTXT
 40
3.5
  9
$DIMCEN
 40
0.09
  9
$DIMTSZ
 40
0.0
  9
$DIMTOL
 70
     0
  9
$DIMLIM
 70
     0
  9
$DIMTIH
 70
     0
  9
$DIMTOH
 70
     0
  9
$DIMSE1
 70
     0
  9
$DIMSE2
 70
     0
  9
$DIMTAD
 70
     1
  9
$DIMZIN
 70
     0
  9
$DIMBLK
  1

  9
$DIMASO
 70
     1
  9
$DIMSHO
 70
     1
  9
$DIMPOST
  1

  9
$DIMAPOST
  1

  9
$DIMALT
 70
     0
  9
$DIMALTD
 70
     2
  9
$DIMALTF
 40
25.4
  9
$DIMLFAC
 40
1.0
  9
$DIMTOFL
 70
     1
  9
$DIMTVP
 40
0.0
  9
$DIMTIX
 70
     0
  9
$DIMSOXD
 70
     0
  9
$DIMSAH
 70
     0
  9
$DIMBLK1
  1

  9
$DIMBLK2
  1

  9
$DIMSTYLE
  2
STANDARD
  9
$DIMCLRD
 70
     0
  9
$DIMCLRE
 70
     0
  9
$DIMCLRT
 70
     0
  9
$DIMTFAC
 40
1.0
  9
$DIMGAP
 40
1.0
  9
$DIMJUST
 70
     0
  9
$DIMSD1
 70
     0
  9
$DIMSD2
 70
     0
  9
$DIMTOLJ
 70
     1
  9
$DIMTZIN
 70
     0
  9
$DIMALTZ
 70
     0
  9
$DIMALTTZ
 70
     0
  9
$DIMUPT
 70
     0
  9
$DIMDEC
 70
     4
  9
$DIMTDEC
 70
     4
  9
$DIMALTU
 70
     2
  9
$DIMALTTD
 70
     2
  9
$DIMTXSTY
  7
STANDARD
  9
$DIMAUNIT
 70
     0
  9
$DIMADEC
 70
     0
  9
$DIMALTRND
 40
0.0
  9
$DIMAZIN
 70
     0
  9
$DIMDSEP
 70
    46
  9
$DIMATFIT
 70
     3
  9
$DIMFRAC
 70
     0
  9
$DIMLDRBLK
  1

  9
$DIMLUNIT
 70
     2
  9
$DIMLWD
 70
    -2
  9
$DIMLWE
 70
    -2
  9
$DIMTMOVE
 70
     0
  9
$LUNITS
 70
     2
  9
$LUPREC
 70
     4
  9
$SKETCHINC
 40
0.1
  9
$FILLETRAD
 40
1.0
  9
$AUNITS
 70
     0
  9
$AUPREC
 70
     0
  9
$MENU
  1
.
  9
$ELEVATION
 40
0.0
  9
$PELEVATION
 40
0.0
  9
$THICKNESS
 40
0.0
  9
$LIMCHECK
 70
     0
  9
$CHAMFERA
 40
0.0
  9
$CHAMFERB
 40
0.0
  9
$CHAMFERC
 40
0.0
  9
$CHAMFERD
 40
0.0
  9
$SKPOLY
 70
     0
  9
$TDCREATE
 40
2453573.411721273
  9
$TDUCREATE
 40
2453573.036721274
  9
$TDUPDATE
 40
2456553.557999248
  9
$TDUUPDATE
 40
2456553.182999248
  9
$TDINDWG
 40
0.6943299421
  9
$TDUSRTIMER
 40
0.6943285301
  9
$USRTIMER
 70
     1
  9
$ANGBASE
 50
0.0
  9
$ANGDIR
 70
     0
  9
$PDMODE
 70
     0
  9
$PDSIZE
 40
0.0
  9
$PLINEWID
 40
0.0
  9
$SPLFRAME
 70
     0
  9
$SPLINETYPE
 70
     6
  9
$SPLINESEGS
 70
     8
  9
$HANDSEED
  5
24DB
  9
$SURFTAB1
 70
     6
  9
$SURFTAB2
 70
     6
  9
$SURFTYPE
 70
     6
  9
$SURFU
 70
     6
  9
$SURFV
 70
     6
  9
$UCSBASE
  2

  9
$UCSNAME
  2

  9
$UCSORG
 10
0.0
 20
0.0
 30
0.0
  9
$UCSXDIR
 10
1.0
 20
0.0
 30
0.0
  9
$UCSYDIR
 10
0.0
 20
1.0
 30
0.0
  9
$UCSORTHOREF
  2

  9
$UCSORTHOVIEW
 70
     0
  9
$UCSORGTOP
 10
0.0
 20
0.0
 30
0.0
  9
$UCSORGBOTTOM
 10
0.0
 20
0.0
 30
0.0
  9
$UCSORGLEFT
 10
0.0
 20
0.0
 30
0.0
  9
$UCSORGRIGHT
 10
0.0
 20
0.0
 30
0.0
  9
$UCSORGFRONT
 10
0.0
 20
0.0
 30
0.0
  9
$UCSORGBACK
 10
0.0
 20
0.0
 30
0.0
  9
$PUCSBASE
  2

  9
$PUCSNAME
  2

  9
$PUCSORG
 10
0.0
 20
0.0
 30
0.0
  9
$PUCSXDIR
 10
1.0
 20
0.0
 30
0.0
  9
$PUCSYDIR
 10
0.0
 20
1.0
 30
0.0
  9
$PUCSORTHOREF
  2

  9
$PUCSORTHOVIEW
 70
     0
  9
$PUCSORGTOP
 10
0.0
 20
0.0
 30
0.0
  9
$PUCSORGBOTTOM
 10
0.0
 20
0.0
 30
0.0
  9
$PUCSORGLEFT
 10
0.0
 20
0.0
 30
0.0
  9
$PUCSORGRIGHT
 10
0.0
 20
0.0
 30
0.0
  9
$PUCSORGFRONT
 10
0.0
 20
0.0
 30
0.0
  9
$PUCSORGBACK
 10
0.0
 20
0.0
 30
0.0
  9
$USERI1
 70
     0
  9
$USERI2
 70
     0
  9
$USERI3
 70
     0
  9
$USERI4
 70
     0
  9
$USERI5
 70
     0
  9
$USERR1
 40
0.0
  9
$USERR2
 40
0.0
  9
$USERR3
 40
0.0
  9
$USERR4
 40
0.0
  9
$USERR5
 40
0.0
  9
$WORLDVIEW
 70
     1
  9
$SHADEDGE
 70
     3
  9
$SHADEDIF
 70
    70
  9
$TILEMODE
 70
     1
  9
$MAXACTVP
 70
    64
  9
$PINSBASE
 10
0.0
 20
0.0
 30
0.0
  9
$PLIMCHECK
 70
     0
  9
$PEXTMIN
 10
1.000000000000000E+20
 20
1.000000000000000E+20
 30
1.000000000000000E+20
  9
$PEXTMAX
 10
-1.000000000000000E+20
 20
-1.000000000000000E+20
 30
-1.000000000000000E+20
  9
$PLIMMIN
 10
0.0
 20
0.0
  9
$PLIMMAX
 10
12.0
 20
9.0
  9
$UNITMODE
 70
     0
  9
$VISRETAIN
 70
     1
  9
$PLINEGEN
 70
     0
  9
$PSLTSCALE
 70
     1
  9
$TREEDEPTH
 70
  3020
  9
$CMLSTYLE
  2
Standard
  9
$CMLJUST
 70
     0
  9
$CMLSCALE
 40
1.0
  9
$PROXYGRAPHICS
 70
     1
  9
$MEASUREMENT
 70
     0
  9
$CELWEIGHT
370
    -1
  9
$ENDCAPS
280
     0
  9
$JOINSTYLE
280
     0
  9
$LWDISPLAY
290
     0
  9
$INSUNITS
 70
     0
  9
$HYPERLINKBASE
  1

  9
$STYLESHEET
  1

  9
$XEDIT
290
     1
  9
$CEPSNTYPE
380
     0
  9
$PSTYLEMODE
290
     1
  9
$FINGERPRINTGUID
  2
{CBB31A18-FE82-42AB-AD72-06F9024F81BC}
  9
$VERSIONGUID
  2
{030AD74E-986E-4E8F-BED5-87F372B8F786}
  9
$EXTNAMES
290
     1
  9
$PSVPSCALE
 40
0.0
  9
$OLESTARTUP
290
     0
  0
ENDSEC
  0
SECTION
  2
CLASSES
  0
CLASS
  1
ACDBDICTIONARYWDFLT
  2
AcDbDictionaryWithDefault
  3
ObjectDBX Classes
 90
        0
280
     0
281
     0
  0
CLASS
  1
TABLESTYLE
  2
AcDbTableStyle
  3
ObjectDBX Classes
 90
     4095
280
     0
281
     0
  0
CLASS
  1
SORTENTSTABLE
  2
AcDbSortentsTable
  3
ObjectDBX Classes
 90
    32768
280
     0
281
     0
  0
CLASS
  1
DICTIONARYVAR
  2
AcDbDictionaryVar
  3
ObjectDBX Classes
 90
        0
280
     0
281
     0
  0
CLASS
  1
ACDBPLACEHOLDER
  2
AcDbPlaceHolder
  3
ObjectDBX Classes
 90
        0
280
     0
281
     0
  0
CLASS
  1
LAYOUT
  2
AcDbLayout
  3
ObjectDBX Classes
 90
        0
280
     0
281
     0
  0
CLASS
  1
MATERIAL
  2
AcDbMaterial
  3
ObjectDBX Classes
 90
     1153
280
     0
281
     0
  0
CLASS
  1
VISUALSTYLE
  2
AcDbVisualStyle
  3
ObjectDBX Classes
 90
     4095
280
     0
281
     0
  0
CLASS
  1
SCALE
  2
AcDbScale
  3
ObjectDBX Classes
 90
     1153
280
     0
281
     0
  0
CLASS
  1
MLEADERSTYLE
  2
AcDbMLeaderStyle
  3
ACDB_MLEADERSTYLE_CLASS
 90
     4095
280
     0
281
     0
  0
CLASS
  1
CELLSTYLEMAP
  2
AcDbCellStyleMap
  3
ObjectDBX Classes
 90
     1152
280
     0
281
     0
  0
ENDSEC
  0
SECTION
  2
TABLES
  0
TABLE
  2
VPORT
  5
1CC5
102
{ACAD_XDICTIONARY
360
1F65
102
}
330
0
100
AcDbSymbolTable
 70
     1
  0
VPORT
  5
24BB
330
1CC5
100
AcDbSymbolTableRecord
100
AcDbViewportTableRecord
  2
*Active
 70
     0
 10
0.0
 20
0.0
 11
1.0
 21
1.0
 12
235.0761550082691
 22
144.1842047618518
 13
0.0
 23
0.0
 14
0.5
 24
0.5
 15
0.0
 25
0.0
 16
0.0
 26
0.0
 36
1.0
 17
0.0
 27
0.0
 37
0.0
 40
273.9380036344416
 41
1.779141104294478
 42
50.0
 43
0.0
 44
0.0
 50
0.0
 51
0.0
 71
     0
 72
   100
 73
     1
 74
     1
 75
     0
 76
     0
 77
     0
 78
     0
281
     0
 65
     1
110
0.0
120
0.0
130
0.0
111
1.0
121
0.0
131
0.0
112
0.0
122
1.0
132
0.0
 79
     0
146
0.0
  0
ENDTAB
  0
TABLE
  2
LTYPE
  5
1CC2
330
0
100
AcDbSymbolTable
 70
    10
  0
LTYPE
  5
1CD0
330
1CC2
100
AcDbSymbolTableRecord
100
AcDbLinetypeTableRecord
  2
ByBlock
 70
     0
  3

 72
    65
 73
     0
 40
0.0
  0
LTYPE
  5
1CD1
330
1CC2
100
AcDbSymbolTableRecord
100
AcDbLinetypeTableRecord
  2
ByLayer
 70
     0
  3

 72
    65
 73
     0
 40
0.0
  0
LTYPE
  5
1CD2
330
1CC2
100
AcDbSymbolTableRecord
100
AcDbLinetypeTableRecord
  2
CONTINUOUS
 70
     0
  3
実線
 72
    65
 73
     0
 40
0.0
  0
LTYPE
  5
1CE5
330
1CC2
100
AcDbSymbolTableRecord
100
AcDbLinetypeTableRecord
  2
DASHED
 70
     0
  3
__ __ __ __ __ __ __ __ __ __ __ __ __ __ __
 72
    65
 73
     2
 40
0.75
 49
0.5
 74
     0
 49
-0.25
 74
     0
  0
LTYPE
  5
1CE6
330
1CC2
100
AcDbSymbolTableRecord
100
AcDbLinetypeTableRecord
  2
HIDDEN
 70
     0
  3
_ _ _ _ _ _ _ _ _ _ _ _ _ _ _ _ _ _ _ _ _ _ _
 72
    65
 73
     2
 40
0.375
 49
0.25
 74
     0
 49
-0.125
 74
     0
  0
LTYPE
  5
1CE7
330
1CC2
100
AcDbSymbolTableRecord
100
AcDbLinetypeTableRecord
  2
CENTER
 70
     0
  3
____ _ ____ _ ____ _ ____ _ ____ _ ____ _ ____
 72
    65
 73
     4
 40
2.0
 49
1.25
 74
     0
 49
-0.25
 74
     0
 49
0.25
 74
     0
 49
-0.25
 74
     0
  0
LTYPE
  5
1CE8
330
1CC2
100
AcDbSymbolTableRecord
100
AcDbLinetypeTableRecord
  2
PHANTOM
 70
     0
  3
_____ _ _ _____ _ _ _____ _ _ _____ _ _ ____
 72
    65
 73
     6
 40
2.5
 49
1.25
 74
     0
 49
-0.25
 74
     0
 49
0.25
 74
     0
 49
-0.25
 74
     0
 49
0.25
 74
     0
 49
-0.25
 74
     0
  0
LTYPE
  5
1CE9
330
1CC2
100
AcDbSymbolTableRecord
100
AcDbLinetypeTableRecord
  2
DOT
 70
     0
  3
...............................................
 72
    65
 73
     2
 40
0.25
 49
0.0
 74
     0
 49
-0.25
 74
     0
  0
LTYPE
  5
1CEA
330
1CC2
100
AcDbSymbolTableRecord
100
AcDbLinetypeTableRecord
  2
DASHDOT
 70
     0
  3
__ . __ . __ . __ . __ . __ . __ . __ . __ . __
 72
    65
 73
     4
 40
1.0
 49
0.5
 74
     0
 49
-0.25
 74
     0
 49
0.0
 74
     0
 49
-0.25
 74
     0
  0
LTYPE
  5
1CEB
330
1CC2
100
AcDbSymbolTableRecord
100
AcDbLinetypeTableRecord
  2
BORDER
 70
     0
  3
__ __ . __ __ . __ __ . __ __ . __ __ . __ __
 72
    65
 73
     6
 40
1.75
 49
0.5
 74
     0
 49
-0.25
 74
     0
 49
0.5
 74
     0
 49
-0.25
 74
     0
 49
0.0
 74
     0
 49
-0.25
 74
     0
  0
LTYPE
  5
1CEC
330
1CC2
100
AcDbSymbolTableRecord
100
AcDbLinetypeTableRecord
  2
DIVIDE
 70
     0
  3
__ . . __ . . __ . . __ . . __ . . __ . . __
 72
    65
 73
     6
 40
1.25
 49
0.5
 74
     0
 49
-0.25
 74
     0
 49
0.0
 74
     0
 49
-0.25
 74
     0
 49
0.0
 74
     0
 49
-0.25
 74
     0
  0
LTYPE
  5
1CED
330
1CC2
100
AcDbSymbolTableRecord
100
AcDbLinetypeTableRecord
  2
DASHEDX2
 70
     0
  3
Dashed (2x) ____  ____  ____  ____  ____  ___
 72
    65
 73
     2
 40
1.5
 49
1.0
 74
     0
 49
-0.5
 74
     0
  0
ENDTAB
  0
TABLE
  2
LAYER
  5
1CBF
102
{ACAD_XDICTIONARY
360
1E26
102
}
330
0
100
AcDbSymbolTable
 70
     6
  0
LAYER
  5
1CCD
102
{ACAD_XDICTIONARY
360
1F57
102
}
330
1CBF
100
AcDbSymbolTableRecord
100
AcDbLayerTableRecord
  2
0
 70
     0
 62
     7
  6
CONTINUOUS
370
    -3
390
1CCC
  0
LAYER
  5
1CEE
330
1CBF
100
AcDbSymbolTableRecord
100
AcDbLayerTableRecord
  2
DEFPOINTS
 70
     0
 62
     7
  6
CONTINUOUS
290
     0
370
    -3
390
1CCC
  0
LAYER
  5
1CEF
102
{ACAD_XDICTIONARY
360
1F59
102
}
330
1CBF
100
AcDbSymbolTableRecord
100
AcDbLayerTableRecord
  2
ED
 70
     0
 62
     7
  6
CONTINUOUS
370
    -3
390
1CCC
  0
LAYER
  5
1CF0
102
{ACAD_XDICTIONARY
360
1F5B
102
}
330
1CBF
100
AcDbSymbolTableRecord
100
AcDbLayerTableRecord
  2
MO
 70
     0
 62
     7
  6
CONTINUOUS
370
    -3
390
1CCC
  0
LAYER
  5
1CF1
102
{ACAD_XDICTIONARY
360
1F5D
102
}
330
1CBF
100
AcDbSymbolTableRecord
100
AcDbLayerTableRecord
  2
1
 70
     0
 62
     7
  6
CONTINUOUS
370
    -3
390
1CCC
  0
LAYER
  5
1CF2
102
{ACAD_XDICTIONARY
360
1F5F
102
}
330
1CBF
100
AcDbSymbolTableRecord
100
AcDbLayerTableRecord
  2
SUNPO
 70
     0
 62
     7
  6
CONTINUOUS
370
    -3
390
1CCC
  0
ENDTAB
  0
TABLE
  2
STYLE
  5
1CC0
330
0
100
AcDbSymbolTable
 70
     3
  0
STYLE
  5
1CCE
330
1CC0
100
AcDbSymbolTableRecord
100
AcDbTextStyleTableRecord
  2
STANDARD
 70
     0
 40
0.0
 41
0.5
 50
0.0
 71
     0
 42
0.3
  3
txt.shx
  4
bigfont.shx
  0
STYLE
  5
1CE3
330
1CC0
100
AcDbSymbolTableRecord
100
AcDbTextStyleTableRecord
  2
BIGFONT
 70
     0
 40
0.0
 41
1.0
 50
0.0
 71
     0
 42
0.2
  3
MS PMincho.ttf
  4

1001
ACAD
1000
MS PMincho
1071
    32786
  0
STYLE
  5
1CF3
330
1CC0
100
AcDbSymbolTableRecord
100
AcDbTextStyleTableRecord
  2

 70
     1
 40
0.0
 41
1.0
 50
0.0
 71
     0
 42
0.2
  3
ltypeshp.shx
  4

  0
ENDTAB
  0
TABLE
  2
VIEW
  5
1CC3
330
0
100
AcDbSymbolTable
 70
     0
  0
ENDTAB
  0
TABLE
  2
UCS
  5
1CC4
330
0
100
AcDbSymbolTable
 70
     0
  0
ENDTAB
  0
TABLE
  2
APPID
  5
1CC6
330
0
100
AcDbSymbolTable
 70
     4
  0
APPID
  5
1CCF
330
1CC6
100
AcDbSymbolTableRecord
100
AcDbRegAppTableRecord
  2
ACAD
 70
     0
  0
APPID
  5
1CF4
330
1CC6
100
AcDbSymbolTableRecord
100
AcDbRegAppTableRecord
  2
ACAD_DSTYLE_DIMTEXT_FILL
 70
     0
  0
APPID
  5
1CF5
330
1CC6
100
AcDbSymbolTableRecord
100
AcDbRegAppTableRecord
  2
ACAD_PSEXT
 70
     0
  0
APPID
  5
1F50
330
1CC6
100
AcDbSymbolTableRecord
100
AcDbRegAppTableRecord
  2
ACAD_MLEADERVER
 70
     0
  0
ENDTAB
  0
TABLE
  2
DIMSTYLE
  5
1CC7
330
0
100
AcDbSymbolTable
 70
     2
100
AcDbDimStyleTable
 71
     1
340
1CF6
  0
DIMSTYLE
105
1CF6
102
{ACAD_REACTORS
330
1D97
330
20AA
330
20AB
330
20AC
102
}
330
1CC7
100
AcDbSymbolTableRecord
100
AcDbDimStyleTableRecord
  2
STANDARD
 70
     0
 41
3.0
 44
1.0
 73
     0
 74
     0
 77
     1
140
3.5
147
1.0
172
     1
279
     2
340
1CE3
  0
DIMSTYLE
105
1CF7
102
{ACAD_REACTORS
330
2068
330
2057
102
}
330
1CC7
100
AcDbSymbolTableRecord
100
AcDbDimStyleTableRecord
  2
ISO-25
 70
     0
 41
1.5
 42
0.625
 43
3.75
 44
0.0
 73
     0
 74
     0
 77
     1
 78
     8
140
1.5
141
1.5
143
0.03937007874016
147
0.625
171
     3
172
     1
174
     1
279
     2
340
1CE3
  0
ENDTAB
  0
TABLE
  2
BLOCK_RECORD
  5
1CBE
330
0
100
AcDbSymbolTable
 70
    13
  0
BLOCK_RECORD
  5
1CDF
330
1CBE
100
AcDbSymbolTableRecord
100
AcDbBlockTableRecord
  2
*Model_Space
340
1CE2
  0
BLOCK_RECORD
  5
1CDB
330
1CBE
100
AcDbSymbolTableRecord
100
AcDbBlockTableRecord
  2
*Paper_Space
340
1CDE
  0
BLOCK_RECORD
  5
1CFB
330
1CBE
100
AcDbSymbolTableRecord
100
AcDbBlockTableRecord
  2
$MODEL_SPACE
340
0
  0
BLOCK_RECORD
  5
1CFD
330
1CBE
100
AcDbSymbolTableRecord
100
AcDbBlockTableRecord
  2
$PAPER_SPACE
340
0
  0
BLOCK_RECORD
  5
1CFF
330
1CBE
100
AcDbSymbolTableRecord
100
AcDbBlockTableRecord
  2
_OPEN30
340
0
  0
BLOCK_RECORD
  5
1D01
330
1CBE
100
AcDbSymbolTableRecord
100
AcDbBlockTableRecord
  2
_NONE
340
0
  0
BLOCK_RECORD
  5
1D0B
330
1CBE
100
AcDbSymbolTableRecord
100
AcDbBlockTableRecord
  2
A$C52D45C41
340
0
  0
BLOCK_RECORD
  5
1D40
330
1CBE
100
AcDbSymbolTableRecord
100
AcDbBlockTableRecord
  2
waku
340
0
310
2800000020000000200000000100080000000000000400000000000000000000000000000000000000000000000080000080000000808000800000008000800080800000C0C0C000C0DCC000F0CAA6000020400000206000002080000020A0000020C0000020E00000400000004020000040400000406000004080000040A0
310
000040C0000040E00000600000006020000060400000606000006080000060A0000060C0000060E00000800000008020000080400000806000008080000080A0000080C0000080E00000A0000000A0200000A0400000A0600000A0800000A0A00000A0C00000A0E00000C0000000C0200000C0400000C0600000C0800000C0
310
A00000C0C00000C0E00000E0000000E0200000E0400000E0600000E0800000E0A00000E0C00000E0E00040000000400020004000400040006000400080004000A0004000C0004000E00040200000402020004020400040206000402080004020A0004020C0004020E000404000004040200040404000404060004040800040
310
40A0004040C0004040E00040600000406020004060400040606000406080004060A0004060C0004060E00040800000408020004080400040806000408080004080A0004080C0004080E00040A0000040A0200040A0400040A0600040A0800040A0A00040A0C00040A0E00040C0000040C0200040C0400040C0600040C08000
310
40C0A00040C0C00040C0E00040E0000040E0200040E0400040E0600040E0800040E0A00040E0C00040E0E00080000000800020008000400080006000800080008000A0008000C0008000E00080200000802020008020400080206000802080008020A0008020C0008020E00080400000804020008040400080406000804080
310
008040A0008040C0008040E00080600000806020008060400080606000806080008060A0008060C0008060E00080800000808020008080400080806000808080008080A0008080C0008080E00080A0000080A0200080A0400080A0600080A0800080A0A00080A0C00080A0E00080C0000080C0200080C0400080C0600080C0
310
800080C0A00080C0C00080C0E00080E0000080E0200080E0400080E0600080E0800080E0A00080E0C00080E0E000C0000000C0002000C0004000C0006000C0008000C000A000C000C000C000E000C0200000C0202000C0204000C0206000C0208000C020A000C020C000C020E000C0400000C0402000C0404000C0406000C0
310
408000C040A000C040C000C040E000C0600000C0602000C0604000C0606000C0608000C060A000C060C000C060E000C0800000C0802000C0804000C0806000C0808000C080A000C080C000C080E000C0A00000C0A02000C0A04000C0A06000C0A08000C0A0A000C0A0C000C0A0E000C0C00000C0C02000C0C04000C0C06000
310
C0C08000C0C0A000F0FBFF00A4A0A000808080000000FF0000FF000000FFFF00FF000000FF00FF00FFFF0000FFFFFF00FFFFFFFFFFFFFFFFFFFFFFFFFFFFFFFFFFFFFFFFFFFFFFFFFFFFFFFFFFFFFFFFFFFFFFFFFFFF0000000000000000000000000000000000000000FFFFFFFFFFFFFFFFFFFFFFFF00FFFFFFFFFFFFFFFF
310
FFFFFFFFFFFFFFFFFFFF00FFFFFFFFFFFFFFFFFFFFFFFF00FFFFFFFFFFFFFFFFFFFFFFFFFFFFFFFFFFFF00FFFFFFFFFFFFFFFFFFFFFFFF00FFFFFFFFFFFFFFFFFFFFFFFFFFFFFFFFFFFF00FFFFFFFFFFFFFFFFFFFFFFFF00FFFFFFFFFFFFFFFFFFFFFFFFFFFFFFFFFFFF00FFFFFFFFFFFFFFFFFFFFFFFF00FFFFFFFFFFFFFF
310
FFFFFFFFFFFFFFFFFFFFFF00FFFFFFFFFFFFFFFFFFFFFFFF00FFFFFFFFFFFFFFFFFFFFFFFFFFFFFFFFFFFF00FFFFFFFFFFFFFFFFFFFFFFFF00FFFFFFFFFFFFFFFFFFFFFFFFFFFFFFFFFFFF00FFFFFFFFFFFFFFFFFFFFFFFF00FFFFFFFFFFFFFFFFFFFFFFFFFFFFFFFFFFFF00FFFFFFFFFFFFFFFFFFFFFFFF00FFFFFFFFFFFF
310
FFFFFFFFFFFFFFFFFFFFFFFF00FFFFFFFFFFFFFFFFFFFFFFFF00FFFFFFFFFFFFFFFFFFFFFFFFFFFFFFFFFFFF00FFFFFFFFFFFFFFFFFFFFFFFF00FFFFFFFFFFFFFFFFFFFFFFFFFFFFFFFFFFFF00FFFFFFFFFFFFFFFFFFFFFFFF00FFFFFFFFFFFFFFFFFFFFFFFFFFFFFFFFFFFF00FFFFFFFFFFFFFFFFFFFFFFFF00FFFFFFFFFF
310
FFFFFFFFFFFFFFFFFFFFFFFFFF00FFFFFFFFFFFFFFFFFFFFFFFF00FFFFFFFFFFFFFFFFFFFFFFFFFFFFFFFFFFFF00FFFFFFFFFFFFFFFFFFFFFFFF00FFFFFFFFFFFFFFFFFFFFFFFFFFFFFFFFFFFF00FFFFFFFFFFFFFFFFFFFFFFFF00FFFFFFFFFFFFFFFFFFFFFFFFFFFFFFFFFFFF00FFFFFFFFFFFFFFFFFFFFFFFF00FFFFFFFF
310
FFFFFFFFFFFFFFFFFFFFFFFFFFFF00FFFFFFFFFFFFFFFFFFFFFFFF00FFFFFFFFFFFFFFFFFFFFFFFFFFFFFFFFFFFF00FFFFFFFFFFFFFFFFFFFFFFFF00FFFFFFFFFFFFFFFFFFFFFFFFFFFFFFFFFFFF00FFFFFFFFFFFFFFFFFFFFFFFF00FFFFFFFFFFFFFFFFFFFFFFFFFFFFFFFFFFFF00FFFFFFFFFFFFFFFFFFFFFFFF00FFFFFF
310
FFFFFFFFFFFFFFFFFFFFFFFFFFFFFF00FFFFFFFFFFFFFFFFFFFFFFFF00FFFFFFFFFFFFFFFFFFFFFFFFFFFFFFFFFFFF00FFFFFFFFFFFFFFFFFFFFFFFF00FFFFFFFFFFFFFFFFFFFFFFFFFFFFFFFFFFFF00FFFFFFFFFFFFFFFFFFFFFFFF00FFFFFFFFFFFFFFFFFFFFFFFFFFFFFFFFFFFF00FFFFFFFFFFFFFFFFFFFFFFFF00FFFF
310
FFFFFFFFFFFFFFFFFFFFFFFFFFFFFFFF00FFFFFFFFFFFFFFFFFFFFFFFF00FFFFFFFFFFFFFFFFFFFFFFFFFFFFFFFFFFFF00FFFFFFFFFFFFFFFFFFFFFFFF00FFFFFFFFFFFFFFFFFFFFFFFFFFFFFFFFFFFF00FFFFFFFFFFFFFFFFFFFFFFFF00FFFFFFFFFFFFFFFFFFFFFFFFFFFFFFFFFFFF00FFFFFFFFFFFFFFFFFFFFFFFF0000
310
000000000000000000000000000000000000FFFFFFFFFFFFFFFFFFFFFFFFFFFFFFFFFFFFFFFFFFFFFFFFFFFFFFFFFFFFFFFFFFFFFFFFFFFF
102
{BLKREFS
331
1D63
102
}
  0
BLOCK_RECORD
  5
1D98
330
1CBE
100
AcDbSymbolTableRecord
100
AcDbBlockTableRecord
  2
*D6
340
0
  0
BLOCK_RECORD
  5
1EE0
330
1CBE
100
AcDbSymbolTableRecord
100
AcDbBlockTableRecord
  2
A$C4A4B34CD
340
0
  0
BLOCK_RECORD
  5
20C7
330
1CBE
100
AcDbSymbolTableRecord
100
AcDbBlockTableRecord
  2
*D8
340
0
  0
BLOCK_RECORD
  5
20D3
330
1CBE
100
AcDbSymbolTableRecord
100
AcDbBlockTableRecord
  2
*D9
340
0
  0
BLOCK_RECORD
  5
20DF
330
1CBE
100
AcDbSymbolTableRecord
100
AcDbBlockTableRecord
  2
*D10
340
0
  0
BLOCK_RECORD
  5
20EC
330
1CBE
100
AcDbSymbolTableRecord
100
AcDbBlockTableRecord
  2
*D11
340
0
  0
BLOCK_RECORD
  5
20FA
330
1CBE
100
AcDbSymbolTableRecord
100
AcDbBlockTableRecord
  2
*D12
340
0
  0
ENDTAB
  0
ENDSEC
  0
SECTION
  2
BLOCKS
  0
BLOCK
  5
1CE0
330
1CDF
100
AcDbEntity
  8
0
100
AcDbBlockBegin
  2
*Model_Space
 70
     0
 10
0.0
 20
0.0
 30
0.0
  3
*Model_Space
  1

  0
ENDBLK
  5
1CE1
330
1CDF
100
AcDbEntity
  8
0
100
AcDbBlockEnd
  0
BLOCK
  5
1CDC
330
1CDB
100
AcDbEntity
 67
     1
  8
0
100
AcDbBlockBegin
  2
*Paper_Space
 70
     0
 10
0.0
 20
0.0
 30
0.0
  3
*Paper_Space
  1

  0
ENDBLK
  5
1CDD
330
1CDB
100
AcDbEntity
 67
     1
  8
0
100
AcDbBlockEnd
  0
BLOCK
  5
1CFC
330
1CFB
100
AcDbEntity
  8
0
100
AcDbBlockBegin
  2
$MODEL_SPACE
 70
     0
 10
0.0
 20
0.0
 30
0.0
  3
$MODEL_SPACE
  1

  0
ENDBLK
  5
1C7C
330
1CFB
100
AcDbEntity
  8
0
100
AcDbBlockEnd
  0
BLOCK
  5
1CFE
330
1CFD
100
AcDbEntity
  8
0
100
AcDbBlockBegin
  2
$PAPER_SPACE
 70
     0
 10
0.0
 20
0.0
 30
0.0
  3
$PAPER_SPACE
  1

  0
ENDBLK
  5
1C78
330
1CFD
100
AcDbEntity
  8
0
100
AcDbBlockEnd
  0
BLOCK
  5
1D00
330
1CFF
100
AcDbEntity
  8
0
100
AcDbBlockBegin
  2
_OPEN30
 70
     0
 10
0.0
 20
0.0
 30
0.0
  3
_OPEN30
  1

  0
LINE
  5
9B7
330
1CFF
100
AcDbEntity
  8
0
 62
     0
100
AcDbLine
 10
-1.0
 20
0.26794919
 30
0.0
 11
0.0
 21
0.0
 31
0.0
  0
LINE
  5
9B8
330
1CFF
100
AcDbEntity
  8
0
 62
     0
100
AcDbLine
 10
0.0
 20
0.0
 30
0.0
 11
-1.0
 21
-0.26794919
 31
0.0
  0
LINE
  5
9B9
330
1CFF
100
AcDbEntity
  8
0
 62
     0
100
AcDbLine
 10
0.0
 20
0.0
 30
0.0
 11
-1.0
 21
0.0
 31
0.0
  0
ENDBLK
  5
9BA
330
1CFF
100
AcDbEntity
  8
0
100
AcDbBlockEnd
  0
BLOCK
  5
1D02
330
1D01
100
AcDbEntity
  8
0
100
AcDbBlockBegin
  2
_NONE
 70
     0
 10
0.0
 20
0.0
 30
0.0
  3
_NONE
  1

  0
ENDBLK
  5
9BD
330
1D01
100
AcDbEntity
  8
0
100
AcDbBlockEnd
  0
BLOCK
  5
1D0C
330
1D0B
100
AcDbEntity
  8
0
100
AcDbBlockBegin
  2
A$C52D45C41
 70
     0
 10
0.0
 20
0.0
 30
0.0
  3
A$C52D45C41
  1

  0
POLYLINE
  5
1C4A
330
1D0B
100
AcDbEntity
  8
0
100
AcDb3dPolyline
 66
     1
 10
0.0
 20
0.0
 30
0.0
 70
     8
  0
VERTEX
  5
1C4B
330
1C4A
100
AcDbEntity
  8
0
100
AcDbVertex
100
AcDb3dPolylineVertex
 10
0.0076359
 20
-0.0065206
 30
0.0
 70
    32
  0
VERTEX
  5
1C4C
330
1C4A
100
AcDbEntity
  8
0
100
AcDbVertex
100
AcDb3dPolylineVertex
 10
-9.15831
 20
7.820639999999997
 30
0.0
 70
    32
  0
VERTEX
  5
1C4D
330
1C4A
100
AcDbEntity
  8
0
100
AcDbVertex
100
AcDb3dPolylineVertex
 10
-28.3108
 20
7.820639999999997
 30
0.0
 70
    32
  0
SEQEND
  5
1C4E
330
1C4A
100
AcDbEntity
  8
0
  0
TEXT
  5
1B0A
330
1D0B
100
AcDbEntity
  8
0
100
AcDbText
 10
-28.9530311972574
 20
13.52066296157018
 30
0.0
 40
3.5
  1
電源入線孔
  7
BIGFONT
100
AcDbText
  0
TEXT
  5
1B0B
330
1D0B
100
AcDbEntity
  8
0
100
AcDbText
 10
-24.56645919324755
 20
8.946072661416309
 30
0.0
 40
3.5
  1
φ30
  7
BIGFONT
100
AcDbText
  0
ENDBLK
  5
1B0F
330
1D0B
100
AcDbEntity
  8
0
100
AcDbBlockEnd
  0
BLOCK
  5
1D41
330
1D40
100
AcDbEntity
  8
0
100
AcDbBlockBegin
  2
waku
 70
     0
 10
0.0
 20
0.0
 30
0.0
  3
waku
  1

  0
LINE
  5
1D42
330
1D40
100
AcDbEntity
  8
0
100
AcDbLine
 10
4.15
 20
8.274999999999996
 30
0.0
 11
189.375
 21
8.274999999999996
 31
0.0
  0
LINE
  5
1D43
330
1D40
100
AcDbEntity
  8
0
100
AcDbLine
 10
189.375
 20
8.274999999999996
 30
0.0
 11
189.375
 21
280.0749999999998
 31
0.0
  0
LINE
  5
1D44
330
1D40
100
AcDbEntity
  8
0
100
AcDbLine
 10
189.375
 20
280.0749999999998
 30
0.0
 11
4.15
 21
280.0749999999998
 31
0.0
  0
LINE
  5
1D45
330
1D40
100
AcDbEntity
  8
0
100
AcDbLine
 10
4.15
 20
280.0749999999998
 30
0.0
 11
4.15
 21
8.274999999999996
 31
0.0
  0
ENDBLK
  5
1D46
330
1D40
100
AcDbEntity
  8
0
100
AcDbBlockEnd
  0
BLOCK
  5
1DA4
330
1D98
100
AcDbEntity
  8
0
100
AcDbBlockBegin
  2
*D6
 70
     1
 10
0.0
 20
0.0
 30
0.0
  3
*D6
  1

  0
LINE
  5
23DC
330
1D98
100
AcDbEntity
  8
0
  6
Continuous
 62
     0
370
    -2
100
AcDbLine
 10
126.3332820245335
 20
171.972148872413
 30
0.0
 11
126.3332820245335
 21
183.6908988724129
 31
0.0
  0
LINE
  5
23DD
330
1D98
100
AcDbEntity
  8
0
  6
Continuous
 62
     0
370
    -2
100
AcDbLine
 10
131.3332820245336
 20
171.972148872413
 30
0.0
 11
131.3332820245336
 21
183.6908988724129
 31
0.0
  0
LINE
  5
23DE
330
1D98
100
AcDbEntity
  8
0
  6
Continuous
 62
     0
370
    -2
100
AcDbLine
 10
123.3332820245335
 20
182.6908988724129
 30
0.0
 11
120.3332820245335
 21
182.6908988724129
 31
0.0
  0
LINE
  5
23DF
330
1D98
100
AcDbEntity
  8
0
  6
Continuous
 62
     0
370
    -2
100
AcDbLine
 10
134.3332820245336
 20
182.6908988724129
 30
0.0
 11
137.3332820245336
 21
182.6908988724129
 31
0.0
  0
LINE
  5
23E0
330
1D98
100
AcDbEntity
  8
0
  6
Continuous
 62
     0
370
    -2
100
AcDbLine
 10
126.3332820245335
 20
182.6908988724129
 30
0.0
 11
131.3332820245336
 21
182.6908988724129
 31
0.0
  0
SOLID
  5
23E1
330
1D98
100
AcDbEntity
  8
0
  6
Continuous
 62
     0
100
AcDbTrace
 10
123.3332820245335
 20
183.190898872413
 30
0.0
 11
123.3332820245335
 21
182.1908988724129
 31
0.0
 12
126.3332820245335
 22
182.6908988724129
 32
0.0
 13
126.3332820245335
 23
182.6908988724129
 33
0.0
  0
SOLID
  5
23E2
330
1D98
100
AcDbEntity
  8
0
  6
Continuous
 62
     0
100
AcDbTrace
 10
134.3332820245336
 20
183.190898872413
 30
0.0
 11
134.3332820245336
 21
182.1908988724129
 31
0.0
 12
131.3332820245336
 22
182.6908988724129
 32
0.0
 13
131.3332820245336
 23
182.6908988724129
 33
0.0
  0
MTEXT
  5
23E3
330
1D98
100
AcDbEntity
  8
0
  6
Continuous
 62
     0
100
AcDbMText
 10
128.8332820245335
 20
185.4408988724129
 30
0.0
 40
3.5
 41
0.0
 71
     5
 72
     1
  1
\A1;5
 73
     1
 44
1.0
1001
ACAD
1000
MTEXTBEGIN
1070
    73
1070
     1
1070
    44
1040
1.0
1070
    74
1070
     0
1000
MTEXTEND
  0
POINT
  5
23E4
330
1D98
100
AcDbEntity
  8
DEFPOINTS
  6
Continuous
 62
     0
100
AcDbPoint
 10
126.3332820245335
 20
171.909648872413
 30
0.0
  0
POINT
  5
23E5
330
1D98
100
AcDbEntity
  8
DEFPOINTS
  6
Continuous
 62
     0
100
AcDbPoint
 10
131.3332820245336
 20
171.909648872413
 30
0.0
  0
POINT
  5
23E6
330
1D98
100
AcDbEntity
  8
DEFPOINTS
  6
Continuous
 62
     0
100
AcDbPoint
 10
131.3332820245336
 20
182.6908988724129
 30
0.0
  0
ENDBLK
  5
1DA5
330
1D98
100
AcDbEntity
  8
0
100
AcDbBlockEnd
  0
BLOCK
  5
1EE8
330
1EE0
100
AcDbEntity
  8
0
100
AcDbBlockBegin
  2
A$C4A4B34CD
 70
     0
 10
0.0
 20
0.0
 30
0.0
  3
A$C4A4B34CD
  1

  0
TEXT
  5
1EE1
330
1EE0
100
AcDbEntity
  8
0
100
AcDbText
 10
-40.34050344145899
 20
14.94331425430246
 30
0.0
 40
3.0
  1
4×4用アウトレットBOX浅型対応
  7
BIGFONT
100
AcDbText
  0
POLYLINE
  5
1EE2
330
1EE0
100
AcDbEntity
  8
0
100
AcDb3dPolyline
 66
     1
 10
0.0
 20
0.0
 30
0.0
 70
     8
  0
VERTEX
  5
1EE3
330
1EE2
100
AcDbEntity
  8
0
100
AcDbVertex
100
AcDb3dPolylineVertex
 10
0.0000000000004832
 20
0.0000000000003695
 30
0.0
 70
    32
  0
VERTEX
  5
1EE4
330
1EE2
100
AcDbEntity
  8
0
100
AcDbVertex
100
AcDb3dPolylineVertex
 10
17.27188071065103
 20
13.55283453934382
 30
0.0
 70
    32
  0
VERTEX
  5
1EE5
330
1EE2
100
AcDbEntity
  8
0
100
AcDbVertex
100
AcDb3dPolylineVertex
 10
-41.29598646234581
 20
13.55283453934382
 30
0.0
 70
    32
  0
SEQEND
  5
1EE6
330
1EE2
100
AcDbEntity
  8
0
  0
TEXT
  5
1EE7
330
1EE0
100
AcDbEntity
  8
0
100
AcDbText
 10
-32.08783256690018
 20
9.154410512524664
 30
0.0
 40
3.0
  1
(1ヶ用塗りしろ)
  7
BIGFONT
100
AcDbText
  0
ENDBLK
  5
1EE9
330
1EE0
100
AcDbEntity
  8
0
100
AcDbBlockEnd
  0
BLOCK
  5
20C8
330
20C7
100
AcDbEntity
  8
0
100
AcDbBlockBegin
  2
*D8
 70
     1
 10
0.0
 20
0.0
 30
0.0
  3
*D8
  1

  0
LINE
  5
2453
330
20C7
100
AcDbEntity
  8
0
 62
     0
370
    -2
100
AcDbLine
 10
19.7936558791828
 20
130.5630488724127
 30
0.0
 11
19.7936558791828
 21
108.423799715792
 31
0.0
  0
LINE
  5
2454
330
20C7
100
AcDbEntity
  8
0
 62
     0
370
    -2
100
AcDbLine
 10
94.79365587918278
 20
130.5630488724127
 30
0.0
 11
94.79365587918278
 21
108.423799715792
 31
0.0
  0
LINE
  5
2455
330
20C7
100
AcDbEntity
  8
0
 62
     0
370
    -2
100
AcDbLine
 10
21.2936558791828
 20
108.423799715792
 30
0.0
 11
93.29365587918278
 21
108.423799715792
 31
0.0
  0
SOLID
  5
2456
330
20C7
100
AcDbEntity
  8
0
 62
     0
100
AcDbTrace
 10
21.2936558791828
 20
108.673799715792
 30
0.0
 11
21.2936558791828
 21
108.173799715792
 31
0.0
 12
19.7936558791828
 22
108.423799715792
 32
0.0
 13
19.7936558791828
 23
108.423799715792
 33
0.0
  0
SOLID
  5
2457
330
20C7
100
AcDbEntity
  8
0
 62
     0
100
AcDbTrace
 10
93.29365587918278
 20
108.673799715792
 30
0.0
 11
93.29365587918278
 21
108.173799715792
 31
0.0
 12
94.79365587918278
 22
108.423799715792
 32
0.0
 13
94.79365587918278
 23
108.423799715792
 33
0.0
  0
MTEXT
  5
2458
330
20C7
100
AcDbEntity
  8
0
 62
     0
100
AcDbMText
 10
57.29365587918278
 20
110.798799715792
 30
0.0
 40
3.5
 41
0.0
 71
     5
 72
     1
  1
\A1;75
  7
BIGFONT
 73
     1
 44
1.0
1001
ACAD
1000
MTEXTBEGIN
1070
    73
1070
     1
1070
    44
1040
1.0
1070
    74
1070
     0
1000
MTEXTEND
  0
POINT
  5
2459
330
20C7
100
AcDbEntity
  8
DEFPOINTS
 62
     0
100
AcDbPoint
 10
19.7936558791828
 20
131.1880488724127
 30
0.0
  0
POINT
  5
245A
330
20C7
100
AcDbEntity
  8
DEFPOINTS
 62
     0
100
AcDbPoint
 10
94.79365587918278
 20
131.1880488724127
 30
0.0
  0
POINT
  5
245B
330
20C7
100
AcDbEntity
  8
DEFPOINTS
 62
     0
100
AcDbPoint
 10
94.79365587918278
 20
108.423799715792
 30
0.0
  0
ENDBLK
  5
20C9
330
20C7
100
AcDbEntity
  8
0
100
AcDbBlockEnd
  0
BLOCK
  5
20D4
330
20D3
100
AcDbEntity
  8
0
100
AcDbBlockBegin
  2
*D9
 70
     1
 10
0.0
 20
0.0
 30
0.0
  3
*D9
  1

  0
LINE
  5
2417
330
20D3
100
AcDbEntity
  8
0
  6
Continuous
 62
     0
370
    -2
100
AcDbLine
 10
102.3100820245341
 20
238.4776488724129
 30
0.0
 11
102.3100820245341
 21
263.4069729796532
 31
0.0
  0
LINE
  5
2418
330
20D3
100
AcDbEntity
  8
0
  6
Continuous
 62
     0
370
    -2
100
AcDbLine
 10
127.310082024534
 20
256.322847579291
 30
0.0
 11
127.310082024534
 21
263.4069729796532
 31
0.0
  0
LINE
  5
2419
330
20D3
100
AcDbEntity
  8
0
  6
Continuous
 62
     0
370
    -2
100
AcDbLine
 10
105.3100820245341
 20
262.4069729796532
 30
0.0
 11
124.310082024534
 21
262.4069729796532
 31
0.0
  0
MTEXT
  5
241A
330
20D3
100
AcDbEntity
  8
0
  6
Continuous
 62
     0
100
AcDbMText
 10
111.0372349341342
 20
265.3810238266327
 30
0.0
 40
3.5
 41
0.0
 71
     5
 72
     1
  1
\A1;25
 73
     1
 44
1.0
1001
ACAD
1000
MTEXTBEGIN
1070
    73
1070
     1
1070
    44
1040
1.0
1070
    74
1070
     0
1000
MTEXTEND
  0
SOLID
  5
241B
330
20D3
100
AcDbEntity
  8
0
  6
Continuous
 62
     0
100
AcDbTrace
 10
105.3100820245341
 20
262.9069729796532
 30
0.0
 11
105.3100820245341
 21
261.9069729796532
 31
0.0
 12
102.3100820245341
 22
262.4069729796532
 32
0.0
 13
102.3100820245341
 23
262.4069729796532
 33
0.0
  0
SOLID
  5
241C
330
20D3
100
AcDbEntity
  8
0
  6
Continuous
 62
     0
100
AcDbTrace
 10
124.310082024534
 20
262.9069729796532
 30
0.0
 11
124.310082024534
 21
261.9069729796532
 31
0.0
 12
127.310082024534
 22
262.4069729796532
 32
0.0
 13
127.310082024534
 23
262.4069729796532
 33
0.0
  0
POINT
  5
241D
330
20D3
100
AcDbEntity
  8
DEFPOINTS
  6
Continuous
 62
     0
100
AcDbPoint
 10
102.3100820245341
 20
238.4151488724129
 30
0.0
  0
POINT
  5
241E
330
20D3
100
AcDbEntity
  8
DEFPOINTS
  6
Continuous
 62
     0
100
AcDbPoint
 10
127.310082024534
 20
256.2603475792911
 30
0.0
  0
POINT
  5
241F
330
20D3
100
AcDbEntity
  8
DEFPOINTS
  6
Continuous
 62
     0
100
AcDbPoint
 10
127.310082024534
 20
262.4069729796532
 30
0.0
  0
ENDBLK
  5
20D5
330
20D3
100
AcDbEntity
  8
0
100
AcDbBlockEnd
  0
BLOCK
  5
20E0
330
20DF
100
AcDbEntity
  8
0
100
AcDbBlockBegin
  2
*D10
 70
     1
 10
0.0
 20
0.0
 30
0.0
  3
*D10
  1

  0
LINE
  5
2449
330
20DF
100
AcDbEntity
  8
0
  6
Continuous
 62
     0
370
    -2
100
AcDbLine
 10
118.1100820245345
 20
128.2215488724129
 30
0.0
 11
118.1100820245345
 21
107.423799715792
 31
0.0
  0
LINE
  5
244A
330
20DF
100
AcDbEntity
  8
0
  6
Continuous
 62
     0
370
    -2
100
AcDbLine
 10
127.3100820245344
 20
123.8455488724127
 30
0.0
 11
127.3100820245344
 21
107.423799715792
 31
0.0
  0
LINE
  5
244B
330
20DF
100
AcDbEntity
  8
0
  6
Continuous
 62
     0
370
    -2
100
AcDbLine
 10
121.1100820245345
 20
108.423799715792
 30
0.0
 11
124.3100820245345
 21
108.423799715792
 31
0.0
  0
LINE
  5
244C
330
20DF
100
AcDbEntity
  8
0
  6
Continuous
 62
     0
370
    -2
100
AcDbLine
 10
127.3100820245344
 20
108.423799715792
 30
0.0
 11
135.8100820245345
 21
108.423799715792
 31
0.0
  0
SOLID
  5
244D
330
20DF
100
AcDbEntity
  8
0
  6
Continuous
 62
     0
100
AcDbTrace
 10
121.1100820245345
 20
108.923799715792
 30
0.0
 11
121.1100820245345
 21
107.923799715792
 31
0.0
 12
118.1100820245345
 22
108.423799715792
 32
0.0
 13
118.1100820245345
 23
108.423799715792
 33
0.0
  0
SOLID
  5
244E
330
20DF
100
AcDbEntity
  8
0
  6
Continuous
 62
     0
100
AcDbTrace
 10
124.3100820245345
 20
108.923799715792
 30
0.0
 11
124.3100820245345
 21
107.923799715792
 31
0.0
 12
127.3100820245344
 22
108.423799715792
 32
0.0
 13
127.3100820245344
 23
108.423799715792
 33
0.0
  0
MTEXT
  5
244F
330
20DF
100
AcDbEntity
  8
0
  6
Continuous
 62
     0
100
AcDbMText
 10
133.0600820245344
 20
111.173799715792
 30
0.0
 40
3.5
 41
0.0
 71
     5
 72
     1
  1
\A1;9.2
 73
     1
 44
1.0
1001
ACAD
1000
MTEXTBEGIN
1070
    73
1070
     1
1070
    44
1040
1.0
1070
    74
1070
     0
1000
MTEXTEND
  0
POINT
  5
2450
330
20DF
100
AcDbEntity
  8
DEFPOINTS
  6
Continuous
 62
     0
100
AcDbPoint
 10
118.1100820245345
 20
128.2840488724129
 30
0.0
  0
POINT
  5
2451
330
20DF
100
AcDbEntity
  8
DEFPOINTS
  6
Continuous
 62
     0
100
AcDbPoint
 10
127.3100820245344
 20
123.9080488724128
 30
0.0
  0
POINT
  5
2452
330
20DF
100
AcDbEntity
  8
DEFPOINTS
  6
Continuous
 62
     0
100
AcDbPoint
 10
127.3100820245344
 20
108.423799715792
 30
0.0
  0
ENDBLK
  5
20E1
330
20DF
100
AcDbEntity
  8
0
100
AcDbBlockEnd
  0
BLOCK
  5
20ED
330
20EC
100
AcDbEntity
  8
0
100
AcDbBlockBegin
  2
*D11
 70
     1
 10
0.0
 20
0.0
 30
0.0
  3
*D11
  1

  0
LINE
  5
243E
330
20EC
100
AcDbEntity
  8
0
  6
Continuous
 62
     0
370
    -2
100
AcDbLine
 10
121.6100820245345
 20
126.4624488724126
 30
0.0
 11
121.6100820245345
 21
114.2576558971283
 31
0.0
  0
LINE
  5
243F
330
20EC
100
AcDbEntity
  8
0
  6
Continuous
 62
     0
370
    -2
100
AcDbLine
 10
127.3100820245344
 20
123.8455488724129
 30
0.0
 11
127.3100820245344
 21
114.2576558971283
 31
0.0
  0
LINE
  5
2440
330
20EC
100
AcDbEntity
  8
0
  6
Continuous
 62
     0
370
    -2
100
AcDbLine
 10
118.6100820245345
 20
115.2576558971283
 30
0.0
 11
115.6100820245345
 21
115.2576558971283
 31
0.0
  0
LINE
  5
2441
330
20EC
100
AcDbEntity
  8
0
  6
Continuous
 62
     0
370
    -2
100
AcDbLine
 10
130.3100820245344
 20
115.2576558971283
 30
0.0
 11
133.3100820245344
 21
115.2576558971283
 31
0.0
  0
LINE
  5
2442
330
20EC
100
AcDbEntity
  8
0
  6
Continuous
 62
     0
370
    -2
100
AcDbLine
 10
121.6100820245345
 20
115.2576558971283
 30
0.0
 11
127.3100820245344
 21
115.2576558971283
 31
0.0
  0
SOLID
  5
2443
330
20EC
100
AcDbEntity
  8
0
  6
Continuous
 62
     0
100
AcDbTrace
 10
118.6100820245345
 20
115.7576558971283
 30
0.0
 11
118.6100820245345
 21
114.7576558971283
 31
0.0
 12
121.6100820245345
 22
115.2576558971283
 32
0.0
 13
121.6100820245345
 23
115.2576558971283
 33
0.0
  0
SOLID
  5
2444
330
20EC
100
AcDbEntity
  8
0
  6
Continuous
 62
     0
100
AcDbTrace
 10
130.3100820245344
 20
115.7576558971283
 30
0.0
 11
130.3100820245344
 21
114.7576558971283
 31
0.0
 12
127.3100820245344
 22
115.2576558971283
 32
0.0
 13
127.3100820245344
 23
115.2576558971283
 33
0.0
  0
MTEXT
  5
2445
330
20EC
100
AcDbEntity
  8
0
  6
Continuous
 62
     0
100
AcDbMText
 10
124.4600820245345
 20
118.0076558971283
 30
0.0
 40
3.5
 41
0.0
 71
     5
 72
     1
  1
\A1;5.7
 73
     1
 44
1.0
1001
ACAD
1000
MTEXTBEGIN
1070
    73
1070
     1
1070
    44
1040
1.0
1070
    74
1070
     0
1000
MTEXTEND
  0
POINT
  5
2446
330
20EC
100
AcDbEntity
  8
DEFPOINTS
  6
Continuous
 62
     0
100
AcDbPoint
 10
121.6100820245345
 20
126.5249488724126
 30
0.0
  0
POINT
  5
2447
330
20EC
100
AcDbEntity
  8
DEFPOINTS
  6
Continuous
 62
     0
100
AcDbPoint
 10
127.3100820245344
 20
123.9080488724129
 30
0.0
  0
POINT
  5
2448
330
20EC
100
AcDbEntity
  8
DEFPOINTS
  6
Continuous
 62
     0
100
AcDbPoint
 10
127.3100820245344
 20
115.2576558971283
 30
0.0
  0
ENDBLK
  5
20EE
330
20EC
100
AcDbEntity
  8
0
100
AcDbBlockEnd
  0
BLOCK
  5
20FB
330
20FA
100
AcDbEntity
  8
0
100
AcDbBlockBegin
  2
*D12
 70
     1
 10
0.0
 20
0.0
 30
0.0
  3
*D12
  1

  0
LINE
  5
245C
330
20FA
100
AcDbEntity
  8
0
 62
     0
370
    -2
100
AcDbLine
 10
24.39585587918307
 20
126.4624488724127
 30
0.0
 11
10.44432895721544
 21
126.4624488724127
 31
0.0
  0
LINE
  5
245D
330
20FA
100
AcDbEntity
  8
0
 62
     0
370
    -2
100
AcDbLine
 10
23.99985587918243
 20
258.4624488724128
 30
0.0
 11
10.44432895721547
 21
258.4624488724128
 31
0.0
  0
LINE
  5
245E
330
20FA
100
AcDbEntity
  8
0
 62
     0
370
    -2
100
AcDbLine
 10
10.44432895721544
 20
127.9624488724127
 30
0.0
 11
10.44432895721547
 21
256.9624488724128
 31
0.0
  0
SOLID
  5
245F
330
20FA
100
AcDbEntity
  8
0
 62
     0
100
AcDbTrace
 10
10.19432895721544
 20
127.9624488724127
 30
0.0
 11
10.69432895721544
 21
127.9624488724127
 31
0.0
 12
10.44432895721544
 22
126.4624488724127
 32
0.0
 13
10.44432895721544
 23
126.4624488724127
 33
0.0
  0
SOLID
  5
2460
330
20FA
100
AcDbEntity
  8
0
 62
     0
100
AcDbTrace
 10
10.19432895721547
 20
256.9624488724128
 30
0.0
 11
10.69432895721547
 21
256.9624488724128
 31
0.0
 12
10.44432895721547
 22
258.4624488724128
 32
0.0
 13
10.44432895721547
 23
258.4624488724128
 33
0.0
  0
MTEXT
  5
2461
330
20FA
100
AcDbEntity
  8
0
 62
     0
100
AcDbMText
 10
8.069328957215429
 20
192.4624488724128
 30
0.0
 40
3.5
 41
0.0
 71
     5
 72
     1
  1
\A1;132
  7
BIGFONT
 11
0.0000000000000001
 21
1.0
 31
0.0
 73
     1
 44
1.0
1001
ACAD
1000
MTEXTBEGIN
1070
    73
1070
     1
1070
    44
1040
1.0
1070
    74
1070
     0
1000
MTEXTEND
  0
POINT
  5
2462
330
20FA
100
AcDbEntity
  8
DEFPOINTS
 62
     0
100
AcDbPoint
 10
25.02085587918307
 20
126.4624488724127
 30
0.0
  0
POINT
  5
2463
330
20FA
100
AcDbEntity
  8
DEFPOINTS
 62
     0
100
AcDbPoint
 10
24.62485587918243
 20
258.4624488724128
 30
0.0
  0
POINT
  5
2464
330
20FA
100
AcDbEntity
  8
DEFPOINTS
 62
     0
100
AcDbPoint
 10
10.44432895721547
 20
258.4624488724128
 30
0.0
  0
ENDBLK
  5
20FC
330
20FA
100
AcDbEntity
  8
0
100
AcDbBlockEnd
  0
ENDSEC
  0
SECTION
  2
ENTITIES
  0
TEXT
  5
EE8
330
1CDF
100
AcDbEntity
  8
0
100
AcDbText
 10
86.40326578094621
 20
116.4475293209805
 30
0.0
 40
3.5
  1
1
  7
BIGFONT
100
AcDbText
  0
LINE
  5
EED
330
1CDF
100
AcDbEntity
  8
0
  6
Continuous
100
AcDbLine
 10
72.6658551220737
 20
144.5432613911949
 30
0.0
 11
86.12799447300682
 21
120.2101328863034
 31
0.0
  0
TEXT
  5
EEE
330
1CDF
100
AcDbEntity
  8
0
100
AcDbText
 10
37.85434566871487
 20
116.6069734135389
 30
0.0
 40
3.5
  1
2
  7
BIGFONT
100
AcDbText
  0
LINE
  5
EF3
330
1CDF
100
AcDbEntity
  8
0
  6
Continuous
100
AcDbLine
 10
151.2268834073994
 20
171.409648872413
 30
0.0
 11
147.73136972459
 21
183.9050842782507
 31
0.0
  0
LINE
  5
EF6
330
1CDF
100
AcDbEntity
  8
0
  6
Continuous
100
AcDbLine
 10
161.7268834073994
 20
171.409648872413
 30
0.0
 11
159.5861007585686
 21
183.8836774184196
 31
0.0
  0
CIRCLE
  5
F31
330
1CDF
100
AcDbEntity
  8
0
  6
Continuous
100
AcDbCircle
 10
87.33666446454851
 20
118.0217277931941
 30
0.0
 40
2.5
  0
LINE
  5
1359
330
1CDF
100
AcDbEntity
  8
0
  6
HIDDEN
 48
10.0
100
AcDbLine
 10
24.38138533478783
 20
253.7172633174161
 30
0.0
 11
90.48138533478786
 21
253.7172633174161
 31
0.0
  0
LINE
  5
135A
330
1CDF
100
AcDbEntity
  8
0
  6
HIDDEN
 48
10.0
100
AcDbLine
 10
90.48138533478786
 20
133.7172633174162
 30
0.0
 11
24.38138533478783
 21
133.7172633174162
 31
0.0
  0
LINE
  5
135D
330
1CDF
100
AcDbEntity
  8
0
  6
HIDDEN
 48
10.0
100
AcDbLine
 10
22.43138533478784
 20
135.6672633174163
 30
0.0
 11
22.43138533478784
 21
251.7672633174161
 31
0.0
  0
ARC
  5
135F
330
1CDF
100
AcDbEntity
  8
0
  6
HIDDEN
 48
10.0
100
AcDbCircle
 10
24.38138533478783
 20
135.6922633174162
 30
0.0
 40
1.95
100
AcDbArc
 50
180.0
 51
270.0
  0
ARC
  5
1360
330
1CDF
100
AcDbEntity
  8
0
  6
HIDDEN
 48
10.0
100
AcDbCircle
 10
24.38138533478783
 20
251.7672633174161
 30
0.0
 40
1.95
100
AcDbArc
 50
90.0
 51
180.0
  0
LINE
  5
136C
330
1CDF
100
AcDbEntity
  8
0
  6
HIDDEN
 48
10.0
100
AcDbLine
 10
126.3332820245336
 20
252.4096488724128
 30
0.0
 11
126.3332820245336
 21
132.4096488724129
 31
0.0
  0
LINE
  5
136D
330
1CDF
100
AcDbEntity
  8
0
  6
HIDDEN
 48
10.0
100
AcDbLine
 10
92.43138533478774
 20
251.7672633174161
 30
0.0
 11
92.43138533478774
 21
135.6672633174163
 31
0.0
  0
LINE
  5
136E
330
1CDF
100
AcDbEntity
  8
0
  6
HIDDEN
 48
10.0
100
AcDbLine
 10
120.3332820245335
 20
137.0596488724129
 30
0.0
 11
120.3332820245335
 21
247.659648872413
 31
0.0
  0
ARC
  5
1370
330
1CDF
100
AcDbEntity
  8
0
  6
HIDDEN
 48
10.0
100
AcDbCircle
 10
90.45638533478788
 20
135.6922633174162
 30
0.0
 40
1.95
100
AcDbArc
 50
270.0
 51
0.0
  0
ARC
  5
1372
330
1CDF
100
AcDbEntity
  8
0
  6
HIDDEN
 48
10.0
100
AcDbCircle
 10
124.9832820245337
 20
137.0846488724129
 30
0.0
 40
4.65
100
AcDbArc
 50
180.0
 51
270.0
  0
LINE
  5
1373
330
1CDF
100
AcDbEntity
  8
0
  6
HIDDEN
 48
10.0
100
AcDbLine
 10
126.3332820245336
 20
132.4096488724129
 30
0.0
 11
124.9832820245337
 21
132.4096488724129
 31
0.0
  0
ARC
  5
1377
330
1CDF
100
AcDbEntity
  8
0
  6
HIDDEN
 48
10.0
100
AcDbCircle
 10
90.45638533478788
 20
251.7672633174161
 30
0.0
 40
1.95
100
AcDbArc
 50
0.0
 51
90.0
  0
LINE
  5
1378
330
1CDF
100
AcDbEntity
  8
0
  6
HIDDEN
 48
10.0
100
AcDbLine
 10
119.9082820245334
 20
156.9096488724129
 30
0.0
 11
119.9082820245334
 21
227.9096488724129
 31
0.0
  0
LINE
  5
137A
330
1CDF
100
AcDbEntity
  8
0
  6
HIDDEN
 48
10.0
100
AcDbLine
 10
120.3332820245335
 20
156.9096488724129
 30
0.0
 11
119.9082820245334
 21
156.9096488724129
 31
0.0
  0
LINE
  5
137B
330
1CDF
100
AcDbEntity
  8
0
  6
HIDDEN
 48
10.0
100
AcDbLine
 10
119.9082820245334
 20
227.9096488724129
 30
0.0
 11
120.3332820245335
 21
227.9096488724129
 31
0.0
  0
ARC
  5
138A
330
1CDF
100
AcDbEntity
  8
0
  6
HIDDEN
 48
10.0
100
AcDbCircle
 10
125.0832820245336
 20
247.659648872413
 30
0.0
 40
4.75
100
AcDbArc
 50
90.0
 51
180.0
  0
LINE
  5
138B
330
1CDF
100
AcDbEntity
  8
0
  6
HIDDEN
 48
10.0
100
AcDbLine
 10
125.0832820245336
 20
252.4096488724128
 30
0.0
 11
126.3332820245336
 21
252.4096488724128
 31
0.0
  0
TEXT
  5
1546
330
1CDF
100
AcDbEntity
  8
0
100
AcDbText
 10
146.3576784663798
 20
184.6472195374403
 30
0.0
 40
3.5
  1
3
  7
BIGFONT
100
AcDbText
  0
LINE
  5
1566
330
1CDF
100
AcDbEntity
  8
0
  6
HIDDEN
 48
10.0
100
AcDbLine
 10
119.4082820245336
 20
176.909648872413
 30
0.0
 11
119.9082820245334
 21
176.909648872413
 31
0.0
  0
LINE
  5
1567
330
1CDF
100
AcDbEntity
  8
0
  6
HIDDEN
 48
10.0
100
AcDbLine
 10
119.9082820245334
 20
161.9096488724129
 30
0.0
 11
119.4082820245336
 21
161.9096488724129
 31
0.0
  0
LINE
  5
1569
330
1CDF
100
AcDbEntity
  8
0
  6
HIDDEN
 48
10.0
100
AcDbLine
 10
119.4082820245336
 20
161.9096488724129
 30
0.0
 11
119.4082820245336
 21
176.909648872413
 31
0.0
  0
LINE
  5
15B3
330
1CDF
100
AcDbEntity
  8
0
  6
Continuous
100
AcDbLine
 10
161.7268834073994
 20
157.4096488724129
 30
0.0
 11
160.259505290206
 21
146.7459471282648
 31
0.0
  0
LINE
  5
15B4
330
1CDF
100
AcDbEntity
  8
0
  6
Continuous
100
AcDbLine
 10
151.2268834073994
 20
157.4096488724129
 30
0.0
 11
148.4263287706449
 21
146.6777930042481
 31
0.0
  0
CIRCLE
  5
15B5
330
1CDF
100
AcDbEntity
  8
0
  6
Continuous
100
AcDbCircle
 10
147.1638225058207
 20
186.3398101672301
 30
0.0
 40
2.5
  0
TEXT
  5
15B6
330
1CDF
100
AcDbEntity
  8
0
100
AcDbText
 10
146.9889315987921
 20
142.451392215529
 30
0.0
 40
3.5
  1
5
  7
BIGFONT
100
AcDbText
  0
CIRCLE
  5
15B7
330
1CDF
100
AcDbEntity
  8
0
  6
Continuous
100
AcDbCircle
 10
159.2322824339196
 20
186.3585132903801
 30
0.0
 40
2.5
  0
TEXT
  5
15B8
330
1CDF
100
AcDbEntity
  8
0
100
AcDbText
 10
159.0573915268908
 20
142.4700953386786
 30
0.0
 40
3.5
  1
6
  7
BIGFONT
100
AcDbText
  0
LINE
  5
192F
330
1CDF
100
AcDbEntity
  8
1
  6
HIDDEN
 48
10.0
100
AcDbLine
 10
47.60638533478782
 20
201.7172633174163
 30
0.0
 11
47.60638533478782
 21
215.7172633174163
 31
0.0
  0
LINE
  5
1930
330
1CDF
100
AcDbEntity
  8
1
  6
HIDDEN
 48
10.0
100
AcDbLine
 10
44.60638533478782
 20
159.7172633174162
 30
0.0
 11
44.60638533478782
 21
219.7172633174163
 31
0.0
  0
LINE
  5
1932
330
1CDF
100
AcDbEntity
  8
1
  6
HIDDEN
 48
10.0
100
AcDbLine
 10
45.10638533478782
 20
220.2172633174163
 30
0.0
 11
70.10638533478783
 21
220.2172633174163
 31
0.0
  0
LINE
  5
1933
330
1CDF
100
AcDbEntity
  8
1
  6
HIDDEN
 48
10.0
100
AcDbLine
 10
48.10638533478782
 20
197.2172633174163
 30
0.0
 11
67.1063853347878
 21
197.2172633174163
 31
0.0
  0
LINE
  5
1934
330
1CDF
100
AcDbEntity
  8
1
  6
HIDDEN
 48
10.0
100
AcDbLine
 10
67.1063853347878
 20
182.2172633174163
 30
0.0
 11
48.10638533478782
 21
182.2172633174163
 31
0.0
  0
LINE
  5
1935
330
1CDF
100
AcDbEntity
  8
1
  6
HIDDEN
 48
10.0
100
AcDbLine
 10
70.1063853347878
 20
159.2172633174162
 30
0.0
 11
45.10638533478782
 21
159.2172633174162
 31
0.0
  0
LINE
  5
1936
330
1CDF
100
AcDbEntity
  8
1
  6
HIDDEN
 48
10.0
100
AcDbLine
 10
48.10638533478782
 20
178.2172633174163
 30
0.0
 11
67.1063853347878
 21
178.2172633174163
 31
0.0
  0
LINE
  5
1937
330
1CDF
100
AcDbEntity
  8
1
  6
HIDDEN
 48
10.0
100
AcDbLine
 10
67.1063853347878
 20
163.2172633174162
 30
0.0
 11
48.10638533478782
 21
163.2172633174162
 31
0.0
  0
LINE
  5
1938
330
1CDF
100
AcDbEntity
  8
1
  6
HIDDEN
 48
10.0
100
AcDbLine
 10
67.1063853347878
 20
201.2172633174163
 30
0.0
 11
48.10638533478782
 21
201.2172633174163
 31
0.0
  0
LINE
  5
1939
330
1CDF
100
AcDbEntity
  8
1
  6
HIDDEN
 48
10.0
100
AcDbLine
 10
47.60638533478782
 20
163.7172633174162
 30
0.0
 11
47.60638533478782
 21
177.7172633174163
 31
0.0
  0
LINE
  5
193A
330
1CDF
100
AcDbEntity
  8
1
  6
HIDDEN
 48
10.0
100
AcDbLine
 10
47.60638533478782
 20
182.7172633174163
 30
0.0
 11
47.60638533478782
 21
196.7172633174162
 31
0.0
  0
LINE
  5
193C
330
1CDF
100
AcDbEntity
  8
1
  6
HIDDEN
 48
10.0
100
AcDbLine
 10
48.10638533478782
 20
216.2172633174163
 30
0.0
 11
67.1063853347878
 21
216.2172633174163
 31
0.0
  0
LINE
  5
193D
330
1CDF
100
AcDbEntity
  8
1
  6
HIDDEN
 48
10.0
100
AcDbLine
 10
67.6063853347878
 20
215.7172633174163
 30
0.0
 11
67.6063853347878
 21
201.7172633174163
 31
0.0
  0
LINE
  5
193F
330
1CDF
100
AcDbEntity
  8
1
  6
HIDDEN
 48
10.0
100
AcDbLine
 10
70.6063853347878
 20
159.7172633174162
 30
0.0
 11
70.60638533478783
 21
219.7172633174163
 31
0.0
  0
LINE
  5
1940
330
1CDF
100
AcDbEntity
  8
1
  6
HIDDEN
 48
10.0
100
AcDbLine
 10
67.6063853347878
 20
196.7172633174162
 30
0.0
 11
67.6063853347878
 21
182.7172633174163
 31
0.0
  0
LINE
  5
1941
330
1CDF
100
AcDbEntity
  8
1
  6
HIDDEN
 48
10.0
100
AcDbLine
 10
67.6063853347878
 20
177.7172633174163
 30
0.0
 11
67.6063853347878
 21
163.7172633174162
 31
0.0
  0
LINE
  5
1942
330
1CDF
100
AcDbEntity
  8
1
  6
HIDDEN
 48
10.0
100
AcDbLine
 10
43.60638533478782
 20
158.2172633174162
 30
0.0
 11
43.60638533478782
 21
229.2172633174163
 31
0.0
  0
LINE
  5
1943
330
1CDF
100
AcDbEntity
  8
1
  6
HIDDEN
 48
10.0
100
AcDbLine
 10
71.6063853347878
 20
158.2172633174162
 30
0.0
 11
71.6063853347878
 21
229.2172633174163
 31
0.0
  0
LINE
  5
1945
330
1CDF
100
AcDbEntity
  8
1
  6
HIDDEN
 48
10.0
100
AcDbLine
 10
71.6063853347878
 20
158.2172633174162
 30
0.0
 11
43.60638533478782
 21
158.2172633174162
 31
0.0
  0
LINE
  5
1946
330
1CDF
100
AcDbEntity
  8
1
  6
HIDDEN
 48
10.0
100
AcDbLine
 10
71.6063853347878
 20
229.2172633174162
 30
0.0
 11
43.60638533478782
 21
229.2172633174163
 31
0.0
  0
CIRCLE
  5
1955
330
1CDF
100
AcDbEntity
  8
0
  6
HIDDEN
 48
10.0
100
AcDbCircle
 10
62.60638533478779
 20
224.2172633174163
 30
0.0
 40
1.0
  0
CIRCLE
  5
1956
330
1CDF
100
AcDbEntity
  8
0
  6
HIDDEN
 48
10.0
100
AcDbCircle
 10
52.60638533478779
 20
224.2172633174163
 30
0.0
 40
1.0
  0
ARC
  5
195D
330
1CDF
100
AcDbEntity
  8
1
  6
HIDDEN
 48
10.0
100
AcDbCircle
 10
45.10638533478782
 20
219.7172633174163
 30
0.0
 40
0.5
100
AcDbArc
 50
90.0
 51
180.0
  0
ARC
  5
195E
330
1CDF
100
AcDbEntity
  8
1
  6
HIDDEN
 48
10.0
100
AcDbCircle
 10
48.10638533478782
 20
215.7172633174163
 30
0.0
 40
0.5
100
AcDbArc
 50
90.0
 51
180.0
  0
ARC
  5
195F
330
1CDF
100
AcDbEntity
  8
1
  6
HIDDEN
 48
10.0
100
AcDbCircle
 10
70.10638533478783
 20
219.7172633174163
 30
0.0
 40
0.5
100
AcDbArc
 50
0.0
 51
90.0
  0
ARC
  5
1960
330
1CDF
100
AcDbEntity
  8
1
  6
HIDDEN
 48
10.0
100
AcDbCircle
 10
67.1063853347878
 20
215.7172633174163
 30
0.0
 40
0.5
100
AcDbArc
 50
0.0
 51
90.0
  0
ARC
  5
1961
330
1CDF
100
AcDbEntity
  8
1
  6
HIDDEN
 48
10.0
100
AcDbCircle
 10
67.1063853347878
 20
201.7172633174163
 30
0.0
 40
0.5
100
AcDbArc
 50
270.0
 51
0.0000000000000509
  0
ARC
  5
1962
330
1CDF
100
AcDbEntity
  8
1
  6
HIDDEN
 48
10.0
100
AcDbCircle
 10
48.10638533478782
 20
201.7172633174163
 30
0.0
 40
0.5
100
AcDbArc
 50
179.9999999999998
 51
270.0
  0
ARC
  5
1964
330
1CDF
100
AcDbEntity
  8
1
  6
HIDDEN
 48
10.0
100
AcDbCircle
 10
48.10638533478782
 20
196.7172633174162
 30
0.0
 40
0.5
100
AcDbArc
 50
90.0
 51
180.0
  0
ARC
  5
1965
330
1CDF
100
AcDbEntity
  8
1
  6
HIDDEN
 48
10.0
100
AcDbCircle
 10
67.1063853347878
 20
196.7172633174162
 30
0.0
 40
0.5
100
AcDbArc
 50
0.0
 51
90.0
  0
ARC
  5
1966
330
1CDF
100
AcDbEntity
  8
1
  6
HIDDEN
 48
10.0
100
AcDbCircle
 10
67.1063853347878
 20
182.7172633174163
 30
0.0
 40
0.5
100
AcDbArc
 50
270.0
 51
0.0000000000000509
  0
ARC
  5
1967
330
1CDF
100
AcDbEntity
  8
1
  6
HIDDEN
 48
10.0
100
AcDbCircle
 10
48.10638533478782
 20
182.7172633174163
 30
0.0
 40
0.5
100
AcDbArc
 50
179.9999999999998
 51
270.0
  0
ARC
  5
1968
330
1CDF
100
AcDbEntity
  8
1
  6
HIDDEN
 48
10.0
100
AcDbCircle
 10
48.10638533478782
 20
177.7172633174163
 30
0.0
 40
0.5
100
AcDbArc
 50
90.0
 51
180.0
  0
ARC
  5
1969
330
1CDF
100
AcDbEntity
  8
1
  6
HIDDEN
 48
10.0
100
AcDbCircle
 10
67.1063853347878
 20
177.7172633174163
 30
0.0
 40
0.5
100
AcDbArc
 50
0.0
 51
90.0
  0
ARC
  5
196A
330
1CDF
100
AcDbEntity
  8
1
  6
HIDDEN
 48
10.0
100
AcDbCircle
 10
67.1063853347878
 20
163.7172633174162
 30
0.0
 40
0.5
100
AcDbArc
 50
270.0
 51
0.0000000000000509
  0
ARC
  5
196B
330
1CDF
100
AcDbEntity
  8
1
  6
HIDDEN
 48
10.0
100
AcDbCircle
 10
48.10638533478782
 20
163.7172633174162
 30
0.0
 40
0.5
100
AcDbArc
 50
179.9999999999998
 51
270.0
  0
ARC
  5
196C
330
1CDF
100
AcDbEntity
  8
1
  6
HIDDEN
 48
10.0
100
AcDbCircle
 10
45.10638533478782
 20
159.7172633174162
 30
0.0
 40
0.5
100
AcDbArc
 50
180.0
 51
270.0
  0
ARC
  5
196D
330
1CDF
100
AcDbEntity
  8
1
  6
HIDDEN
 48
10.0
100
AcDbCircle
 10
70.1063853347878
 20
159.7172633174162
 30
0.0
 40
0.5
100
AcDbArc
 50
270.0
 51
0.0
  0
LINE
  5
196E
330
1CDF
100
AcDbEntity
  8
0
  6
HIDDEN
 48
10.0
100
AcDbLine
 10
55.80638533478786
 20
211.0922633174164
 30
0.0
 11
55.80638533478786
 21
212.0922633174164
 31
0.0
  0
LINE
  5
1971
330
1CDF
100
AcDbEntity
  8
0
  6
HIDDEN
 48
10.0
100
AcDbLine
 10
57.80638533478786
 20
213.0922633174164
 30
0.0
 11
58.80638533478784
 21
213.0922633174164
 31
0.0
  0
LINE
  5
1972
330
1CDF
100
AcDbEntity
  8
0
  6
HIDDEN
 48
10.0
100
AcDbLine
 10
58.80638533478784
 20
213.0922633174164
 30
0.0
 11
58.80638533478784
 21
204.5922633174164
 31
0.0
  0
LINE
  5
1973
330
1CDF
100
AcDbEntity
  8
0
  6
HIDDEN
 48
10.0
100
AcDbLine
 10
58.80638533478784
 20
204.5922633174164
 30
0.0
 11
56.80638533478784
 21
204.5922633174164
 31
0.0
  0
LINE
  5
1974
330
1CDF
100
AcDbEntity
  8
0
  6
HIDDEN
 48
10.0
100
AcDbLine
 10
56.80638533478784
 20
204.5922633174164
 30
0.0
 11
56.80638533478784
 21
211.0922633174164
 31
0.0
  0
LINE
  5
1975
330
1CDF
100
AcDbEntity
  8
0
  6
HIDDEN
 48
10.0
100
AcDbLine
 10
56.80638533478784
 20
211.0922633174164
 30
0.0
 11
55.80638533478786
 21
211.0922633174164
 31
0.0
  0
ARC
  5
1977
330
1CDF
100
AcDbEntity
  8
0
  6
HIDDEN
 48
10.0
100
AcDbCircle
 10
55.80638533478786
 20
214.5922633174163
 30
0.0
 40
2.5
100
AcDbArc
 50
270.0
 51
323.1301023541566
  0
LINE
  5
197B
330
1CDF
100
AcDbEntity
  8
0
  6
HIDDEN
 48
10.0
100
AcDbLine
 10
60.80638533478786
 20
185.5922633174164
 30
0.0
 11
54.80638533478785
 21
185.5922633174164
 31
0.0
  0
LINE
  5
1980
330
1CDF
100
AcDbEntity
  8
0
  6
HIDDEN
 48
10.0
100
AcDbLine
 10
54.80638533478785
 20
185.5922633174164
 30
0.0
 11
54.80638533478785
 21
186.0922633174164
 31
0.0
  0
LINE
  5
1981
330
1CDF
100
AcDbEntity
  8
0
  6
HIDDEN
 48
10.0
100
AcDbLine
 10
60.80638533478786
 20
185.5922633174164
 30
0.0
 11
60.80638533478786
 21
187.0922633174164
 31
0.0
  0
LINE
  5
1982
330
1CDF
100
AcDbEntity
  8
0
  6
HIDDEN
 48
10.0
100
AcDbLine
 10
60.80638533478786
 20
187.0922633174164
 30
0.0
 11
56.55638533478786
 21
187.0922633174164
 31
0.0
  0
LINE
  5
1983
330
1CDF
100
AcDbEntity
  8
0
  6
HIDDEN
 48
10.0
100
AcDbLine
 10
56.30638533478784
 20
191.0922633174164
 30
0.0
 11
54.80638533478785
 21
191.0922633174164
 31
0.0
  0
ARC
  5
1987
330
1CDF
100
AcDbEntity
  8
0
  6
HIDDEN
 48
10.0
100
AcDbCircle
 10
57.80638533478786
 20
191.0922633174164
 30
0.0
 40
3.000000000000003
100
AcDbArc
 50
273.2975299563026
 51
180.0
  0
ARC
  5
1988
330
1CDF
100
AcDbEntity
  8
0
  6
HIDDEN
 48
10.0
100
AcDbCircle
 10
57.80638533478786
 20
191.0922633174164
 30
0.0
 40
1.5
100
AcDbArc
 50
270.0
 51
180.0
  0
ARC
  5
198C
330
1CDF
100
AcDbEntity
  8
0
  6
HIDDEN
 48
10.0
100
AcDbCircle
 10
58.43138533478773
 20
185.9474662283068
 30
0.0
 40
2.196858068977793
100
AcDbArc
 50
101.8849599904574
 51
148.5934952328233
  0
ARC
  5
198D
330
1CDF
100
AcDbEntity
  8
0
  6
HIDDEN
 48
10.0
100
AcDbCircle
 10
58.26804758697686
 20
186.1608385298257
 30
0.0
 40
3.462341419904694
100
AcDbArc
 50
97.66253499996173
 51
181.1348757100291
  0
LINE
  5
198E
330
1CDF
100
AcDbEntity
  8
0
  6
HIDDEN
 48
10.0
100
AcDbLine
 10
56.30638533478784
 20
172.0922633174164
 30
0.0
 11
54.80638533478785
 21
172.0922633174164
 31
0.0
  0
ARC
  5
198F
330
1CDF
100
AcDbEntity
  8
0
  6
HIDDEN
 48
10.0
100
AcDbCircle
 10
57.67858122477504
 20
172.5255571523972
 30
0.0
 40
1.438980579413859
100
AcDbArc
 50
8.740353730078965
 51
197.5243843983015
  0
ARC
  5
1994
330
1CDF
100
AcDbEntity
  8
0
  6
HIDDEN
 48
10.0
100
AcDbCircle
 10
57.70766422698772
 20
172.5168338787973
 30
0.0
 40
2.932179969223588
100
AcDbArc
 50
356.4829801359297
 51
188.325518131897
  0
LINE
  5
1999
330
1CDF
100
AcDbEntity
  8
0
  6
HIDDEN
 48
10.0
100
AcDbLine
 10
56.30638533478784
 20
170.0922633174164
 30
0.0
 11
54.80638533478785
 21
170.0922633174164
 31
0.0
  0
ARC
  5
199A
330
1CDF
100
AcDbEntity
  8
0
  6
HIDDEN
 48
10.0
100
AcDbCircle
 10
57.67858122477504
 20
169.6589694824354
 30
0.0
 40
1.438980579413859
100
AcDbArc
 50
162.4756156016983
 51
351.2596462698382
  0
LINE
  5
199B
330
1CDF
100
AcDbEntity
  8
0
  6
HIDDEN
 48
10.0
100
AcDbLine
 10
56.80638533478784
 20
171.5922633174164
 30
0.0
 11
56.80638533478784
 21
170.5922633174164
 31
0.0
  0
LINE
  5
199C
330
1CDF
100
AcDbEntity
  8
0
  6
HIDDEN
 48
10.0
100
AcDbLine
 10
56.80638533478784
 20
170.5922633174164
 30
0.0
 11
58.11246397005359
 21
170.5922633174164
 31
0.0
  0
LINE
  5
199D
330
1CDF
100
AcDbEntity
  8
0
  6
HIDDEN
 48
10.0
100
AcDbLine
 10
58.11246397005779
 20
171.5922633174164
 30
0.0
 11
56.80638533478784
 21
171.5922633174164
 31
0.0
  0
ARC
  5
19A0
330
1CDF
100
AcDbEntity
  8
0
  6
HIDDEN
 48
10.0
100
AcDbCircle
 10
58.30638533478786
 20
173.0922633174164
 30
0.0
 40
2.5
100
AcDbArc
 50
306.8698976458435
 51
332.4424458060021
  0
ARC
  5
19A2
330
1CDF
100
AcDbEntity
  8
0
  6
HIDDEN
 48
10.0
100
AcDbCircle
 10
58.11246397005779
 20
172.5922633174164
 30
0.0
 40
1.0
100
AcDbArc
 50
270.0
 51
8.740353730079167
  0
ARC
  5
19A3
330
1CDF
100
AcDbEntity
  8
0
  6
HIDDEN
 48
10.0
100
AcDbCircle
 10
58.11246397005359
 20
169.5922633174164
 30
0.0
 40
1.0
100
AcDbArc
 50
351.2596462698384
 51
90.0
  0
ARC
  5
19A4
330
1CDF
100
AcDbEntity
  8
0
  6
HIDDEN
 48
10.0
100
AcDbCircle
 10
59.63620516662334
 20
172.3983042301085
 30
0.0
 40
1.0
100
AcDbArc
 50
332.4424458060022
 51
356.4829801359299
  0
ARC
  5
19A5
330
1CDF
100
AcDbEntity
  8
0
  6
HIDDEN
 48
10.0
100
AcDbCircle
 10
57.70766422698772
 20
169.6676927560353
 30
0.0
 40
2.932179969223588
100
AcDbArc
 50
171.6744818681028
 51
3.517019864070141
  0
ARC
  5
19A6
330
1CDF
100
AcDbEntity
  8
0
  6
HIDDEN
 48
10.0
100
AcDbCircle
 10
58.30638533478786
 20
169.0922633174164
 30
0.0
 40
2.5
100
AcDbArc
 50
27.55755419399778
 51
53.13010235415633
  0
ARC
  5
19A7
330
1CDF
100
AcDbEntity
  8
0
  6
HIDDEN
 48
10.0
100
AcDbCircle
 10
59.63620516662334
 20
169.786222404724
 30
0.0
 40
1.0
100
AcDbArc
 50
3.517019864069839
 51
27.55755419399763
  0
LINE
  5
19E1
330
1CDF
100
AcDbEntity
  8
0
  6
HIDDEN
 48
10.0
100
AcDbLine
 10
119.4082820245336
 20
195.909648872413
 30
0.0
 11
119.9082820245334
 21
195.909648872413
 31
0.0
  0
LINE
  5
19E2
330
1CDF
100
AcDbEntity
  8
0
  6
HIDDEN
 48
10.0
100
AcDbLine
 10
119.9082820245334
 20
180.909648872413
 30
0.0
 11
119.4082820245336
 21
180.909648872413
 31
0.0
  0
LINE
  5
19E3
330
1CDF
100
AcDbEntity
  8
0
  6
HIDDEN
 48
10.0
100
AcDbLine
 10
119.4082820245336
 20
180.909648872413
 30
0.0
 11
119.4082820245336
 21
195.909648872413
 31
0.0
  0
LINE
  5
19E4
330
1CDF
100
AcDbEntity
  8
0
  6
HIDDEN
 48
10.0
100
AcDbLine
 10
119.4082820245336
 20
214.909648872413
 30
0.0
 11
119.9082820245334
 21
214.909648872413
 31
0.0
  0
LINE
  5
19E5
330
1CDF
100
AcDbEntity
  8
0
  6
HIDDEN
 48
10.0
100
AcDbLine
 10
119.9082820245334
 20
199.909648872413
 30
0.0
 11
119.4082820245336
 21
199.909648872413
 31
0.0
  0
LINE
  5
19E6
330
1CDF
100
AcDbEntity
  8
0
  6
HIDDEN
 48
10.0
100
AcDbLine
 10
119.4082820245336
 20
199.909648872413
 30
0.0
 11
119.4082820245336
 21
214.909648872413
 31
0.0
  0
LINE
  5
1A16
330
1CDF
100
AcDbEntity
  8
0
100
AcDbLine
 10
131.3332820245336
 20
171.909648872413
 30
0.0
 11
131.3332820245336
 21
166.909648872413
 31
0.0
  0
LINE
  5
1A20
330
1CDF
100
AcDbEntity
  8
0
  6
Continuous
100
AcDbLine
 10
131.3332820245336
 20
168.909648872413
 30
0.0
 11
141.1131209055991
 21
168.909648872413
 31
0.0
  0
LINE
  5
1A21
330
1CDF
100
AcDbEntity
  8
0
  6
Continuous
100
AcDbLine
 10
126.3332820245335
 20
171.909648872413
 30
0.0
 11
131.3332820245336
 21
171.909648872413
 31
0.0
  0
LINE
  5
1A22
330
1CDF
100
AcDbEntity
  8
0
  6
Continuous
100
AcDbLine
 10
126.3332820245335
 20
166.909648872413
 30
0.0
 11
131.3332820245336
 21
166.909648872413
 31
0.0
  0
LINE
  5
1A23
330
1CDF
100
AcDbEntity
  8
0
  6
Continuous
100
AcDbLine
 10
131.3332820245336
 20
169.909648872413
 30
0.0
 11
140.6896806416677
 21
169.909648872413
 31
0.0
  0
LINE
  5
1A24
330
1CDF
100
AcDbEntity
  8
0
100
AcDbLine
 10
147.4768834073994
 20
171.409648872413
 30
0.0
 11
147.4768834073994
 21
167.409648872413
 31
0.0
  0
LINE
  5
1A25
330
1CDF
100
AcDbEntity
  8
0
  6
Continuous
100
AcDbLine
 10
154.9768834073994
 20
171.409648872413
 30
0.0
 11
147.4768834073994
 21
171.409648872413
 31
0.0
  0
LINE
  5
1A26
330
1CDF
100
AcDbEntity
  8
0
  6
Continuous
100
AcDbLine
 10
154.9768834073994
 20
167.409648872413
 30
0.0
 11
147.4768834073994
 21
167.409648872413
 31
0.0
  0
LINE
  5
1A27
330
1CDF
100
AcDbEntity
  8
0
100
AcDbLine
 10
154.9768834073994
 20
171.409648872413
 30
0.0
 11
154.9768834073994
 21
167.409648872413
 31
0.0
  0
LINE
  5
1A28
330
1CDF
100
AcDbEntity
  8
0
  6
Continuous
100
AcDbLine
 10
173.2839752192155
 20
168.909648872413
 30
0.0
 11
165.4768834073994
 21
168.909648872413
 31
0.0
  0
LINE
  5
1A29
330
1CDF
100
AcDbEntity
  8
0
  6
Continuous
100
AcDbLine
 10
173.2839752192155
 20
169.909648872413
 30
0.0
 11
165.4768834073994
 21
169.909648872413
 31
0.0
  0
LINE
  5
1A2A
330
1CDF
100
AcDbEntity
  8
0
100
AcDbLine
 10
165.4768834073994
 20
171.409648872413
 30
0.0
 11
165.4768834073994
 21
167.409648872413
 31
0.0
  0
LINE
  5
1A2B
330
1CDF
100
AcDbEntity
  8
0
  6
Continuous
100
AcDbLine
 10
157.9768834073992
 20
171.409648872413
 30
0.0
 11
165.4768834073994
 21
171.409648872413
 31
0.0
  0
LINE
  5
1A2C
330
1CDF
100
AcDbEntity
  8
0
  6
Continuous
100
AcDbLine
 10
157.9768834073992
 20
167.409648872413
 30
0.0
 11
165.4768834073994
 21
167.409648872413
 31
0.0
  0
LINE
  5
1A2D
330
1CDF
100
AcDbEntity
  8
0
100
AcDbLine
 10
157.9768834073992
 20
171.409648872413
 30
0.0
 11
157.9768834073992
 21
167.409648872413
 31
0.0
  0
LINE
  5
1A2E
330
1CDF
100
AcDbEntity
  8
0
  6
Continuous
100
AcDbLine
 10
141.5271387685814
 20
170.6568091890425
 30
0.0
 11
141.2823606669276
 21
170.2175721935689
 31
0.0
  0
LINE
  5
1A2F
330
1CDF
100
AcDbEntity
  8
0
  6
Continuous
100
AcDbLine
 10
141.3374983763223
 20
169.4024768885741
 30
0.0
 11
141.4768834073994
 21
169.2166301804714
 31
0.0
  0
LINE
  5
1A30
330
1CDF
100
AcDbEntity
  8
0
  6
Continuous
100
AcDbLine
 10
141.5009211281527
 20
168.3506050333026
 30
0.0
 11
141.2952651938577
 21
168.04212113186
 31
0.0
  0
ARC
  5
1A34
330
1CDF
100
AcDbEntity
  8
0
  6
Continuous
100
AcDbCircle
 10
141.9374983763223
 20
169.852476888574
 30
0.0
 40
0.75
100
AcDbArc
 50
150.8699396428597
 51
216.8698976458432
  0
ARC
  5
1A37
330
1CDF
100
AcDbEntity
  8
0
  6
Continuous
100
AcDbCircle
 10
140.8768834073994
 20
168.7666301804715
 30
0.0
 40
0.75
100
AcDbArc
 50
326.3099324740197
 51
36.86989764584328
  0
LINE
  5
1A38
330
1CDF
100
AcDbEntity
  8
0
  6
Continuous
100
AcDbLine
 10
141.0271387685813
 20
170.6568091890425
 30
0.0
 11
140.7823606669277
 21
170.2175721935689
 31
0.0
  0
LINE
  5
1A39
330
1CDF
100
AcDbEntity
  8
0
  6
Continuous
100
AcDbLine
 10
140.8374983763223
 20
169.4024768885741
 30
0.0
 11
140.9768834073991
 21
169.2166301804714
 31
0.0
  0
ARC
  5
1A3A
330
1CDF
100
AcDbEntity
  8
0
  6
Continuous
100
AcDbCircle
 10
141.4374983763222
 20
169.852476888574
 30
0.0
 40
0.75
100
AcDbArc
 50
150.8699396428597
 51
216.8698976458432
  0
LINE
  5
1A3B
330
1CDF
100
AcDbEntity
  8
0
  6
Continuous
100
AcDbLine
 10
141.0009211281527
 20
168.3506050333026
 30
0.0
 11
140.7952651938577
 21
168.04212113186
 31
0.0
  0
ARC
  5
1A3C
330
1CDF
100
AcDbEntity
  8
0
  6
Continuous
100
AcDbCircle
 10
140.3768834073994
 20
168.7666301804715
 30
0.0
 40
0.75
100
AcDbArc
 50
326.3099324740197
 51
36.86989764584328
  0
LINE
  5
1A3D
330
1CDF
100
AcDbEntity
  8
0
  6
Continuous
100
AcDbLine
 10
141.1896806416677
 20
169.909648872413
 30
0.0
 11
147.4768834073992
 21
169.909648872413
 31
0.0
  0
LINE
  5
1A3E
330
1CDF
100
AcDbEntity
  8
0
  6
Continuous
100
AcDbLine
 10
141.6131209055989
 20
168.909648872413
 30
0.0
 11
147.4768834073992
 21
168.909648872413
 31
0.0
  0
LINE
  5
1A3F
330
1CDF
100
AcDbEntity
  8
0
  6
Continuous
100
AcDbLine
 10
132.2165726493421
 20
158.9096488724129
 30
0.0
 11
141.1131209055991
 21
158.9096488724129
 31
0.0
  0
LINE
  5
1A40
330
1CDF
100
AcDbEntity
  8
0
  6
Continuous
100
AcDbLine
 10
141.6131209055989
 20
158.9096488724129
 30
0.0
 11
147.4768834073992
 21
158.9096488724129
 31
0.0
  0
LINE
  5
1A41
330
1CDF
100
AcDbEntity
  8
0
  6
Continuous
100
AcDbLine
 10
132.5689322474604
 20
159.9096488724129
 30
0.0
 11
140.6896806416677
 21
159.9096488724129
 31
0.0
  0
LINE
  5
1A42
330
1CDF
100
AcDbEntity
  8
0
  6
Continuous
100
AcDbLine
 10
141.1896806416677
 20
159.9096488724129
 30
0.0
 11
147.4768834073992
 21
159.9096488724129
 31
0.0
  0
LINE
  5
1A43
330
1CDF
100
AcDbEntity
  8
0
100
AcDbLine
 10
147.4768834073994
 20
161.4096488724129
 30
0.0
 11
147.4768834073994
 21
157.4096488724129
 31
0.0
  0
LINE
  5
1A44
330
1CDF
100
AcDbEntity
  8
0
  6
Continuous
100
AcDbLine
 10
154.9768834073994
 20
161.4096488724128
 30
0.0
 11
147.4768834073994
 21
161.4096488724129
 31
0.0
  0
LINE
  5
1A45
330
1CDF
100
AcDbEntity
  8
0
  6
Continuous
100
AcDbLine
 10
154.9768834073994
 20
157.4096488724129
 30
0.0
 11
147.4768834073994
 21
157.4096488724129
 31
0.0
  0
LINE
  5
1A46
330
1CDF
100
AcDbEntity
  8
0
100
AcDbLine
 10
154.9768834073994
 20
161.4096488724129
 30
0.0
 11
154.9768834073994
 21
157.4096488724129
 31
0.0
  0
LINE
  5
1A47
330
1CDF
100
AcDbEntity
  8
0
  6
Continuous
100
AcDbLine
 10
173.2839752192155
 20
158.9096488724129
 30
0.0
 11
165.4768834073994
 21
158.9096488724129
 31
0.0
  0
LINE
  5
1A48
330
1CDF
100
AcDbEntity
  8
0
  6
Continuous
100
AcDbLine
 10
173.2839752192155
 20
159.9096488724129
 30
0.0
 11
165.4768834073994
 21
159.9096488724129
 31
0.0
  0
LINE
  5
1A49
330
1CDF
100
AcDbEntity
  8
0
100
AcDbLine
 10
165.4768834073994
 20
161.4096488724129
 30
0.0
 11
165.4768834073994
 21
157.4096488724129
 31
0.0
  0
LINE
  5
1A4A
330
1CDF
100
AcDbEntity
  8
0
  6
Continuous
100
AcDbLine
 10
157.9768834073992
 20
161.4096488724129
 30
0.0
 11
165.4768834073994
 21
161.4096488724129
 31
0.0
  0
LINE
  5
1A4B
330
1CDF
100
AcDbEntity
  8
0
  6
Continuous
100
AcDbLine
 10
157.9768834073992
 20
157.4096488724129
 30
0.0
 11
165.4768834073994
 21
157.4096488724129
 31
0.0
  0
LINE
  5
1A4C
330
1CDF
100
AcDbEntity
  8
0
100
AcDbLine
 10
157.9768834073992
 20
161.4096488724129
 30
0.0
 11
157.9768834073992
 21
157.4096488724129
 31
0.0
  0
LINE
  5
1A4D
330
1CDF
100
AcDbEntity
  8
0
  6
Continuous
100
AcDbLine
 10
141.5271387685814
 20
160.6568091890424
 30
0.0
 11
141.2823606669276
 21
160.2175721935689
 31
0.0
  0
LINE
  5
1A4E
330
1CDF
100
AcDbEntity
  8
0
  6
Continuous
100
AcDbLine
 10
141.3374983763223
 20
159.4024768885741
 30
0.0
 11
141.4768834073994
 21
159.2166301804715
 31
0.0
  0
ARC
  5
1A4F
330
1CDF
100
AcDbEntity
  8
0
  6
Continuous
100
AcDbCircle
 10
141.9374983763223
 20
159.852476888574
 30
0.0
 40
0.75
100
AcDbArc
 50
150.8699396428597
 51
216.8698976458432
  0
LINE
  5
1A50
330
1CDF
100
AcDbEntity
  8
0
  6
Continuous
100
AcDbLine
 10
141.5009211281527
 20
158.3506050333025
 30
0.0
 11
141.2952651938577
 21
158.0421211318602
 31
0.0
  0
ARC
  5
1A51
330
1CDF
100
AcDbEntity
  8
0
  6
Continuous
100
AcDbCircle
 10
140.8768834073994
 20
158.7666301804716
 30
0.0
 40
0.75
100
AcDbArc
 50
326.3099324740197
 51
36.86989764584328
  0
LINE
  5
1A52
330
1CDF
100
AcDbEntity
  8
0
  6
Continuous
100
AcDbLine
 10
141.0271387685813
 20
160.6568091890424
 30
0.0
 11
140.7823606669277
 21
160.2175721935689
 31
0.0
  0
LINE
  5
1A53
330
1CDF
100
AcDbEntity
  8
0
  6
Continuous
100
AcDbLine
 10
140.8374983763223
 20
159.4024768885741
 30
0.0
 11
140.9768834073991
 21
159.2166301804715
 31
0.0
  0
ARC
  5
1A54
330
1CDF
100
AcDbEntity
  8
0
  6
Continuous
100
AcDbCircle
 10
141.4374983763222
 20
159.852476888574
 30
0.0
 40
0.75
100
AcDbArc
 50
150.8699396428597
 51
216.8698976458432
  0
LINE
  5
1A55
330
1CDF
100
AcDbEntity
  8
0
  6
Continuous
100
AcDbLine
 10
141.0009211281527
 20
158.3506050333025
 30
0.0
 11
140.7952651938577
 21
158.0421211318602
 31
0.0
  0
ARC
  5
1A56
330
1CDF
100
AcDbEntity
  8
0
  6
Continuous
100
AcDbCircle
 10
140.3768834073994
 20
158.7666301804716
 30
0.0
 40
0.75
100
AcDbArc
 50
326.3099324740197
 51
36.86989764584328
  0
LINE
  5
1A58
330
1CDF
100
AcDbEntity
  8
0
  6
Continuous
100
AcDbLine
 10
129.3642130512234
 20
166.909648872413
 30
0.0
 11
131.6271903358656
 21
160.5733124754149
 31
0.0
  0
LINE
  5
1A59
330
1CDF
100
AcDbEntity
  8
0
  6
Continuous
100
AcDbLine
 10
128.3023509978437
 20
166.909648872413
 30
0.0
 11
130.8039597819499
 21
159.9051442769155
 31
0.0
  0
ARC
  5
1A5A
330
1CDF
100
AcDbEntity
  8
0
  6
Continuous
100
AcDbCircle
 10
132.2165726493421
 20
160.4096488724129
 30
0.0
 40
1.5
100
AcDbArc
 50
199.6538240580532
 51
270.0
  0
ARC
  5
1A5B
330
1CDF
100
AcDbEntity
  8
0
  6
Continuous
100
AcDbCircle
 10
132.5689322474604
 20
160.9096488724129
 30
0.0
 40
1.0
100
AcDbArc
 50
199.6538240580532
 51
270.0
  0
LINE
  5
1A5C
330
1CDF
100
AcDbEntity
  8
0
100
AcDbLine
 10
15.65
 20
62.96466535574868
 30
0.0
 11
15.65
 21
26.96466535574865
 31
0.0
  0
LINE
  5
1A5D
330
1CDF
100
AcDbEntity
  8
0
100
AcDbLine
 10
15.65
 20
26.96466535574865
 30
0.0
 11
179.8999999999999
 21
26.96466535574858
 31
0.0
  0
LINE
  5
1A5E
330
1CDF
100
AcDbEntity
  8
0
100
AcDbLine
 10
15.65
 20
38.96466535574864
 30
0.0
 11
179.8999999999999
 21
38.96466535574857
 31
0.0
  0
LINE
  5
1A5F
330
1CDF
100
AcDbEntity
  8
0
100
AcDbLine
 10
15.65
 20
44.96466535574865
 30
0.0
 11
179.8999999999999
 21
44.96466535574859
 31
0.0
  0
LINE
  5
1A60
330
1CDF
100
AcDbEntity
  8
0
100
AcDbLine
 10
45.65
 20
50.96466535574864
 30
0.0
 11
179.8999999999999
 21
50.96466535574861
 31
0.0
  0
LINE
  5
1A61
330
1CDF
100
AcDbEntity
  8
0
100
AcDbLine
 10
45.65
 20
56.96466535574865
 30
0.0
 11
179.8999999999999
 21
56.9646653557486
 31
0.0
  0
LINE
  5
1A62
330
1CDF
100
AcDbEntity
  8
0
100
AcDbLine
 10
45.65
 20
62.96466535574865
 30
0.0
 11
45.65
 21
26.96466535574865
 31
0.0
  0
LINE
  5
1A63
330
1CDF
100
AcDbEntity
  8
0
100
AcDbLine
 10
179.8999999999999
 20
62.96466535574855
 30
0.0
 11
179.8999999999999
 21
26.9646653557486
 31
0.0
  0
TEXT
  5
1A64
330
1CDF
100
AcDbEntity
  8
0
100
AcDbText
 10
18.45502776698185
 20
58.53966535574866
 30
0.0
 40
3.5
  1
仕　　　様
  7
BIGFONT
100
AcDbText
  0
LINE
  5
1A65
330
1CDF
100
AcDbEntity
  8
0
100
AcDbLine
 10
15.65
 20
32.96466535574865
 30
0.0
 11
179.8999999999999
 21
32.9646653557486
 31
0.0
  0
LINE
  5
1A66
330
1CDF
100
AcDbEntity
  8
0
100
AcDbLine
 10
15.65
 20
62.96466535574865
 30
0.0
 11
179.8999999999999
 21
62.96466535574855
 31
0.0
  0
TEXT
  5
1A68
330
1CDF
100
AcDbEntity
  8
0
100
AcDbText
 10
18.55502776698184
 20
40.26466535574868
 30
0.0
 40
3.5
  1
機　　　能
  7
BIGFONT
100
AcDbText
  0
TEXT
  5
1A69
330
1CDF
100
AcDbEntity
  8
0
100
AcDbText
 10
18.55502776698184
 20
34.26466535574868
 30
0.0
 40
3.5
  1
動作環境条件
  7
BIGFONT
100
AcDbText
  0
TEXT
  5
1A6A
330
1CDF
100
AcDbEntity
  8
0
100
AcDbText
 10
47.55502776698185
 20
58.26466535574861
 30
0.0
 40
3.5
  1
樹脂フイルム式、3キー
  7
BIGFONT
100
AcDbText
  0
TEXT
  5
1A6B
330
1CDF
100
AcDbEntity
  8
0
100
AcDbText
 10
47.55502776698185
 20
52.26466535574864
 30
0.0
 40
3.5
  1
タクトスイッチ耐久性　100万回／2kgf
  7
BIGFONT
100
AcDbText
  0
TEXT
  5
1A6C
330
1CDF
100
AcDbEntity
  8
0
100
AcDbText
 10
47.55502776698185
 20
46.26466535574861
 30
0.0
 40
3.5
  1
暗証番号設定（1～8桁）
  7
BIGFONT
100
AcDbText
  0
TEXT
  5
1A6E
330
1CDF
100
AcDbEntity
  8
0
100
AcDbText
 10
47.55502776698185
 20
40.26466535574868
 30
0.0
 40
3.5
  1
並列使用可能
  7
BIGFONT
100
AcDbText
  0
TEXT
  5
1A6F
330
1CDF
100
AcDbEntity
  8
0
100
AcDbText
 10
47.55502776698185
 20
34.26466535574868
 30
0.0
 40
3.5
  1
-20～+60℃
  7
BIGFONT
100
AcDbText
  0
LINE
  5
1A71
330
1CDF
100
AcDbEntity
  8
0
100
AcDbLine
 10
95.65000000000001
 20
38.96466535574862
 30
0.0
 11
95.65000000000001
 21
32.96466535574866
 31
0.0
  0
LINE
  5
1A72
330
1CDF
100
AcDbEntity
  8
0
100
AcDbLine
 10
125.65
 20
38.96466535574862
 30
0.0
 11
125.65
 21
32.96466535574866
 31
0.0
  0
TEXT
  5
1A73
330
1CDF
100
AcDbEntity
  8
0
100
AcDbText
 10
98.55502776698187
 20
34.26466535574868
 30
0.0
 40
3.5
  1
電 気 特 性
  7
BIGFONT
100
AcDbText
  0
TEXT
  5
1A74
330
1CDF
100
AcDbEntity
  8
0
100
AcDbText
 10
127.5550277669816
 20
34.26466535574868
 30
0.0
 40
3.5
  1
DC24V　20mA
  7
BIGFONT
100
AcDbText
  0
LINE
  5
1AA2
330
1CDF
100
AcDbEntity
  8
0
  6
Continuous
100
AcDbLine
 10
52.12436860346293
 20
167.9853441740696
 30
0.0
 11
39.24957569919568
 21
120.7291684751573
 31
0.0
  0
CIRCLE
  5
1AA3
330
1CDF
100
AcDbEntity
  8
0
  6
Continuous
100
AcDbCircle
 10
38.66048970815575
 20
118.2995640433288
 30
0.0
 40
2.5
  0
TEXT
  5
1AA4
330
1CDF
100
AcDbEntity
  8
0
100
AcDbText
 10
158.4261383944786
 20
184.5511039201697
 30
0.0
 40
3.5
  1
4
  7
BIGFONT
100
AcDbText
  0
CIRCLE
  5
1AA5
330
1CDF
100
AcDbEntity
  8
0
  6
Continuous
100
AcDbCircle
 10
147.7950756382328
 20
144.2588015857393
 30
0.0
 40
2.5
  0
CIRCLE
  5
1AA7
330
1CDF
100
AcDbEntity
  8
0
  6
Continuous
100
AcDbCircle
 10
159.8635355663317
 20
144.277504708889
 30
0.0
 40
2.5
  0
LINE
  5
1AA9
330
1CDF
100
AcDbEntity
  8
0
100
AcDbLine
 10
88.78539211325572
 20
102.9843778777795
 30
0.0
 11
88.78539211325572
 21
66.98437787777952
 31
0.0
  0
LINE
  5
1AAA
330
1CDF
100
AcDbEntity
  8
0
100
AcDbLine
 10
88.78539211325572
 20
66.98437787777952
 30
0.0
 11
180.4103921132556
 21
66.98437787777952
 31
0.0
  0
LINE
  5
1AAB
330
1CDF
100
AcDbEntity
  8
0
100
AcDbLine
 10
88.78539211325572
 20
72.9843778777796
 30
0.0
 11
180.4103921132556
 21
72.9843778777796
 31
0.0
  0
LINE
  5
1AAC
330
1CDF
100
AcDbEntity
  8
0
100
AcDbLine
 10
88.78539211325572
 20
78.98437787777959
 30
0.0
 11
180.4103921132556
 21
78.98437787777959
 31
0.0
  0
LINE
  5
1AAD
330
1CDF
100
AcDbEntity
  8
0
100
AcDbLine
 10
88.78539211325572
 20
96.9843778777796
 30
0.0
 11
180.4103921132556
 21
96.9843778777796
 31
0.0
  0
LINE
  5
1AAE
330
1CDF
100
AcDbEntity
  8
0
100
AcDbLine
 10
88.78539211325572
 20
102.9843778777795
 30
0.0
 11
180.4103921132556
 21
102.9843778777795
 31
0.0
  0
LINE
  5
1AAF
330
1CDF
100
AcDbEntity
  8
0
100
AcDbLine
 10
100.7853921132556
 20
102.9843778777795
 30
0.0
 11
100.7853921132556
 21
66.98437787777952
 31
0.0
  0
LINE
  5
1AB0
330
1CDF
100
AcDbEntity
  8
0
100
AcDbLine
 10
180.4103921132556
 20
102.9843778777795
 30
0.0
 11
180.4103921132556
 21
66.98437787777952
 31
0.0
  0
TEXT
  5
1AB2
330
1CDF
100
AcDbEntity
  8
0
100
AcDbText
 10
102.6904198802375
 20
86.2843778777796
 30
0.0
 40
3.5
  1
操作スイッチ
  7
BIGFONT
100
AcDbText
  0
TEXT
  5
1AB3
330
1CDF
100
AcDbEntity
  8
0
100
AcDbText
 10
102.6904198802375
 20
68.28437787777963
 30
0.0
 40
3.5
  1
オプションコネクタ
  7
BIGFONT
100
AcDbText
  0
TEXT
  5
1AB4
330
1CDF
100
AcDbEntity
  8
0
100
AcDbText
 10
90.94041988023752
 20
98.28437787777961
 30
0.0
 40
3.5
  1
番号
  7
BIGFONT
100
AcDbText
  0
TEXT
  5
1AB5
330
1CDF
100
AcDbEntity
  8
0
100
AcDbText
 10
112.6904198802374
 20
97.98653685104106
 30
0.0
 40
3.5
  1
　名　称
  7
BIGFONT
100
AcDbText
  0
TEXT
  5
1AB6
330
1CDF
100
AcDbEntity
  8
0
100
AcDbText
 10
93.97924807381482
 20
86.23618261564267
 30
0.0
 40
3.5
  1
2
  7
BIGFONT
100
AcDbText
  0
CIRCLE
  5
1AB7
330
1CDF
100
AcDbEntity
  8
0
  6
Continuous
100
AcDbCircle
 10
94.78539211325569
 20
87.9843778777796
 30
0.0
 40
2.5
  0
TEXT
  5
1AB8
330
1CDF
100
AcDbEntity
  8
0
100
AcDbText
 10
93.97924807381482
 20
80.23618261564275
 30
0.0
 40
3.5
  1
3
  7
BIGFONT
100
AcDbText
  0
CIRCLE
  5
1AB9
330
1CDF
100
AcDbEntity
  8
0
  6
Continuous
100
AcDbCircle
 10
94.78539211325569
 20
81.9843778777796
 30
0.0
 40
2.5
  0
TEXT
  5
1ABA
330
1CDF
100
AcDbEntity
  8
0
100
AcDbText
 10
93.97924807381482
 20
74.23618261564273
 30
0.0
 40
3.5
  1
4
  7
BIGFONT
100
AcDbText
  0
CIRCLE
  5
1ABB
330
1CDF
100
AcDbEntity
  8
0
  6
Continuous
100
AcDbCircle
 10
94.78539211325569
 20
75.98437787777959
 30
0.0
 40
2.5
  0
CIRCLE
  5
1ABC
330
1CDF
100
AcDbEntity
  8
0
  6
Continuous
100
AcDbCircle
 10
94.78539211325569
 20
93.98437787777959
 30
0.0
 40
2.5
  0
TEXT
  5
1ABD
330
1CDF
100
AcDbEntity
  8
0
100
AcDbText
 10
93.70637871116397
 20
92.23618261564267
 30
0.0
 40
3.5
  1
1
  7
BIGFONT
100
AcDbText
  0
TEXT
  5
1ABE
330
1CDF
100
AcDbEntity
  8
0
100
AcDbText
 10
102.6904198802375
 20
91.98653685104096
 30
0.0
 40
3.5
  1
カバープレート
  7
BIGFONT
100
AcDbText
  0
LINE
  5
1ABF
330
1CDF
100
AcDbEntity
  8
0
100
AcDbLine
 10
88.78539211325572
 20
90.98437787777958
 30
0.0
 11
180.4103921132556
 21
90.98437787777935
 31
0.0
  0
TEXT
  5
1AC1
330
1CDF
100
AcDbEntity
  8
0
100
AcDbText
 10
91.47924807381482
 20
68.23618261564277
 30
0.0
 40
3.5
  1
5
  7
BIGFONT
100
AcDbText
  0
LINE
  5
1AC2
330
1CDF
100
AcDbEntity
  8
0
100
AcDbLine
 10
88.78539211325572
 20
84.98437787777959
 30
0.0
 11
180.4103921132556
 21
84.9843778777795
 31
0.0
  0
TEXT
  5
1AEF
330
1CDF
100
AcDbEntity
  8
0
100
AcDbText
 10
102.6904198802375
 20
80.28437787777972
 30
0.0
 40
3.5
  1
接続コネクタ
  7
BIGFONT
100
AcDbText
  0
TEXT
  5
1AF0
330
1CDF
100
AcDbEntity
  8
0
100
AcDbText
 10
102.6904198802375
 20
74.28437787777972
 30
0.0
 40
3.5
  1
付属コネクタ
  7
BIGFONT
100
AcDbText
  0
TEXT
  5
1AF1
330
1CDF
100
AcDbEntity
  8
0
100
AcDbText
 10
96.47924807381482
 20
68.23618261564277
 30
0.0
 40
3.5
  1
6
  7
BIGFONT
100
AcDbText
  0
CIRCLE
  5
1AF3
330
1CDF
100
AcDbEntity
  8
0
  6
Continuous
100
AcDbCircle
 10
92.28539211325569
 20
69.98437787777965
 30
0.0
 40
2.5
  0
CIRCLE
  5
1AF5
330
1CDF
100
AcDbEntity
  8
0
  6
Continuous
100
AcDbCircle
 10
97.28539211325569
 20
69.98437787777965
 30
0.0
 40
2.5
  0
TEXT
  5
1AFA
330
1CDF
100
AcDbEntity
  8
0
100
AcDbText
 10
18.45502776698185
 20
64.53966535574863
 30
0.0
 40
3.5
  1
3key-WP
  7
BIGFONT
100
AcDbText
  0
POLYLINE
  5
1C54
330
1CDF
100
AcDbEntity
  8
0
100
AcDb3dPolyline
 66
     1
 10
0.0
 20
0.0
 30
0.0
 70
     8
  0
VERTEX
  5
1C55
330
1C54
100
AcDbEntity
  8
0
100
AcDbVertex
100
AcDb3dPolylineVertex
 10
134.5096470968616
 20
168.9096488724131
 30
0.0
 70
    32
  0
VERTEX
  5
1C56
330
1C54
100
AcDbEntity
  8
0
100
AcDbVertex
100
AcDb3dPolylineVertex
 10
132.8852820245336
 20
130.1126488724131
 30
0.0
 70
    32
  0
VERTEX
  5
1C57
330
1C54
100
AcDbEntity
  8
0
100
AcDbVertex
100
AcDb3dPolylineVertex
 10
171.4412820245336
 20
130.1126488724131
 30
0.0
 70
    32
  0
SEQEND
  5
1C58
330
1C54
100
AcDbEntity
  8
0
  0
TEXT
  5
1B12
330
1CDF
100
AcDbEntity
  8
0
100
AcDbText
 10
139.5400957219891
 20
130.8848800815378
 30
0.0
 40
3.5
  1
線長は50mm
  7
BIGFONT
100
AcDbText
  0
TEXT
  5
1B13
330
1CDF
100
AcDbEntity
  8
0
100
AcDbText
 10
133.6142283084092
 20
125.8268045482426
 30
0.0
 40
3.5
  1
（コネクタ含まず）
  7
BIGFONT
100
AcDbText
  0
LINE
  5
1D5E
330
1CDF
100
AcDbEntity
  8
0
100
AcDbLine
 10
4.19999999999996
 20
16.27499999999997
 30
0.0
 11
189.4249999999999
 21
16.27499999999997
 31
0.0
  0
LINE
  5
1D5F
330
1CDF
100
AcDbEntity
  8
0
100
AcDbLine
 10
4.974999999999965
 20
24.27499999999997
 30
0.0
 11
189.4249999999999
 21
24.27499999999997
 31
0.0
  0
LINE
  5
1D60
330
1CDF
100
AcDbEntity
  8
0
100
AcDbLine
 10
104.4749999999998
 20
24.27499999999997
 30
0.0
 11
104.4749999999998
 21
8.274999999999977
 31
0.0
  0
LINE
  5
1D61
330
1CDF
100
AcDbEntity
  8
0
100
AcDbLine
 10
94.44999999999996
 20
24.27499999999997
 30
0.0
 11
94.44999999999996
 21
8.274999999999977
 31
0.0
  0
LINE
  5
1D62
330
1CDF
100
AcDbEntity
  8
0
100
AcDbLine
 10
14.82499999999996
 20
24.27499999999997
 30
0.0
 11
14.82499999999996
 21
8.274999999999977
 31
0.0
  0
INSERT
  5
1D63
330
1CDF
100
AcDbEntity
  8
0
  6
Continuous
100
AcDbBlockReference
  2
waku
 10
0.0499999999999545
 20
0.0
 30
0.0
  0
LINE
  5
1D64
330
1CDF
100
AcDbEntity
  8
0
100
AcDbLine
 10
4.19999999999996
 20
24.27499999999997
 30
0.0
 11
189.4249999999999
 21
24.27499999999997
 31
0.0
  0
TEXT
  5
1D65
330
1CDF
100
AcDbEntity
  8
0
100
AcDbText
 10
31.82499999999996
 20
18.74999999999997
 30
0.0
 40
3.674999999999998
  1
単位 mm
  7
BIGFONT
100
AcDbText
  0
TEXT
  5
1D66
330
1CDF
100
AcDbEntity
  8
0
100
AcDbText
 10
46.09999999999993
 20
18.74999999999997
 30
0.0
 40
3.674999999999998
  1
　
  7
BIGFONT
100
AcDbText
  0
TEXT
  5
1D67
330
1CDF
100
AcDbEntity
  8
0
100
AcDbText
 10
114.6249999999999
 20
9.474999999999962
 30
0.0
 40
3.524999999999999
  1
　
  7
BIGFONT
100
AcDbText
  0
TEXT
  5
1D68
330
1CDF
100
AcDbEntity
  8
0
100
AcDbText
 10
121.4249999999999
 20
10.47499999999996
 30
0.0
 40
3.674999999999998
  1
　日本電子工業株式会社
  7
BIGFONT
100
AcDbText
  0
LINE
  5
1D69
330
1CDF
100
AcDbEntity
  8
0
100
AcDbLine
 10
4.19999999999996
 20
270.025
 30
0.0
 11
189.4249999999999
 21
270.025
 31
0.0
  0
TEXT
  5
1D6A
330
1CDF
100
AcDbEntity
  8
0
100
AcDbText
 10
31.82499999999996
 20
10.47499999999996
 30
0.0
 40
3.674999999999998
  1
尺度　　　１／１
  7
BIGFONT
100
AcDbText
  0
LINE
  5
1D6B
330
1CDF
100
AcDbEntity
  8
0
100
AcDbLine
 10
159.4999999999997
 20
24.27499999999997
 30
0.0
 11
159.4999999999997
 21
16.27499999999997
 31
0.0
  0
LINE
  5
1D6C
330
1CDF
100
AcDbEntity
  8
0
100
AcDbLine
 10
144.4749999999999
 20
24.27499999999997
 30
0.0
 11
144.4749999999999
 21
16.27499999999997
 31
0.0
  0
TEXT
  5
1D6D
330
1CDF
100
AcDbEntity
  8
0
100
AcDbText
 10
163.3467056960535
 20
18.74999999999997
 30
0.0
 40
3.674999999999998
  1
SW-0032
  7
BIGFONT
100
AcDbText
  0
TEXT
  5
1D6E
330
1CDF
100
AcDbEntity
  8
0
100
AcDbText
 10
147.0324564216773
 20
18.74999999999997
 30
0.0
 40
3.674999999999998
  1
図番
  7
BIGFONT
100
AcDbText
  0
DIMENSION
  5
1D97
330
1CDF
100
AcDbEntity
  8
0
  6
Continuous
100
AcDbDimension
  2
*D6
 10
131.3332820245336
 20
182.6908988724129
 30
0.0
 11
128.8332820245335
 21
185.4408988724129
 31
0.0
 70
    32
 71
     5
 42
5.000000000000169
  3
STANDARD
100
AcDbAlignedDimension
 13
126.3332820245335
 23
171.909648872413
 33
0.0
 14
131.3332820245336
 24
171.909648872413
 34
0.0
100
AcDbRotatedDimension
1001
ACAD
1000
DSTYLE
1002
{
1070
   271
1070
     0
1070
   279
1070
     0
1070
   340
1005
1CCE
1002
}
  0
TEXT
  5
1DD9
330
1CDF
100
AcDbEntity
  8
0
100
AcDbText
 10
174.7579719967903
 20
167.8894561031568
 30
0.0
 40
3.5
  1
2Pr
  7
BIGFONT
100
AcDbText
  0
TEXT
  5
1DDA
330
1CDF
100
AcDbEntity
  8
0
100
AcDbText
 10
174.7579719967903
 20
157.8894561031567
 30
0.0
 40
3.5
  1
2Pr
  7
BIGFONT
100
AcDbText
  0
LINE
  5
1E3C
330
1CDF
100
AcDbEntity
  8
0
  6
HIDDEN
100
AcDbLine
 10
133.833282095801
 20
240.4096490149476
 30
0.0
 11
128.8332819532663
 21
240.4096488724129
 31
0.0
  0
ARC
  5
1E3D
330
1CDF
100
AcDbEntity
  8
0
  6
HIDDEN
100
AcDbCircle
 10
128.8332820245336
 20
237.9096488724129
 30
0.0
 40
2.5
100
AcDbArc
 50
90.00000163332606
 51
180.0
  0
LINE
  5
1E3E
330
1CDF
100
AcDbEntity
  8
0
  6
HIDDEN
100
AcDbLine
 10
138.8332820245336
 20
246.4096483623095
 30
0.0
 11
177.833282024534
 21
246.409648362307
 31
0.0
  0
LINE
  5
1E3F
330
1CDF
100
AcDbEntity
  8
0
  6
HIDDEN
100
AcDbLine
 10
128.833282095801
 20
144.4096488724129
 30
0.0
 11
133.8332819532663
 21
144.4096490149475
 31
0.0
  0
ARC
  5
1E40
330
1CDF
100
AcDbEntity
  8
0
  6
HIDDEN
100
AcDbCircle
 10
128.8332820245336
 20
146.9096488724129
 30
0.0
 40
2.5
100
AcDbArc
 50
180.0
 51
270.000001633326
  0
LINE
  5
1E41
330
1CDF
100
AcDbEntity
  8
0
  6
HIDDEN
100
AcDbLine
 10
138.8332820245336
 20
138.4096483623095
 30
0.0
 11
177.8332820245333
 21
138.409648362307
 31
0.0
  0
LINE
  5
1E42
330
1CDF
100
AcDbEntity
  8
0
  6
HIDDEN
100
AcDbLine
 10
138.8332820245336
 20
247.4096488724129
 30
0.0
 11
138.8332820245336
 21
137.4096488724129
 31
0.0
  0
ARC
  5
1E43
330
1CDF
100
AcDbEntity
  8
0
  6
HIDDEN
100
AcDbCircle
 10
133.8332820245336
 20
141.9096490149476
 30
0.0
 40
2.5
100
AcDbArc
 50
0.0
 51
90.00000163332606
  0
ARC
  5
1E44
330
1CDF
100
AcDbEntity
  8
0
  6
HIDDEN
100
AcDbCircle
 10
133.8332820245336
 20
242.9096490149476
 30
0.0
 40
2.5
100
AcDbArc
 50
270.000001633326
 51
0.0
  0
LINE
  5
1E45
330
1CDF
100
AcDbEntity
  8
0
  6
HIDDEN
100
AcDbLine
 10
182.8332820245336
 20
241.4096483623071
 30
0.0
 11
182.8332820245336
 21
143.409648362307
 31
0.0
  0
ARC
  5
1E46
330
1CDF
100
AcDbEntity
  8
0
  6
HIDDEN
100
AcDbCircle
 10
177.8332820245336
 20
143.409648362307
 30
0.0
 40
5.0
100
AcDbArc
 50
269.9999999999934
 51
0.0
  0
ARC
  5
1E47
330
1CDF
100
AcDbEntity
  8
0
  6
HIDDEN
100
AcDbCircle
 10
177.8332820245336
 20
241.4096483623071
 30
0.0
 40
5.0
100
AcDbArc
 50
0.0
 51
89.99999999999673
  0
LINE
  5
1E48
330
1CDF
100
AcDbEntity
  8
0
  6
HIDDEN
 48
10.0
100
AcDbLine
 10
126.3332820245336
 20
237.9096488724129
 30
0.0
 11
126.3332820245336
 21
146.9096488724129
 31
0.0
  0
LINE
  5
1E49
330
1CDF
100
AcDbEntity
  8
0
  6
HIDDEN
100
AcDbLine
 10
136.3332820245336
 20
247.4096488724129
 30
0.0
 11
138.8332820245336
 21
247.4096488724129
 31
0.0
  0
LINE
  5
1E4A
330
1CDF
100
AcDbEntity
  8
0
  6
Continuous
100
AcDbLine
 10
136.3332820245336
 20
137.4096488724129
 30
0.0
 11
138.8332820245336
 21
137.4096488724129
 31
0.0
  0
LINE
  5
1E4B
330
1CDF
100
AcDbEntity
  8
0
  6
HIDDEN
100
AcDbLine
 10
136.3332820245336
 20
247.4096488724129
 30
0.0
 11
136.3332820245336
 21
137.4096488724129
 31
0.0
  0
TEXT
  5
1EF5
330
1CDF
100
AcDbEntity
  8
0
100
AcDbText
 10
132.8069131390709
 20
259.9125291454563
 30
0.0
 40
3.5
  1
4×4用アウトレットBOX浅型対応
 41
0.8
  7
BIGFONT
100
AcDbText
  0
POLYLINE
  5
1EF6
330
1CDF
100
AcDbEntity
  8
0
100
AcDb3dPolyline
 66
     1
 10
0.0
 20
0.0
 30
0.0
 70
     8
  0
VERTEX
  5
1EF7
330
1EF6
100
AcDbEntity
  8
0
100
AcDbVertex
100
AcDb3dPolylineVertex
 10
143.6171587564599
 20
246.4096483623091
 30
0.0
 70
    32
  0
VERTEX
  5
1EF8
330
1EF6
100
AcDbEntity
  8
0
100
AcDbVertex
100
AcDb3dPolylineVertex
 10
130.89712695213
 20
258.5220494304976
 30
0.0
 70
    32
  0
VERTEX
  5
1EF9
330
1EF6
100
AcDbEntity
  8
0
100
AcDbVertex
100
AcDb3dPolylineVertex
 10
187.6805600619343
 20
258.5220494304976
 30
0.0
 70
    32
  0
SEQEND
  5
1EFA
330
1EF6
100
AcDbEntity
  8
0
  0
TEXT
  5
1EFB
330
1CDF
100
AcDbEntity
  8
0
100
AcDbText
 10
141.0595840136297
 20
254.1236254036784
 30
0.0
 40
3.5
  1
(1ヶ用塗りしろ)
 41
0.8
  7
BIGFONT
100
AcDbText
  0
DIMENSION
  5
2057
330
1CDF
100
AcDbEntity
  8
0
100
AcDbDimension
  2
*D12
 10
10.44432895721547
 20
258.4624488724128
 30
0.0
 11
8.069328957215429
 21
192.4624488724128
 31
0.0
 70
    32
 71
     5
 42
132.0
  3
ISO-25
100
AcDbAlignedDimension
 13
25.02085587918307
 23
126.4624488724127
 33
0.0
 14
24.62485587918243
 24
258.4624488724128
 34
0.0
 50
90.0
100
AcDbRotatedDimension
1001
ACAD
1000
DSTYLE
1002
{
1070
    41
1040
1.5
1070
   140
1040
3.5
1002
}
  0
LINE
  5
2058
330
1CDF
100
AcDbEntity
  8
0
 62
     7
100
AcDbLine
 10
103.946082024534
 20
129.709648872413
 30
0.0
 11
102.3100820245341
 21
238.4151488724129
 31
0.0
  0
LINE
  5
2059
330
1CDF
100
AcDbEntity
  8
0
  6
DOT
 62
     7
100
AcDbLine
 10
24.62485587918199
 20
236.3656488724133
 30
0.0
 11
24.62485587918199
 21
132.164848872413
 31
0.0
  0
LINE
  5
205A
330
1CDF
100
AcDbEntity
  8
0
100
AcDbLine
 10
21.72085587918243
 20
253.4200488724128
 30
0.0
 11
21.72085587918243
 21
131.1880488724128
 31
0.0
  0
LINE
  5
205B
330
1CDF
100
AcDbEntity
  8
0
100
AcDbLine
 10
19.7936558791828
 20
253.4200488724128
 30
0.0
 11
19.7936558791828
 21
130.6213972797319
 31
0.0
  0
LINE
  5
205C
330
1CDF
100
AcDbEntity
  8
0
  6
DOT
 62
     7
100
AcDbLine
 10
89.75125587918205
 20
236.3656488724133
 30
0.0
 11
89.75125587918205
 21
132.164848872413
 31
0.0
  0
LINE
  5
205D
330
1CDF
100
AcDbEntity
  8
0
100
AcDbLine
 10
92.8664558791827
 20
253.4200488724128
 30
0.0
 11
92.8664558791827
 21
131.1880488724128
 31
0.0
  0
LINE
  5
205E
330
1CDF
100
AcDbEntity
  8
0
100
AcDbLine
 10
94.79365587918278
 20
131.1880488724128
 30
0.0
 11
94.79365587918278
 21
253.4200488724128
 31
0.0
  0
LINE
  5
205F
330
1CDF
100
AcDbEntity
  8
0
100
AcDbLine
 10
22.6976558791828
 20
255.3736488724126
 30
0.0
 11
22.69765587918235
 21
129.0496488724127
 31
0.0
  0
LINE
  5
2060
330
1CDF
100
AcDbEntity
  8
0
 62
     7
100
AcDbLine
 10
57.29365587918278
 20
262.5147689262167
 30
0.0
 11
57.293655879183
 21
122.4890544332301
 31
0.0
  0
LINE
  5
2061
330
1CDF
100
AcDbEntity
  8
0
100
AcDbLine
 10
127.310082024534
 20
259.8649102794721
 30
0.0
 11
127.3100820245344
 21
123.9080488724128
 31
0.0
  0
LINE
  5
2062
330
1CDF
100
AcDbEntity
  8
0
 62
     7
100
AcDbLine
 10
109.2524820245339
 20
252.969265023085
 30
0.0
 11
109.2524820245339
 21
128.2840488724129
 31
0.0
  0
LINE
  5
2063
330
1CDF
100
AcDbEntity
  8
0
100
AcDbLine
 10
126.3332820245336
 20
258.4624488724127
 30
0.0
 11
126.3332820245336
 21
123.9080488724128
 31
0.0
  0
LINE
  5
2064
330
1CDF
100
AcDbEntity
  8
0
100
AcDbLine
 10
118.1100820245341
 20
256.535248872413
 30
0.0
 11
118.1100820245345
 21
128.2840488724129
 31
0.0
  0
LINE
  5
2065
330
1CDF
100
AcDbEntity
  8
0
100
AcDbLine
 10
121.6100820245341
 20
258.4624488724127
 30
0.0
 11
121.6100820245341
 21
126.5249488724126
 31
0.0
  0
LINE
  5
2066
330
1CDF
100
AcDbEntity
  8
0
100
AcDbLine
 10
91.70485587918141
 20
255.3736488724126
 30
0.0
 11
91.70485587918188
 21
129.0496488724127
 31
0.0
  0
LINE
  5
2067
330
1CDF
100
AcDbEntity
  8
0
 62
     7
100
AcDbLine
 10
100.022144382696
 20
192.5019116797235
 30
0.0
 11
15.13414438269566
 21
192.5019116797235
 31
0.0
  0
DIMENSION
  5
2068
330
1CDF
100
AcDbEntity
  8
0
100
AcDbDimension
  2
*D8
 10
94.79365587918278
 20
108.423799715792
 30
0.0
 11
57.29365587918278
 21
110.798799715792
 31
0.0
 70
    32
 71
     5
 42
74.99999999999997
  3
ISO-25
100
AcDbAlignedDimension
 13
19.7936558791828
 23
131.1880488724127
 33
0.0
 14
94.79365587918278
 24
131.1880488724127
 34
0.0
100
AcDbRotatedDimension
1001
ACAD
1000
DSTYLE
1002
{
1070
    41
1040
1.5
1070
   140
1040
3.5
1002
}
  0
LINE
  5
2069
330
1CDF
100
AcDbEntity
  8
0
  6
DOT
 62
     7
100
AcDbLine
 10
87.8240558791824
 20
130.211248872413
 30
0.0
 11
37.05925587918208
 21
130.211248872413
 31
0.0
  0
LINE
  5
206A
330
1CDF
100
AcDbEntity
  8
0
  6
DOT
 62
     7
100
AcDbLine
 10
26.76325587918225
 20
130.211248872413
 30
0.0
 11
77.52805587918306
 21
130.211248872413
 31
0.0
  0
LINE
  5
206B
330
1CDF
100
AcDbEntity
  8
0
 62
     7
100
AcDbLine
 10
37.61365587918251
 20
129.6304488724126
 30
0.0
 11
77.29045587918268
 21
129.6304488724126
 31
0.0
  0
ARC
  5
206C
330
1CDF
100
AcDbEntity
  8
0
100
AcDbCircle
 10
24.38242638910358
 20
131.0734084876807
 30
0.0
 40
4.610979172022998
100
AcDbArc
 50
185.6257019096991
 51
270.1668743582877
  0
ARC
  5
206D
330
1CDF
100
AcDbEntity
  8
0
100
AcDbCircle
 10
24.6248558791797
 20
131.1880488724113
 30
0.0
 40
2.903999999997266
100
AcDbArc
 50
179.9999999999696
 51
270.0000000000455
  0
LINE
  5
206E
330
1CDF
100
AcDbEntity
  8
0
100
AcDbLine
 10
24.62485587918199
 20
128.2840488724129
 30
0.0
 11
36.91829873632539
 21
128.284048872413
 31
0.0
  0
LINE
  5
206F
330
1CDF
100
AcDbEntity
  8
0
  6
DOT
 62
     7
100
AcDbLine
 10
25.2056558791817
 20
130.7920488724129
 30
0.0
 11
22.69765587918235
 21
129.0496488724127
 31
0.0
  0
ELLIPSE
  5
2070
330
1CDF
100
AcDbEntity
  8
0
  6
DOT
 62
     7
100
AcDbEllipse
 10
26.76325587918313
 20
132.1648488724131
 30
0.0
 11
-2.006746916642599
 21
0.877904006287121
 31
0.0
210
0.0
220
0.0
230
1.0
 40
0.8749429861910147
 41
0.4636519085505891
 42
1.936358736941803
  0
ELLIPSE
  5
2071
330
1CDF
100
AcDbEntity
  8
0
 62
     7
100
AcDbEllipse
 10
37.58858562149612
 20
128.8003371620159
 30
0.0
 11
-0.5973633600000067
 21
0.5973633600000067
 31
0.0
210
0.0
220
0.0
230
1.0
 40
0.9687500000002048
 41
-0.8314176535894841
 42
0.8833445308800982
  0
LINE
  5
2072
330
1CDF
100
AcDbEntity
  8
0
100
AcDbLine
 10
77.66901302204018
 20
128.284048872413
 30
0.0
 11
89.75125587918205
 21
128.2840488724129
 31
0.0
  0
ELLIPSE
  5
2073
330
1CDF
100
AcDbEntity
  8
0
  6
DOT
 62
     7
100
AcDbEllipse
 10
87.8240558791824
 20
132.1648488724131
 30
0.0
 11
-1.38140428799995
 21
1.38140428799995
 31
0.0
210
0.0
220
0.0
230
1.0
 40
0.9864860000000581
 41
2.44516534641017
 42
3.825747653589827
  0
LINE
  5
2074
330
1CDF
100
AcDbEntity
  8
0
 62
     7
100
AcDbLine
 10
77.87125587918287
 20
128.864848872413
 30
0.0
 11
76.84165587918299
 21
125.9080488724128
 31
0.0
  0
ARC
  5
2075
330
1CDF
100
AcDbEntity
  8
0
 62
     7
100
AcDbCircle
 10
77.32272135088692
 20
129.0518226785332
 30
0.0
 40
0.5795250925610839
100
AcDbArc
 50
341.1777792848614
 51
93.1916336216274
  0
ARC
  5
2076
330
1CDF
100
AcDbEntity
  8
0
100
AcDbCircle
 10
89.50338483205518
 20
131.5871179516789
 30
0.0
 40
5.305301488332701
100
AcDbArc
 50
284.99410053948
 51
355.6860903318577
  0
ARC
  5
2077
330
1CDF
100
AcDbEntity
  8
0
100
AcDbCircle
 10
89.58874261310871
 20
131.5812612851099
 30
0.0
 40
3.301214966658919
100
AcDbArc
 50
272.8217154437981
 51
353.1591769301574
  0
LINE
  5
2078
330
1CDF
100
AcDbEntity
  8
0
  6
DOT
 62
     7
100
AcDbLine
 10
89.17045587918279
 20
130.7920488724129
 30
0.0
 11
91.70485587918188
 21
129.0496488724127
 31
0.0
  0
LINE
  5
2079
330
1CDF
100
AcDbEntity
  8
0
100
AcDbLine
 10
109.2524820245339
 20
128.2840488724129
 30
0.0
 11
121.6100820245341
 21
128.3465488724129
 31
0.0
  0
LINE
  5
207A
330
1CDF
100
AcDbEntity
  8
0
100
AcDbLine
 10
106.1636820245344
 20
125.9080488724128
 30
0.0
 11
106.1636820245344
 21
129.0496488724127
 31
0.0
  0
LINE
  5
207B
330
1CDF
100
AcDbEntity
  8
0
100
AcDbLine
 10
109.2524820245339
 20
128.2840488724129
 30
0.0
 11
107.5100820245352
 21
125.9080488724128
 31
0.0
  0
LINE
  5
207C
330
1CDF
100
AcDbEntity
  8
0
100
AcDbLine
 10
109.2524820245339
 20
128.2840488724129
 30
0.0
 11
104.025282024535
 21
129.6304488724126
 31
0.0
  0
LINE
  5
207D
330
1CDF
100
AcDbEntity
  8
0
100
AcDbLine
 10
89.75125587918205
 20
256.535248872413
 30
0.0
 11
24.62485587918199
 21
256.535248872413
 31
0.0
  0
LINE
  5
207E
330
1CDF
100
AcDbEntity
  8
0
100
AcDbLine
 10
89.75125587918205
 20
258.4624488724127
 30
0.0
 11
24.62485587918199
 21
258.4624488724127
 31
0.0
  0
LINE
  5
207F
330
1CDF
100
AcDbEntity
  8
0
  6
DOT
 62
     7
100
AcDbLine
 10
26.76325587918225
 20
238.4776488724129
 30
0.0
 11
87.8240558791824
 21
238.4776488724129
 31
0.0
  0
ARC
  5
2080
330
1CDF
100
AcDbEntity
  8
0
100
AcDbCircle
 10
24.93979401511686
 20
253.3250788259418
 30
0.0
 40
5.147014379603291
100
AcDbArc
 50
93.50803468306658
 51
178.942747921688
  0
ARC
  5
2081
330
1CDF
100
AcDbEntity
  8
0
100
AcDbCircle
 10
25.02119248402758
 20
253.2546232238295
 30
0.0
 40
3.304479891069718
100
AcDbArc
 50
96.88859243556358
 51
177.1305151905075
  0
LINE
  5
2082
330
1CDF
100
AcDbEntity
  8
0
100
AcDbLine
 10
41.33605587918217
 20
256.535248872413
 30
0.0
 11
41.33605587918217
 21
250.5160488724129
 31
0.0
  0
LINE
  5
2083
330
1CDF
100
AcDbEntity
  8
0
100
AcDbLine
 10
40.14805587918206
 20
254.9776488724131
 30
0.0
 11
40.14805587918206
 21
250.5160488724129
 31
0.0
  0
LINE
  5
2084
330
1CDF
100
AcDbEntity
  8
0
100
AcDbLine
 10
30.27445587918171
 20
254.9776488724131
 30
0.0
 11
30.27445587918171
 21
250.5160488724129
 31
0.0
  0
LINE
  5
2085
330
1CDF
100
AcDbEntity
  8
0
100
AcDbLine
 10
29.29765587918225
 20
255.3736488724126
 30
0.0
 11
29.29765587918225
 21
250.5160488724129
 31
0.0
  0
LINE
  5
2086
330
1CDF
100
AcDbEntity
  8
0
  6
DOT
 62
     7
100
AcDbLine
 10
25.76978393138759
 20
238.3591078834334
 30
0.0
 11
22.69765587918235
 21
255.3736488724126
 31
0.0
  0
LINE
  5
2087
330
1CDF
100
AcDbEntity
  8
0
100
AcDbLine
 10
41.33605587918217
 20
250.5160488724129
 30
0.0
 11
29.29765587918225
 21
250.5160488724129
 31
0.0
  0
ELLIPSE
  5
2088
330
1CDF
100
AcDbEntity
  8
0
  6
DOT
 62
     7
100
AcDbEllipse
 10
26.52700896360897
 20
236.5550313326358
 30
0.0
 11
-0.9774570063712356
 21
1.695925631019622
 31
0.0
210
0.0
220
0.0
230
1.0
 40
0.9719902360408278
 41
-0.6588191172028473
 42
1.157724177354229
  0
LINE
  5
2089
330
1CDF
100
AcDbEntity
  8
0
100
AcDbLine
 10
40.14805587918206
 20
254.9776488724131
 30
0.0
 11
30.27445587918171
 21
254.9776488724131
 31
0.0
  0
LINE
  5
208A
330
1CDF
100
AcDbEntity
  8
0
100
AcDbLine
 10
29.29765587918225
 20
255.3736488724126
 30
0.0
 11
22.6976558791828
 21
255.3736488724126
 31
0.0
  0
LINE
  5
208B
330
1CDF
100
AcDbEntity
  8
0
100
AcDbLine
 10
74.22805587918287
 20
254.9776488724131
 30
0.0
 11
84.31285587918203
 21
254.9776488724131
 31
0.0
  0
LINE
  5
208C
330
1CDF
100
AcDbEntity
  8
0
100
AcDbLine
 10
73.25125587918204
 20
250.5160488724129
 30
0.0
 11
85.28965587918241
 21
250.5160488724129
 31
0.0
  0
LINE
  5
208D
330
1CDF
100
AcDbEntity
  8
0
100
AcDbLine
 10
73.25125587918204
 20
256.535248872413
 30
0.0
 11
73.25125587918204
 21
250.5160488724129
 31
0.0
  0
LINE
  5
208E
330
1CDF
100
AcDbEntity
  8
0
100
AcDbLine
 10
74.22805587918287
 20
254.9776488724131
 30
0.0
 11
74.22805587918287
 21
250.5160488724129
 31
0.0
  0
LINE
  5
208F
330
1CDF
100
AcDbEntity
  8
0
100
AcDbLine
 10
84.31285587918203
 20
254.9776488724131
 30
0.0
 11
84.31285587918203
 21
250.5160488724129
 31
0.0
  0
LINE
  5
2090
330
1CDF
100
AcDbEntity
  8
0
100
AcDbLine
 10
85.28965587918241
 20
255.3736488724126
 30
0.0
 11
85.28965587918241
 21
250.5160488724129
 31
0.0
  0
LINE
  5
2091
330
1CDF
100
AcDbEntity
  8
0
  6
DOT
 62
     7
100
AcDbLine
 10
88.77445587918215
 20
238.1080488724126
 30
0.0
 11
91.70485587918141
 21
255.3736488724126
 31
0.0
  0
ELLIPSE
  5
2092
330
1CDF
100
AcDbEntity
  8
0
  6
DOT
 62
     7
100
AcDbEllipse
 10
87.8240558791824
 20
236.3656488724131
 30
0.0
 11
-0.8176474791646047
 21
1.99514437567308
 31
0.0
210
0.0
220
0.0
230
1.0
 40
0.8790756814117026
 41
4.366601783959488
 42
5.846947389687971
  0
LINE
  5
2093
330
1CDF
100
AcDbEntity
  8
0
100
AcDbLine
 10
85.28965587918241
 20
255.3736488724126
 30
0.0
 11
91.70485587918141
 21
255.3736488724126
 31
0.0
  0
ARC
  5
2094
330
1CDF
100
AcDbEntity
  8
0
100
AcDbCircle
 10
89.13725140118208
 20
252.8060443944124
 30
0.0
 40
3.779413649991796
100
AcDbArc
 50
9.349726749294999
 51
80.65027325071037
  0
ARC
  5
2095
330
1CDF
100
AcDbEntity
  8
0
100
AcDbCircle
 10
89.26184795526864
 20
252.9306409484981
 30
0.0
 40
5.553415077505876
100
AcDbArc
 50
5.055885792160976
 51
84.94411420785308
  0
ARC
  5
2096
330
1CDF
100
AcDbEntity
  8
0
100
AcDbCircle
 10
113.714054001574
 20
249.7984797908134
 30
0.0
 40
5.575265400938309
100
AcDbArc
 50
38.96075197900673
 51
139.5954555845607
  0
LINE
  5
2097
330
1CDF
100
AcDbEntity
  8
0
100
AcDbLine
 10
109.4685624375197
 20
253.4122569934652
 30
0.0
 11
102.3100820245341
 21
238.4151488724129
 31
0.0
  0
LINE
  5
2098
330
1CDF
100
AcDbEntity
  8
0
100
AcDbLine
 10
118.1100820245345
 20
256.535248872413
 30
0.0
 11
121.6100820245341
 21
256.535248872413
 31
0.0
  0
LINE
  5
2099
330
1CDF
100
AcDbEntity
  8
0
100
AcDbLine
 10
121.6100820245341
 20
258.4624488724127
 30
0.0
 11
126.3332820245336
 21
258.4624488724127
 31
0.0
  0
LINE
  5
209A
330
1CDF
100
AcDbEntity
  8
0
  6
Continuous
100
AcDbLine
 10
37.74565587918212
 20
125.9080488724128
 30
0.0
 11
76.84165587918299
 21
125.9080488724128
 31
0.0
  0
LINE
  5
209B
330
1CDF
100
AcDbEntity
  8
0
 62
     7
100
AcDbLine
 10
36.76226285357896
 20
128.732151920301
 30
0.0
 11
37.74565587918258
 21
125.9080488724128
 31
0.0
  0
LINE
  5
209C
330
1CDF
100
AcDbEntity
  8
0
  6
Continuous
100
AcDbLine
 10
24.39585587918262
 20
126.4624488724128
 30
0.0
 11
37.55260587918226
 21
126.4624488724127
 31
0.0
  0
LINE
  5
209D
330
1CDF
100
AcDbEntity
  8
0
  6
Continuous
100
AcDbLine
 10
77.03470587918286
 20
126.4624488724126
 30
0.0
 11
90.8759702429195
 21
126.4624488724126
 31
0.0
  0
LINE
  5
209E
330
1CDF
100
AcDbEntity
  8
0
100
AcDbLine
 10
106.1636820245344
 20
125.9080488724128
 30
0.0
 11
107.5100820245352
 21
125.9080488724128
 31
0.0
  0
LINE
  5
209F
330
1CDF
100
AcDbEntity
  8
0
100
AcDbLine
 10
121.6100820245341
 20
126.5249488724126
 30
0.0
 11
126.3332820245336
 21
126.4624488724126
 31
0.0
  0
LINE
  5
20A0
330
1CDF
100
AcDbEntity
  8
0
100
AcDbLine
 10
121.6100820245345
 20
126.5249488724126
 30
0.0
 11
126.3332820245341
 21
126.4624488724126
 31
0.0
  0
CIRCLE
  5
20A1
330
1CDF
100
AcDbEntity
  8
0
  6
Continuous
100
AcDbCircle
 10
113.7842975091646
 20
250.3733026705595
 30
0.0
 40
2.5
  0
ARC
  5
20A2
330
1CDF
100
AcDbEntity
  8
0
  6
Continuous
100
AcDbCircle
 10
111.0461727691152
 20
254.9564952752856
 30
0.0
 40
1.75
100
AcDbArc
 50
11.0579002459183
 51
180.0
  0
LINE
  5
20A3
330
1CDF
100
AcDbEntity
  8
0
  6
Continuous
100
AcDbLine
 10
109.2486581156026
 20
252.9614255297757
 30
0.0
 11
109.2961727691152
 21
254.9564952752856
 31
0.0
  0
LINE
  5
20A4
330
1CDF
100
AcDbEntity
  8
0
  6
Continuous
100
AcDbLine
 10
55.79365587918323
 20
123.9080488724128
 30
0.0
 11
58.79365587918278
 21
123.9080488724127
 31
0.0
  0
LINE
  5
20A5
330
1CDF
100
AcDbEntity
  8
0
 62
     7
100
AcDbLine
 10
55.29365587918324
 20
125.9080488724129
 30
0.0
 11
55.29365587918324
 21
124.4080488724127
 31
0.0
  0
LINE
  5
20A6
330
1CDF
100
AcDbEntity
  8
0
 62
     7
100
AcDbLine
 10
59.29365587918232
 20
125.9080488724129
 30
0.0
 11
59.29365587918278
 21
124.4080488724127
 31
0.0
  0
ARC
  5
20A7
330
1CDF
100
AcDbEntity
  8
0
  6
Continuous
100
AcDbCircle
 10
55.79365587918323
 20
124.4080488724127
 30
0.0
 40
0.5
100
AcDbArc
 50
180.0
 51
270.0
  0
ARC
  5
20A8
330
1CDF
100
AcDbEntity
  8
0
  6
Continuous
100
AcDbCircle
 10
58.79365587918278
 20
124.4080488724127
 30
0.0
 40
0.5
100
AcDbArc
 50
270.0
 51
0.0
  0
LINE
  5
20A9
330
1CDF
100
AcDbEntity
  8
0
  6
Continuous
100
AcDbLine
 10
126.3332820245341
 20
123.9080488724128
 30
0.0
 11
127.3100820245344
 21
123.9080488724129
 31
0.0
  0
DIMENSION
  5
20AA
330
1CDF
100
AcDbEntity
  8
0
  6
Continuous
100
AcDbDimension
  2
*D9
 10
127.310082024534
 20
262.4069729796532
 30
0.0
 11
111.0372349341342
 21
265.3810238266327
 31
0.0
 70
   160
 71
     5
 42
24.99999999999993
  3
STANDARD
100
AcDbAlignedDimension
 13
102.3100820245341
 23
238.4151488724129
 33
0.0
 14
127.310082024534
 24
256.2603475792911
 34
0.0
100
AcDbRotatedDimension
1001
ACAD
1000
DSTYLE
1002
{
1070
   271
1070
     0
1070
   340
1005
1CCE
1002
}
  0
DIMENSION
  5
20AB
330
1CDF
100
AcDbEntity
  8
0
  6
Continuous
100
AcDbDimension
  2
*D10
 10
127.3100820245344
 20
108.423799715792
 30
0.0
 11
133.0600820245344
 21
108.423799715792
 31
0.0
 70
   160
 71
     5
 42
9.199999999999931
  3
STANDARD
100
AcDbAlignedDimension
 13
118.1100820245345
 23
128.2840488724129
 33
0.0
 14
127.3100820245344
 24
123.9080488724128
 34
0.0
100
AcDbRotatedDimension
1001
ACAD
1000
DSTYLE
1002
{
1070
    48
1040
0.000000001
1070
   147
1040
1.0
1070
    72
1070
     0
1070
    71
1070
     0
1070
   271
1070
     1
1070
   279
1070
     0
1070
   340
1005
1CCE
1002
}
  0
DIMENSION
  5
20AC
330
1CDF
100
AcDbEntity
  8
0
  6
Continuous
100
AcDbDimension
  2
*D11
 10
127.3100820245344
 20
115.2576558971283
 30
0.0
 11
124.4600820245345
 21
118.0076558971283
 31
0.0
 70
    32
 71
     5
 42
5.699999999999931
  3
STANDARD
100
AcDbAlignedDimension
 13
121.6100820245345
 23
126.5249488724126
 33
0.0
 14
127.3100820245344
 24
123.9080488724129
 34
0.0
100
AcDbRotatedDimension
1001
ACAD
1000
DSTYLE
1002
{
1070
   271
1070
     1
1070
   279
1070
     0
1070
   340
1005
1CCE
1002
}
  0
TEXT
  5
20B1
330
1CDF
100
AcDbEntity
  8
0
100
AcDbText
 10
59.83345052686605
 20
110.9914302406295
 30
0.0
 40
3.0
  1
±1.6
  7
BIGFONT
100
AcDbText
  0
TEXT
  5
20B2
330
1CDF
100
AcDbEntity
  8
0
100
AcDbText
 10
135.8100820245345
 20
110.4665908755373
 30
0.0
 40
3.0
  1
±1
  7
BIGFONT
100
AcDbText
  0
TEXT
  5
20B3
330
1CDF
100
AcDbEntity
  8
0
100
AcDbText
 10
128.0329637516542
 20
117.2928517240797
 30
0.0
 40
3.0
  1
±0.6
  7
BIGFONT
100
AcDbText
  0
TEXT
  5
20B4
330
1CDF
100
AcDbEntity
  8
0
100
AcDbText
 10
114.0702595661046
 20
264.0329384493574
 30
0.0
 40
3.0
  1
±1.6
  7
BIGFONT
100
AcDbText
  0
TEXT
  5
20B5
330
1CDF
100
AcDbEntity
  8
0
100
AcDbText
 10
9.227758148692146
 20
197.5016530910074
 30
0.0
 40
3.0
  1
±1.6
 50
90.0
  7
BIGFONT
100
AcDbText
  0
TEXT
  5
247C
330
1CDF
100
AcDbEntity
  8
0
100
AcDbText
 10
18.55502776698184
 20
28.26466535574867
 30
0.0
 40
3.5
  1
防滴プレート
  7
BIGFONT
100
AcDbText
  0
TEXT
  5
247D
330
1CDF
100
AcDbEntity
  8
0
100
AcDbText
 10
47.55502776698185
 20
28.26466535574867
 30
0.0
 40
3.5
  1
材質：アルミダイキャスト製
  7
BIGFONT
100
AcDbText
  0
MTEXT
  5
24C3
330
1CDF
100
AcDbEntity
  8
0
  6
Continuous
100
AcDbMText
 10
96.81249999999995
 20
275.0499999999999
 30
0.0
 40
3.5
 41
100.0
 71
     5
 72
     5
  1
３キースイッチ（防滴プレート付）
  7
BIGFONT
 73
     1
 44
1.0
1001
ACAD
1000
MTEXTBEGIN
1070
    73
1070
     1
1070
    44
1040
1.0
1070
    74
1070
     0
1000
MTEXTEND
  0
MTEXT
  5
24C5
330
1CDF
100
AcDbEntity
  8
0
  6
Continuous
100
AcDbMText
 10
184.4249999999999
 20
275.0499999999999
 30
0.0
 40
3.5
 41
50.0
 71
     6
 72
     5
  1
WP0200-03
  7
BIGFONT
 73
     1
 44
1.0
1001
ACAD
1000
MTEXTBEGIN
1070
    73
1070
     1
1070
    44
1040
1.0
1070
    74
1070
     0
1000
MTEXTEND
  0
ENDSEC
  0
SECTION
  2
OBJECTS
  0
DICTIONARY
  5
1CC9
330
0
100
AcDbDictionary
281
     1
  3
ACAD_COLOR
350
1CD8
  3
ACAD_GROUP
350
1CCA
  3
ACAD_LAYOUT
350
1CD6
  3
ACAD_MATERIAL
350
1CD7
  3
ACAD_MLEADERSTYLE
350
1F4E
  3
ACAD_MLINESTYLE
350
1CD3
  3
ACAD_PLOTSETTINGS
350
1CD5
  3
ACAD_PLOTSTYLENAME
350
1CCB
  3
ACAD_SCALELIST
350
1F2C
  3
ACAD_TABLESTYLE
350
1CD9
  3
ACAD_VISUALSTYLE
350
1F1B
  3
ACDB_RECOMPOSE_DATA
350
1F63
  3
AcDbVariableDictionary
350
1D75
  3
DWGPROPS
350
24D2
  0
DICTIONARY
  5
1F65
330
1CC5
100
AcDbDictionary
280
     1
281
     1
  0
DICTIONARY
  5
1E26
330
1CBF
100
AcDbDictionary
280
     1
281
     1
  3
ACAD_LAYERSTATES
360
1E27
  0
DICTIONARY
  5
1F57
330
1CCD
100
AcDbDictionary
280
     1
281
     1
  3
ADSK_XREC_LAYER_RECONCILED
360
1F58
  0
DICTIONARY
  5
1F59
330
1CEF
100
AcDbDictionary
280
     1
281
     1
  3
ADSK_XREC_LAYER_RECONCILED
360
1F5A
  0
DICTIONARY
  5
1F5B
330
1CF0
100
AcDbDictionary
280
     1
281
     1
  3
ADSK_XREC_LAYER_RECONCILED
360
1F5C
  0
DICTIONARY
  5
1F5D
330
1CF1
100
AcDbDictionary
280
     1
281
     1
  3
ADSK_XREC_LAYER_RECONCILED
360
1F5E
  0
DICTIONARY
  5
1F5F
330
1CF2
100
AcDbDictionary
280
     1
281
     1
  3
ADSK_XREC_LAYER_RECONCILED
360
1F60
  0
DICTIONARY
  5
1CD8
102
{ACAD_REACTORS
330
1CC9
102
}
330
1CC9
100
AcDbDictionary
281
     1
  0
DICTIONARY
  5
1CCA
102
{ACAD_REACTORS
330
1CC9
102
}
330
1CC9
100
AcDbDictionary
281
     1
  0
DICTIONARY
  5
1CD6
102
{ACAD_REACTORS
330
1CC9
102
}
330
1CC9
100
AcDbDictionary
281
     1
  3
Model
350
1CE2
  3
レイアウト1
350
1CDE
  0
DICTIONARY
  5
1CD7
102
{ACAD_REACTORS
330
1CC9
102
}
330
1CC9
100
AcDbDictionary
281
     1
  3
ByBlock
350
1F0B
  3
ByLayer
350
1F03
  3
Global
350
1F13
  0
DICTIONARY
  5
1F4E
102
{ACAD_REACTORS
330
1CC9
102
}
330
1CC9
100
AcDbDictionary
281
     1
  3
Standard
350
1F4F
  0
DICTIONARY
  5
1CD3
102
{ACAD_REACTORS
330
1CC9
102
}
330
1CC9
100
AcDbDictionary
281
     1
  3
Standard
350
1CD4
  0
DICTIONARY
  5
1CD5
102
{ACAD_REACTORS
330
1CC9
102
}
330
1CC9
100
AcDbDictionary
281
     1
  0
ACDBDICTIONARYWDFLT
  5
1CCB
102
{ACAD_REACTORS
330
1CC9
102
}
330
1CC9
100
AcDbDictionary
281
     1
  3
Normal
350
1CCC
100
AcDbDictionaryWithDefault
340
1CCC
  0
DICTIONARY
  5
1F2C
102
{ACAD_REACTORS
330
1CC9
102
}
330
1CC9
100
AcDbDictionary
281
     1
  3
A0
350
1F2D
  3
A1
350
1F2E
  3
A2
350
1F2F
  3
A3
350
1F30
  3
A4
350
1F31
  3
A5
350
1F32
  3
A6
350
1F33
  3
A7
350
1F34
  3
A8
350
1F35
  3
A9
350
1F36
  3
B0
350
1F37
  3
B1
350
1F38
  3
B2
350
1F39
  3
B3
350
1F3A
  3
B4
350
1F3B
  3
B5
350
1F3C
  3
B6
350
1F3D
  3
B7
350
1F3E
  3
B8
350
1F3F
  3
B9
350
1F40
  3
C0
350
1F41
  3
C1
350
1F42
  3
C2
350
1F43
  3
C3
350
1F44
  3
C4
350
1F45
  3
C5
350
1F46
  3
C6
350
1F47
  3
C7
350
1F48
  3
C8
350
1F49
  3
C9
350
1F4A
  3
D0
350
1F4B
  3
D1
350
1F4C
  3
D2
350
1F4D
  0
DICTIONARY
  5
1CD9
102
{ACAD_REACTORS
330
1CC9
102
}
330
1CC9
100
AcDbDictionary
281
     1
  3
Standard
350
1CDA
  0
DICTIONARY
  5
1F1B
102
{ACAD_REACTORS
330
1CC9
102
}
330
1CC9
100
AcDbDictionary
281
     1
  3
2dWireframe
350
1F21
  3
3D Hidden
350
1F23
  3
3dWireframe
350
1F22
  3
Basic
350
1F20
  3
Brighten
350
1F27
  3
ColorChange
350
1F2B
  3
Conceptual
350
1F24
  3
Dim
350
1F26
  3
Facepattern
350
1F2A
  3
Flat
350
1F1C
  3
FlatWithEdges
350
1F1D
  3
Gouraud
350
1F1E
  3
GouraudWithEdges
350
1F1F
  3
Linepattern
350
1F29
  3
Realistic
350
1F25
  3
Thicken
350
1F28
  0
XRECORD
  5
1F63
102
{ACAD_REACTORS
330
1CC9
102
}
330
1CC9
100
AcDbXrecord
280
     1
 90
        1
330
1CDA
  0
DICTIONARY
  5
1D75
102
{ACAD_REACTORS
330
1CC9
102
}
330
1CC9
100
AcDbDictionary
281
     1
  3
CANNOSCALE
350
1F77
  3
CMLEADERSTYLE
350
1F76
  3
CTABLESTYLE
350
1D76
  3
DIMASSOC
350
1D77
  3
INDEXCTL
350
1F79
  3
LIGHTINGUNITS
350
24C8
  3
MSLTSCALE
350
24C7
  3
PROJECTNAME
350
1D78
  3
SORTENTS
350
1F78
  0
XRECORD
  5
24D2
102
{ACAD_REACTORS
330
1CC9
102
}
330
1CC9
100
AcDbXrecord
280
     1
  1
DWGPROPS COOKIE
  2

  3

  4

  6

  7

  8
Takeshi_Nakagawa
  9

300
=
301
=
302
=
303
=
304
=
305
=
306
=
307
=
308
=
309
=
 40
0.6943297569444445
 41
2453573.411721273
 42
2456553.557999248
  1

 90
        0
  0
DICTIONARY
  5
1E27
102
{ACAD_REACTORS
330
1E26
102
}
330
1E26
100
AcDbDictionary
281
     1
  0
XRECORD
  5
1F58
102
{ACAD_REACTORS
330
1F57
102
}
330
1F57
100
AcDbXrecord
280
     1
290
     1
  0
XRECORD
  5
1F5A
102
{ACAD_REACTORS
330
1F59
102
}
330
1F59
100
AcDbXrecord
280
     1
290
     1
  0
XRECORD
  5
1F5C
102
{ACAD_REACTORS
330
1F5B
102
}
330
1F5B
100
AcDbXrecord
280
     1
290
     1
  0
XRECORD
  5
1F5E
102
{ACAD_REACTORS
330
1F5D
102
}
330
1F5D
100
AcDbXrecord
280
     1
290
     1
  0
XRECORD
  5
1F60
102
{ACAD_REACTORS
330
1F5F
102
}
330
1F5F
100
AcDbXrecord
280
     1
290
     1
  0
LAYOUT
  5
1CE2
102
{ACAD_XDICTIONARY
360
24D6
102
}
102
{ACAD_REACTORS
330
1CD6
102
}
330
1CD6
100
AcDbPlotSettings
  1

  2
RICOH imagio Color 3100P-V
  4

  6

 40
0.0
 41
0.0
 42
0.0
 43
0.0
 44
0.0
 45
0.0
 46
0.0
 47
0.0
 48
0.0
 49
0.0
140
0.0
141
0.0
142
1.0
143
1.0
 70
  1712
 72
     0
 73
     0
 74
     0
  7

 75
     0
147
1.0
148
0.0
149
0.0
100
AcDbLayout
  1
Model
 70
     1
 71
     0
 10
0.0
 20
0.0
 11
12.0
 21
9.0
 12
0.0
 22
0.0
 32
0.0
 14
0.0
 24
0.0
 34
0.0
 15
0.0
 25
0.0
 35
0.0
146
0.0
 13
0.0
 23
0.0
 33
0.0
 16
1.0
 26
0.0
 36
0.0
 17
0.0
 27
1.0
 37
0.0
 76
     0
330
1CDF
331
24BB
  0
LAYOUT
  5
1CDE
102
{ACAD_XDICTIONARY
360
24D4
102
}
102
{ACAD_REACTORS
330
1CD6
102
}
330
1CD6
100
AcDbPlotSettings
  1

  2
RICOH imagio Color 3100P-V
  4

  6

 40
0.0
 41
0.0
 42
0.0
 43
0.0
 44
0.0
 45
0.0
 46
0.0
 47
0.0
 48
0.0
 49
0.0
140
0.0
141
0.0
142
1.0
143
1.0
 70
   688
 72
     0
 73
     0
 74
     5
  7

 75
    16
147
1.0
148
0.0
149
0.0
100
AcDbLayout
  1
レイアウト1
 70
     1
 71
     1
 10
0.0
 20
0.0
 11
12.0
 21
9.0
 12
0.0
 22
0.0
 32
0.0
 14
1.000000000000000E+20
 24
1.000000000000000E+20
 34
1.000000000000000E+20
 15
-1.000000000000000E+20
 25
-1.000000000000000E+20
 35
-1.000000000000000E+20
146
0.0
 13
0.0
 23
0.0
 33
0.0
 16
1.0
 26
0.0
 36
0.0
 17
0.0
 27
1.0
 37
0.0
 76
     0
330
1CDB
  0
MATERIAL
  5
1F0B
102
{ACAD_XDICTIONARY
360
1F0C
102
}
102
{ACAD_REACTORS
330
1CD7
102
}
330
1CD7
100
AcDbMaterial
  1
ByBlock
 72
     0
 43
0.0208333333333333
 43
0.0
 43
0.0
 43
0.0
 43
0.0
 43
0.0208333333333333
 43
0.0
 43
0.0
 43
0.0
 43
0.0
 43
1.0
 43
0.0
 43
0.0
 43
0.0
 43
0.0
 43
1.0
 77
     0
 47
0.0208333333333333
 47
0.0
 47
0.0
 47
0.0
 47
0.0
 47
0.0208333333333333
 47
0.0
 47
0.0
 47
0.0
 47
0.0
 47
1.0
 47
0.0
 47
0.0
 47
0.0
 47
0.0
 47
1.0
171
     0
 49
0.0208333333333333
 49
0.0
 49
0.0
 49
0.0
 49
0.0
 49
0.0208333333333333
 49
0.0
 49
0.0
 49
0.0
 49
0.0
 49
1.0
 49
0.0
 49
0.0
 49
0.0
 49
0.0
 49
1.0
175
     0
142
0.0208333333333333
142
0.0
142
0.0
142
0.0
142
0.0
142
0.0208333333333333
142
0.0
142
0.0
142
0.0
142
0.0
142
1.0
142
0.0
142
0.0
142
0.0
142
0.0
142
1.0
179
     0
144
0.0208333333333333
144
0.0
144
0.0
144
0.0
144
0.0
144
0.0208333333333333
144
0.0
144
0.0
144
0.0
144
0.0
144
1.0
144
0.0
144
0.0
144
0.0
144
0.0
144
1.0
147
0.0208333333333333
147
0.0
147
0.0
147
0.0
147
0.0
147
0.0208333333333333
147
0.0
147
0.0
147
0.0
147
0.0
147
1.0
147
0.0
147
0.0
147
0.0
147
0.0
147
1.0
  0
MATERIAL
  5
1F03
102
{ACAD_XDICTIONARY
360
1F04
102
}
102
{ACAD_REACTORS
330
1CD7
102
}
330
1CD7
100
AcDbMaterial
  1
ByLayer
 72
     0
 43
0.0208333333333333
 43
0.0
 43
0.0
 43
0.0
 43
0.0
 43
0.0208333333333333
 43
0.0
 43
0.0
 43
0.0
 43
0.0
 43
1.0
 43
0.0
 43
0.0
 43
0.0
 43
0.0
 43
1.0
 77
     0
 47
0.0208333333333333
 47
0.0
 47
0.0
 47
0.0
 47
0.0
 47
0.0208333333333333
 47
0.0
 47
0.0
 47
0.0
 47
0.0
 47
1.0
 47
0.0
 47
0.0
 47
0.0
 47
0.0
 47
1.0
171
     0
 49
0.0208333333333333
 49
0.0
 49
0.0
 49
0.0
 49
0.0
 49
0.0208333333333333
 49
0.0
 49
0.0
 49
0.0
 49
0.0
 49
1.0
 49
0.0
 49
0.0
 49
0.0
 49
0.0
 49
1.0
175
     0
142
0.0208333333333333
142
0.0
142
0.0
142
0.0
142
0.0
142
0.0208333333333333
142
0.0
142
0.0
142
0.0
142
0.0
142
1.0
142
0.0
142
0.0
142
0.0
142
0.0
142
1.0
179
     0
144
0.0208333333333333
144
0.0
144
0.0
144
0.0
144
0.0
144
0.0208333333333333
144
0.0
144
0.0
144
0.0
144
0.0
144
1.0
144
0.0
144
0.0
144
0.0
144
0.0
144
1.0
147
0.0208333333333333
147
0.0
147
0.0
147
0.0
147
0.0
147
0.0208333333333333
147
0.0
147
0.0
147
0.0
147
0.0
147
1.0
147
0.0
147
0.0
147
0.0
147
0.0
147
1.0
  0
MATERIAL
  5
1F13
102
{ACAD_XDICTIONARY
360
1F14
102
}
102
{ACAD_REACTORS
330
1CD7
102
}
330
1CD7
100
AcDbMaterial
  1
Global
 72
     0
 43
0.0208333333333333
 43
0.0
 43
0.0
 43
0.0
 43
0.0
 43
0.0208333333333333
 43
0.0
 43
0.0
 43
0.0
 43
0.0
 43
1.0
 43
0.0
 43
0.0
 43
0.0
 43
0.0
 43
1.0
 77
     0
 47
0.0208333333333333
 47
0.0
 47
0.0
 47
0.0
 47
0.0
 47
0.0208333333333333
 47
0.0
 47
0.0
 47
0.0
 47
0.0
 47
1.0
 47
0.0
 47
0.0
 47
0.0
 47
0.0
 47
1.0
171
     0
 49
0.0208333333333333
 49
0.0
 49
0.0
 49
0.0
 49
0.0
 49
0.0208333333333333
 49
0.0
 49
0.0
 49
0.0
 49
0.0
 49
1.0
 49
0.0
 49
0.0
 49
0.0
 49
0.0
 49
1.0
175
     0
142
0.0208333333333333
142
0.0
142
0.0
142
0.0
142
0.0
142
0.0208333333333333
142
0.0
142
0.0
142
0.0
142
0.0
142
1.0
142
0.0
142
0.0
142
0.0
142
0.0
142
1.0
179
     0
144
0.0208333333333333
144
0.0
144
0.0
144
0.0
144
0.0
144
0.0208333333333333
144
0.0
144
0.0
144
0.0
144
0.0
144
1.0
144
0.0
144
0.0
144
0.0
144
0.0
144
1.0
147
0.0208333333333333
147
0.0
147
0.0
147
0.0
147
0.0
147
0.0208333333333333
147
0.0
147
0.0
147
0.0
147
0.0
147
1.0
147
0.0
147
0.0
147
0.0
147
0.0
147
1.0
  0
MLEADERSTYLE
  5
1F4F
102
{ACAD_REACTORS
330
1F4E
102
}
330
1F4E
100
AcDbMLeaderStyle
170
     2
171
     1
172
     0
 90
        2
 40
0.0
 41
0.0
173
     1
 91
-1056964608
340
1CD0
 92
       -2
290
     1
 42
0.09
291
     1
 43
0.36
  3
Standard
 44
0.18
300

342
1CCE
174
     1
178
     6
175
     1
176
     0
 93
-1056964608
 45
0.18
292
     0
297
     0
 46
0.18
 94
-1056964608
 47
1.0
 49
1.0
140
1.0
293
     1
141
0.0
294
     1
177
     0
142
1.0
295
     0
296
     0
143
0.125
1001
ACAD_MLEADERVER
1070
     2
  0
MLINESTYLE
  5
1CD4
102
{ACAD_REACTORS
330
1CD3
102
}
330
1CD3
100
AcDbMlineStyle
  2
STANDARD
 70
     0
  3

 62
   256
 51
90.0
 52
90.0
 71
     2
 49
0.5
 62
   256
  6
BYLAYER
 49
-0.5
 62
   256
  6
BYLAYER
  0
ACDBPLACEHOLDER
  5
1CCC
102
{ACAD_REACTORS
330
1CCB
102
}
330
1CCB
  0
SCALE
  5
1F2D
102
{ACAD_REACTORS
330
1F2C
102
}
330
1F2C
100
AcDbScale
 70
     0
300
1:1
140
1.0
141
1.0
290
     1
  0
SCALE
  5
1F2E
102
{ACAD_REACTORS
330
1F2C
102
}
330
1F2C
100
AcDbScale
 70
     0
300
1:2
140
1.0
141
2.0
290
     0
  0
SCALE
  5
1F2F
102
{ACAD_REACTORS
330
1F2C
102
}
330
1F2C
100
AcDbScale
 70
     0
300
1:4
140
1.0
141
4.0
290
     0
  0
SCALE
  5
1F30
102
{ACAD_REACTORS
330
1F2C
102
}
330
1F2C
100
AcDbScale
 70
     0
300
1:5
140
1.0
141
5.0
290
     0
  0
SCALE
  5
1F31
102
{ACAD_REACTORS
330
1F2C
102
}
330
1F2C
100
AcDbScale
 70
     0
300
1:8
140
1.0
141
8.0
290
     0
  0
SCALE
  5
1F32
102
{ACAD_REACTORS
330
1F2C
102
}
330
1F2C
100
AcDbScale
 70
     0
300
1:10
140
1.0
141
10.0
290
     0
  0
SCALE
  5
1F33
102
{ACAD_REACTORS
330
1F2C
102
}
330
1F2C
100
AcDbScale
 70
     0
300
1:16
140
1.0
141
16.0
290
     0
  0
SCALE
  5
1F34
102
{ACAD_REACTORS
330
1F2C
102
}
330
1F2C
100
AcDbScale
 70
     0
300
1:20
140
1.0
141
20.0
290
     0
  0
SCALE
  5
1F35
102
{ACAD_REACTORS
330
1F2C
102
}
330
1F2C
100
AcDbScale
 70
     0
300
1:30
140
1.0
141
30.0
290
     0
  0
SCALE
  5
1F36
102
{ACAD_REACTORS
330
1F2C
102
}
330
1F2C
100
AcDbScale
 70
     0
300
1:40
140
1.0
141
40.0
290
     0
  0
SCALE
  5
1F37
102
{ACAD_REACTORS
330
1F2C
102
}
330
1F2C
100
AcDbScale
 70
     0
300
1:50
140
1.0
141
50.0
290
     0
  0
SCALE
  5
1F38
102
{ACAD_REACTORS
330
1F2C
102
}
330
1F2C
100
AcDbScale
 70
     0
300
1:100
140
1.0
141
100.0
290
     0
  0
SCALE
  5
1F39
102
{ACAD_REACTORS
330
1F2C
102
}
330
1F2C
100
AcDbScale
 70
     0
300
2:1
140
2.0
141
1.0
290
     0
  0
SCALE
  5
1F3A
102
{ACAD_REACTORS
330
1F2C
102
}
330
1F2C
100
AcDbScale
 70
     0
300
4:1
140
4.0
141
1.0
290
     0
  0
SCALE
  5
1F3B
102
{ACAD_REACTORS
330
1F2C
102
}
330
1F2C
100
AcDbScale
 70
     0
300
8:1
140
8.0
141
1.0
290
     0
  0
SCALE
  5
1F3C
102
{ACAD_REACTORS
330
1F2C
102
}
330
1F2C
100
AcDbScale
 70
     0
300
10:1
140
10.0
141
1.0
290
     0
  0
SCALE
  5
1F3D
102
{ACAD_REACTORS
330
1F2C
102
}
330
1F2C
100
AcDbScale
 70
     0
300
100:1
140
100.0
141
1.0
290
     0
  0
SCALE
  5
1F3E
102
{ACAD_REACTORS
330
1F2C
102
}
330
1F2C
100
AcDbScale
 70
     0
300
1/128" = 1'-0"
140
0.0078125
141
12.0
290
     0
  0
SCALE
  5
1F3F
102
{ACAD_REACTORS
330
1F2C
102
}
330
1F2C
100
AcDbScale
 70
     0
300
1/64" = 1'-0"
140
0.015625
141
12.0
290
     0
  0
SCALE
  5
1F40
102
{ACAD_REACTORS
330
1F2C
102
}
330
1F2C
100
AcDbScale
 70
     0
300
1/32" = 1'-0"
140
0.03125
141
12.0
290
     0
  0
SCALE
  5
1F41
102
{ACAD_REACTORS
330
1F2C
102
}
330
1F2C
100
AcDbScale
 70
     0
300
1/16" = 1'-0"
140
0.0625
141
12.0
290
     0
  0
SCALE
  5
1F42
102
{ACAD_REACTORS
330
1F2C
102
}
330
1F2C
100
AcDbScale
 70
     0
300
3/32" = 1'-0"
140
0.09375
141
12.0
290
     0
  0
SCALE
  5
1F43
102
{ACAD_REACTORS
330
1F2C
102
}
330
1F2C
100
AcDbScale
 70
     0
300
1/8" = 1'-0"
140
0.125
141
12.0
290
     0
  0
SCALE
  5
1F44
102
{ACAD_REACTORS
330
1F2C
102
}
330
1F2C
100
AcDbScale
 70
     0
300
3/16" = 1'-0"
140
0.1875
141
12.0
290
     0
  0
SCALE
  5
1F45
102
{ACAD_REACTORS
330
1F2C
102
}
330
1F2C
100
AcDbScale
 70
     0
300
1/4" = 1'-0"
140
0.25
141
12.0
290
     0
  0
SCALE
  5
1F46
102
{ACAD_REACTORS
330
1F2C
102
}
330
1F2C
100
AcDbScale
 70
     0
300
3/8" = 1'-0"
140
0.375
141
12.0
290
     0
  0
SCALE
  5
1F47
102
{ACAD_REACTORS
330
1F2C
102
}
330
1F2C
100
AcDbScale
 70
     0
300
1/2" = 1'-0"
140
0.5
141
12.0
290
     0
  0
SCALE
  5
1F48
102
{ACAD_REACTORS
330
1F2C
102
}
330
1F2C
100
AcDbScale
 70
     0
300
3/4" = 1'-0"
140
0.75
141
12.0
290
     0
  0
SCALE
  5
1F49
102
{ACAD_REACTORS
330
1F2C
102
}
330
1F2C
100
AcDbScale
 70
     0
300
1" = 1'-0"
140
1.0
141
12.0
290
     0
  0
SCALE
  5
1F4A
102
{ACAD_REACTORS
330
1F2C
102
}
330
1F2C
100
AcDbScale
 70
     0
300
1-1/2" = 1'-0"
140
1.5
141
12.0
290
     0
  0
SCALE
  5
1F4B
102
{ACAD_REACTORS
330
1F2C
102
}
330
1F2C
100
AcDbScale
 70
     0
300
3" = 1'-0"
140
3.0
141
12.0
290
     0
  0
SCALE
  5
1F4C
102
{ACAD_REACTORS
330
1F2C
102
}
330
1F2C
100
AcDbScale
 70
     0
300
6" = 1'-0"
140
6.0
141
12.0
290
     0
  0
SCALE
  5
1F4D
102
{ACAD_REACTORS
330
1F2C
102
}
330
1F2C
100
AcDbScale
 70
     0
300
1'-0" = 1'-0"
140
12.0
141
12.0
290
     0
  0
TABLESTYLE
  5
1CDA
102
{ACAD_XDICTIONARY
360
1F61
102
}
102
{ACAD_REACTORS
330
1CD9
102
}
330
1CD9
100
AcDbTableStyle
  3
Standard
 70
     0
 71
     0
 40
0.06
 41
0.06
280
     0
281
     0
  7
STANDARD
140
0.18
170
     2
 62
     0
 63
     7
283
     0
274
    -2
284
     1
 64
     0
275
    -2
285
     1
 65
     0
276
    -2
286
     1
 66
     0
277
    -2
287
     1
 67
     0
278
    -2
288
     1
 68
     0
279
    -2
289
     1
 69
     0
  7
STANDARD
140
0.25
170
     5
 62
     0
 63
     7
283
     0
274
    -2
284
     1
 64
     0
275
    -2
285
     1
 65
     0
276
    -2
286
     1
 66
     0
277
    -2
287
     1
 67
     0
278
    -2
288
     1
 68
     0
279
    -2
289
     1
 69
     0
  7
STANDARD
140
0.18
170
     5
 62
     0
 63
     7
283
     0
274
    -2
284
     1
 64
     0
275
    -2
285
     1
 65
     0
276
    -2
286
     1
 66
     0
277
    -2
287
     1
 67
     0
278
    -2
288
     1
 68
     0
279
    -2
289
     1
 69
     0
  0
VISUALSTYLE
  5
1F21
102
{ACAD_REACTORS
330
1F1B
102
}
330
1F1B
100
AcDbVisualStyle
  2
2dWireframe
 70
     4
 71
     0
 72
     2
 73
     0
 90
        0
 40
-0.6
 41
-30.0
 62
     5
 63
     7
 74
     1
 91
        4
 64
     7
 65
   257
 75
     1
175
     1
 42
1.0
 92
        0
 66
   257
 43
1.0
 76
     1
 77
     6
 78
     2
 67
     7
 79
     5
170
     0
171
     0
290
     0
174
     0
 93
        1
 44
0.0
173
     0
291
     0
 45
0.0
1001
ACAD
1000
AcDbSavedByObjectVersion
1070
     0
  0
VISUALSTYLE
  5
1F23
102
{ACAD_REACTORS
330
1F1B
102
}
330
1F1B
100
AcDbVisualStyle
  2
3D Hidden
 70
     6
 71
     1
 72
     2
 73
     2
 90
        0
 40
-0.6
 41
-30.0
 62
     5
 63
     7
 74
     2
 91
        2
 64
     7
 65
   257
 75
     2
175
     1
 42
40.0
 92
        0
 66
   257
 43
1.0
 76
     1
 77
     6
 78
     2
 67
     7
 79
     3
170
     0
171
     0
290
     0
174
     0
 93
        1
 44
0.0
173
     0
291
     0
 45
0.0
1001
ACAD
1000
AcDbSavedByObjectVersion
1070
     0
  0
VISUALSTYLE
  5
1F22
102
{ACAD_REACTORS
330
1F1B
102
}
330
1F1B
100
AcDbVisualStyle
  2
3dWireframe
 70
     5
 71
     0
 72
     2
 73
     0
 90
        0
 40
-0.6
 41
-30.0
 62
     5
 63
     7
 74
     1
 91
        4
 64
     7
 65
   257
 75
     1
175
     1
 42
1.0
 92
        0
 66
   257
 43
1.0
 76
     1
 77
     6
 78
     2
 67
     7
 79
     5
170
     0
171
     0
290
     0
174
     0
 93
        1
 44
0.0
173
     0
291
     0
 45
0.0
1001
ACAD
1000
AcDbSavedByObjectVersion
1070
     0
  0
VISUALSTYLE
  5
1F20
102
{ACAD_REACTORS
330
1F1B
102
}
330
1F1B
100
AcDbVisualStyle
  2
Basic
 70
     7
 71
     1
 72
     0
 73
     1
 90
        0
 40
-0.6
 41
-30.0
 62
     5
 63
     7
 74
     0
 91
        4
 64
     7
 65
   257
 75
     1
175
     1
 42
1.0
 92
        8
 66
     7
 43
1.0
 76
     1
 77
     6
 78
     2
 67
     7
 79
     5
170
     0
171
     0
290
     0
174
     0
 93
        1
 44
0.0
173
     0
291
     1
 45
0.0
1001
ACAD
1000
AcDbSavedByObjectVersion
1070
     0
  0
VISUALSTYLE
  5
1F27
102
{ACAD_REACTORS
330
1F1B
102
}
330
1F1B
100
AcDbVisualStyle
  2
Brighten
 70
    12
 71
     2
 72
     2
 73
     0
 90
        0
 40
-0.6
 41
-30.0
 62
     5
 63
     7
 74
     1
 91
        4
 64
     7
 65
   257
 75
     1
175
     1
 42
1.0
 92
        8
 66
     7
 43
1.0
 76
     1
 77
     6
 78
     2
 67
     7
 79
     5
170
     0
171
     0
290
     0
174
     0
 93
        1
 44
50.0
173
     0
291
     1
 45
0.0
1001
ACAD
1000
AcDbSavedByObjectVersion
1070
     0
  0
VISUALSTYLE
  5
1F2B
102
{ACAD_REACTORS
330
1F1B
102
}
330
1F1B
100
AcDbVisualStyle
  2
ColorChange
 70
    16
 71
     2
 72
     2
 73
     3
 90
        0
 40
-0.6
 41
-30.0
 62
     5
 63
     8
 74
     1
 91
        4
 64
     7
 65
   257
 75
     1
175
     1
 42
1.0
 92
        8
 66
     8
 43
1.0
 76
     1
 77
     6
 78
     2
 67
     7
 79
     5
170
     0
171
     0
290
     0
174
     0
 93
        1
 44
0.0
173
     0
291
     1
 45
0.0
1001
ACAD
1000
AcDbSavedByObjectVersion
1070
     0
  0
VISUALSTYLE
  5
1F24
102
{ACAD_REACTORS
330
1F1B
102
}
330
1F1B
100
AcDbVisualStyle
  2
Conceptual
 70
     9
 71
     3
 72
     2
 73
     0
 90
        0
 40
-0.6
 41
-30.0
 62
     5
 63
     7
 74
     2
 91
        2
 64
     7
 65
   257
 75
     1
175
     1
 42
40.0
 92
        8
 66
     7
 43
1.0
 76
     1
 77
     6
 78
     2
 67
     7
 79
     3
170
     0
171
     0
290
     0
174
     0
 93
        1
 44
0.0
173
     0
291
     0
 45
0.0
1001
ACAD
1000
AcDbSavedByObjectVersion
1070
     0
  0
VISUALSTYLE
  5
1F26
102
{ACAD_REACTORS
330
1F1B
102
}
330
1F1B
100
AcDbVisualStyle
  2
Dim
 70
    11
 71
     2
 72
     2
 73
     0
 90
        0
 40
-0.6
 41
-30.0
 62
     5
 63
     7
 74
     1
 91
        4
 64
     7
 65
   257
 75
     1
175
     1
 42
1.0
 92
        8
 66
     7
 43
1.0
 76
     1
 77
     6
 78
     2
 67
     7
 79
     5
170
     0
171
     0
290
     0
174
     0
 93
        1
 44
-50.0
173
     0
291
     1
 45
0.0
1001
ACAD
1000
AcDbSavedByObjectVersion
1070
     0
  0
VISUALSTYLE
  5
1F2A
102
{ACAD_REACTORS
330
1F1B
102
}
330
1F1B
100
AcDbVisualStyle
  2
Facepattern
 70
    15
 71
     2
 72
     2
 73
     0
 90
        0
 40
-0.6
 41
-30.0
 62
     5
 63
     7
 74
     1
 91
        4
 64
     7
 65
   257
 75
     1
175
     1
 42
1.0
 92
        8
 66
     7
 43
1.0
 76
     1
 77
     6
 78
     2
 67
     7
 79
     5
170
     0
171
     0
290
     0
174
     0
 93
        1
 44
0.0
173
     0
291
     1
 45
0.0
1001
ACAD
1000
AcDbSavedByObjectVersion
1070
     0
  0
VISUALSTYLE
  5
1F1C
102
{ACAD_REACTORS
330
1F1B
102
}
330
1F1B
100
AcDbVisualStyle
  2
Flat
 70
     0
 71
     2
 72
     1
 73
     1
 90
        2
 40
-0.6
 41
30.0
 62
     5
 63
     7
 74
     0
 91
        4
 64
     7
 65
   257
 75
     1
175
     1
 42
1.0
 92
        8
 66
     7
 43
1.0
 76
     1
 77
     6
 78
     2
 67
     7
 79
     5
170
     0
171
     0
290
     0
174
     0
 93
       13
 44
0.0
173
     0
291
     1
 45
0.0
1001
ACAD
1000
AcDbSavedByObjectVersion
1070
     0
  0
VISUALSTYLE
  5
1F1D
102
{ACAD_REACTORS
330
1F1B
102
}
330
1F1B
100
AcDbVisualStyle
  2
FlatWithEdges
 70
     1
 71
     2
 72
     1
 73
     1
 90
        2
 40
-0.6
 41
30.0
 62
     5
 63
     7
 74
     1
 91
        4
 64
     7
 65
   257
 75
     1
175
     1
 42
1.0
 92
        0
 66
   257
 43
1.0
 76
     1
 77
     6
 78
     2
 67
     7
 79
     5
170
     0
171
     0
290
     0
174
     0
 93
       13
 44
0.0
173
     0
291
     1
 45
0.0
1001
ACAD
1000
AcDbSavedByObjectVersion
1070
     0
  0
VISUALSTYLE
  5
1F1E
102
{ACAD_REACTORS
330
1F1B
102
}
330
1F1B
100
AcDbVisualStyle
  2
Gouraud
 70
     2
 71
     2
 72
     2
 73
     1
 90
        2
 40
-0.6
 41
30.0
 62
     5
 63
     7
 74
     0
 91
        4
 64
     7
 65
   257
 75
     1
175
     1
 42
1.0
 92
        0
 66
     7
 43
1.0
 76
     1
 77
     6
 78
     2
 67
     7
 79
     5
170
     0
171
     0
290
     0
174
     0
 93
       13
 44
0.0
173
     0
291
     1
 45
0.0
1001
ACAD
1000
AcDbSavedByObjectVersion
1070
     0
  0
VISUALSTYLE
  5
1F1F
102
{ACAD_REACTORS
330
1F1B
102
}
330
1F1B
100
AcDbVisualStyle
  2
GouraudWithEdges
 70
     3
 71
     2
 72
     2
 73
     1
 90
        2
 40
-0.6
 41
30.0
 62
     5
 63
     7
 74
     1
 91
        4
 64
     7
 65
   257
 75
     1
175
     1
 42
1.0
 92
        0
 66
   257
 43
1.0
 76
     1
 77
     6
 78
     2
 67
     7
 79
     5
170
     0
171
     0
290
     0
174
     0
 93
       13
 44
0.0
173
     0
291
     1
 45
0.0
1001
ACAD
1000
AcDbSavedByObjectVersion
1070
     0
  0
VISUALSTYLE
  5
1F29
102
{ACAD_REACTORS
330
1F1B
102
}
330
1F1B
100
AcDbVisualStyle
  2
Linepattern
 70
    14
 71
     2
 72
     2
 73
     0
 90
        0
 40
-0.6
 41
-30.0
 62
     5
 63
     7
 74
     1
 91
        4
 64
     7
 65
   257
 75
     7
175
     7
 42
1.0
 92
        8
 66
     7
 43
1.0
 76
     1
 77
     6
 78
     2
 67
     7
 79
     5
170
     0
171
     0
290
     0
174
     0
 93
        1
 44
0.0
173
     0
291
     1
 45
0.0
1001
ACAD
1000
AcDbSavedByObjectVersion
1070
     0
  0
VISUALSTYLE
  5
1F25
102
{ACAD_REACTORS
330
1F1B
102
}
330
1F1B
100
AcDbVisualStyle
  2
Realistic
 70
     8
 71
     2
 72
     2
 73
     0
 90
        0
 40
-0.6
 41
-30.0
 62
     5
 63
     7
 74
     1
 91
        0
 64
     7
 65
   257
 75
     1
175
     1
 42
1.0
 92
        8
 66
     8
 43
1.0
 76
     1
 77
     6
 78
     2
 67
     7
 79
     5
170
     0
171
     0
290
     0
174
     0
 93
       13
 44
0.0
173
     0
291
     0
 45
0.0
1001
ACAD
1000
AcDbSavedByObjectVersion
1070
     0
  0
VISUALSTYLE
  5
1F28
102
{ACAD_REACTORS
330
1F1B
102
}
330
1F1B
100
AcDbVisualStyle
  2
Thicken
 70
    13
 71
     2
 72
     2
 73
     0
 90
        0
 40
-0.6
 41
-30.0
 62
     5
 63
     7
 74
     1
 91
        4
 64
     7
 65
   257
 75
     1
175
     1
 42
1.0
 92
       12
 66
     7
 43
1.0
 76
     1
 77
     6
 78
     2
 67
     7
 79
     5
170
     0
171
     0
290
     0
174
     0
 93
        1
 44
0.0
173
     0
291
     1
 45
0.0
1001
ACAD
1000
AcDbSavedByObjectVersion
1070
     0
  0
DICTIONARYVAR
  5
1F77
102
{ACAD_REACTORS
330
1D75
102
}
330
1D75
100
DictionaryVariables
280
     0
  1
1:1
  0
DICTIONARYVAR
  5
1F76
102
{ACAD_REACTORS
330
1D75
102
}
330
1D75
100
DictionaryVariables
280
     0
  1
STANDARD
  0
DICTIONARYVAR
  5
1D76
102
{ACAD_REACTORS
330
1D75
102
}
330
1D75
100
DictionaryVariables
280
     0
  1
STANDARD
  0
DICTIONARYVAR
  5
1D77
102
{ACAD_REACTORS
330
1D75
102
}
330
1D75
100
DictionaryVariables
280
     0
  1
1
  0
DICTIONARYVAR
  5
1F79
102
{ACAD_REACTORS
330
1D75
102
}
330
1D75
100
DictionaryVariables
280
     0
  1
0
  0
DICTIONARYVAR
  5
24C8
102
{ACAD_REACTORS
330
1D75
102
}
330
1D75
100
DictionaryVariables
280
     0
  1
0
  0
DICTIONARYVAR
  5
24C7
102
{ACAD_REACTORS
330
1D75
102
}
330
1D75
100
DictionaryVariables
280
     0
  1
0
  0
DICTIONARYVAR
  5
1D78
102
{ACAD_REACTORS
330
1D75
102
}
330
1D75
100
DictionaryVariables
280
     0
  1

  0
DICTIONARYVAR
  5
1F78
102
{ACAD_REACTORS
330
1D75
102
}
330
1D75
100
DictionaryVariables
280
     0
  1
127
  0
DICTIONARY
  5
24D6
330
1CE2
100
AcDbDictionary
280
     1
281
     1
  3
ACAD_XREC_ROUNDTRIP
360
24D7
  0
DICTIONARY
  5
24D4
330
1CDE
100
AcDbDictionary
280
     1
281
     1
  3
ACAD_XREC_ROUNDTRIP
360
24D5
  0
DICTIONARY
  5
1F0C
330
1F0B
100
AcDbDictionary
280
     1
281
     1
  3
ACAD_XREC_ROUNDTRIP
360
24D9
  3
BUMPTILE
360
1F0E
  3
DIFFUSETILE
360
1F0D
  3
OPACITYTILE
360
1F11
  3
REFLECTIONTILE
360
1F10
  3
REFRACTIONTILE
360
1F12
  3
SPECULARTILE
360
1F0F
  0
DICTIONARY
  5
1F04
330
1F03
100
AcDbDictionary
280
     1
281
     1
  3
ACAD_XREC_ROUNDTRIP
360
24D8
  3
BUMPTILE
360
1F06
  3
DIFFUSETILE
360
1F05
  3
OPACITYTILE
360
1F09
  3
REFLECTIONTILE
360
1F08
  3
REFRACTIONTILE
360
1F0A
  3
SPECULARTILE
360
1F07
  0
DICTIONARY
  5
1F14
330
1F13
100
AcDbDictionary
280
     1
281
     1
  3
ACAD_XREC_ROUNDTRIP
360
24DA
  3
BUMPTILE
360
1F16
  3
DIFFUSETILE
360
1F15
  3
OPACITYTILE
360
1F19
  3
REFLECTIONTILE
360
1F18
  3
REFRACTIONTILE
360
1F1A
  3
SPECULARTILE
360
1F17
  0
DICTIONARY
  5
1F61
330
1CDA
100
AcDbDictionary
280
     1
281
     1
  3
ACAD_ROUNDTRIP_2008_TABLESTYLE_CELLSTYLEMAP
360
24D1
  3
ACAD_XREC_ROUNDTRIP
360
24D3
  0
XRECORD
  5
24D7
102
{ACAD_REACTORS
330
24D6
102
}
330
24D6
100
AcDbXrecord
280
     1
102
SHADEPLOT
 70
     0
102
SHADEPLOTRESLEVEL
 70
     2
102
SHADEPLOTCUSTOMDPI
 70
   300
  0
XRECORD
  5
24D5
102
{ACAD_REACTORS
330
24D4
102
}
330
24D4
100
AcDbXrecord
280
     1
102
SHADEPLOT
 70
     0
102
SHADEPLOTRESLEVEL
 70
     2
102
SHADEPLOTCUSTOMDPI
 70
   300
  0
XRECORD
  5
24D9
102
{ACAD_REACTORS
330
1F0C
102
}
330
1F0C
100
AcDbXrecord
280
     1
102
MATERIAL
148
0.0
149
0.0
149
0.0
 93
        0
 94
      127
282
     0
 72
     0
 77
     0
171
     0
175
     0
179
     0
273
     0
  0
XRECORD
  5
1F0E
102
{ACAD_REACTORS
330
1F0C
102
}
330
1F0C
100
AcDbXrecord
280
     1
270
     1
271
     1
  0
XRECORD
  5
1F0D
102
{ACAD_REACTORS
330
1F0C
102
}
330
1F0C
100
AcDbXrecord
280
     1
270
     1
271
     1
  0
XRECORD
  5
1F11
102
{ACAD_REACTORS
330
1F0C
102
}
330
1F0C
100
AcDbXrecord
280
     1
270
     1
271
     1
  0
XRECORD
  5
1F10
102
{ACAD_REACTORS
330
1F0C
102
}
330
1F0C
100
AcDbXrecord
280
     1
270
     1
271
     1
  0
XRECORD
  5
1F12
102
{ACAD_REACTORS
330
1F0C
102
}
330
1F0C
100
AcDbXrecord
280
     1
270
     1
271
     1
  0
XRECORD
  5
1F0F
102
{ACAD_REACTORS
330
1F0C
102
}
330
1F0C
100
AcDbXrecord
280
     1
270
     1
271
     1
  0
XRECORD
  5
24D8
102
{ACAD_REACTORS
330
1F04
102
}
330
1F04
100
AcDbXrecord
280
     1
102
MATERIAL
148
0.0
149
0.0
149
0.0
 93
        0
 94
      127
282
     0
 72
     0
 77
     0
171
     0
175
     0
179
     0
273
     0
  0
XRECORD
  5
1F06
102
{ACAD_REACTORS
330
1F04
102
}
330
1F04
100
AcDbXrecord
280
     1
270
     1
271
     1
  0
XRECORD
  5
1F05
102
{ACAD_REACTORS
330
1F04
102
}
330
1F04
100
AcDbXrecord
280
     1
270
     1
271
     1
  0
XRECORD
  5
1F09
102
{ACAD_REACTORS
330
1F04
102
}
330
1F04
100
AcDbXrecord
280
     1
270
     1
271
     1
  0
XRECORD
  5
1F08
102
{ACAD_REACTORS
330
1F04
102
}
330
1F04
100
AcDbXrecord
280
     1
270
     1
271
     1
  0
XRECORD
  5
1F0A
102
{ACAD_REACTORS
330
1F04
102
}
330
1F04
100
AcDbXrecord
280
     1
270
     1
271
     1
  0
XRECORD
  5
1F07
102
{ACAD_REACTORS
330
1F04
102
}
330
1F04
100
AcDbXrecord
280
     1
270
     1
271
     1
  0
XRECORD
  5
24DA
102
{ACAD_REACTORS
330
1F14
102
}
330
1F14
100
AcDbXrecord
280
     1
102
MATERIAL
148
0.0
149
0.0
149
0.0
 93
        0
 94
      127
282
     0
 72
     0
 77
     0
171
     0
175
     0
179
     0
273
     0
  0
XRECORD
  5
1F16
102
{ACAD_REACTORS
330
1F14
102
}
330
1F14
100
AcDbXrecord
280
     1
270
     1
271
     1
  0
XRECORD
  5
1F15
102
{ACAD_REACTORS
330
1F14
102
}
330
1F14
100
AcDbXrecord
280
     1
270
     1
271
     1
  0
XRECORD
  5
1F19
102
{ACAD_REACTORS
330
1F14
102
}
330
1F14
100
AcDbXrecord
280
     1
270
     1
271
     1
  0
XRECORD
  5
1F18
102
{ACAD_REACTORS
330
1F14
102
}
330
1F14
100
AcDbXrecord
280
     1
270
     1
271
     1
  0
XRECORD
  5
1F1A
102
{ACAD_REACTORS
330
1F14
102
}
330
1F14
100
AcDbXrecord
280
     1
270
     1
271
     1
  0
XRECORD
  5
1F17
102
{ACAD_REACTORS
330
1F14
102
}
330
1F14
100
AcDbXrecord
280
     1
270
     1
271
     1
  0
CELLSTYLEMAP
  5
24D1
102
{ACAD_REACTORS
330
1F61
102
}
330
1F61
100
AcDbCellStyleMap
 90
        3
300
CELLSTYLE
  1
TABLEFORMAT_BEGIN
 90
        5
170
     1
 91
        0
 92
    32768
 62
   257
 93
        1
300
CONTENTFORMAT
  1
CONTENTFORMAT_BEGIN
 90
        0
 91
        0
 92
        4
 93
        0
300

 40
0.0
140
1.0
 94
        5
 62
     0
340
1CCE
144
0.25
309
CONTENTFORMAT_END
171
     1
301
MARGIN
  1
CELLMARGIN_BEGIN
 40
0.06
 40
0.06
 40
0.06
 40
0.06
 40
0.18
 40
0.18
309
CELLMARGIN_END
 94
        6
 95
        1
302
GRIDFORMAT
  1
GRIDFORMAT_BEGIN
 90
        0
 91
        1
 62
     0
 92
       -2
340
0
 93
        0
 40
0.045
309
GRIDFORMAT_END
 95
        2
302
GRIDFORMAT
  1
GRIDFORMAT_BEGIN
 90
        0
 91
        1
 62
     0
 92
       -2
340
0
 93
        0
 40
0.045
309
GRIDFORMAT_END
 95
        4
302
GRIDFORMAT
  1
GRIDFORMAT_BEGIN
 90
        0
 91
        1
 62
     0
 92
       -2
340
0
 93
        0
 40
0.045
309
GRIDFORMAT_END
 95
        8
302
GRIDFORMAT
  1
GRIDFORMAT_BEGIN
 90
        0
 91
        1
 62
     0
 92
       -2
340
0
 93
        0
 40
0.045
309
GRIDFORMAT_END
 95
       16
302
GRIDFORMAT
  1
GRIDFORMAT_BEGIN
 90
        0
 91
        1
 62
     0
 92
       -2
340
0
 93
        0
 40
0.045
309
GRIDFORMAT_END
 95
       32
302
GRIDFORMAT
  1
GRIDFORMAT_BEGIN
 90
        0
 91
        1
 62
     0
 92
       -2
340
0
 93
        0
 40
0.045
309
GRIDFORMAT_END
309
TABLEFORMAT_END
  1
CELLSTYLE_BEGIN
 90
        1
 91
        1
300
_TITLE
309
CELLSTYLE_END
300
CELLSTYLE
  1
TABLEFORMAT_BEGIN
 90
        5
170
     1
 91
        0
 92
        0
 62
   257
 93
        1
300
CONTENTFORMAT
  1
CONTENTFORMAT_BEGIN
 90
        0
 91
        0
 92
        4
 93
        0
300

 40
0.0
140
1.0
 94
        5
 62
     0
340
1CCE
144
0.18
309
CONTENTFORMAT_END
171
     1
301
MARGIN
  1
CELLMARGIN_BEGIN
 40
0.06
 40
0.06
 40
0.06
 40
0.06
 40
0.18
 40
0.18
309
CELLMARGIN_END
 94
        6
 95
        1
302
GRIDFORMAT
  1
GRIDFORMAT_BEGIN
 90
        0
 91
        1
 62
     0
 92
       -2
340
0
 93
        0
 40
0.045
309
GRIDFORMAT_END
 95
        2
302
GRIDFORMAT
  1
GRIDFORMAT_BEGIN
 90
        0
 91
        1
 62
     0
 92
       -2
340
0
 93
        0
 40
0.045
309
GRIDFORMAT_END
 95
        4
302
GRIDFORMAT
  1
GRIDFORMAT_BEGIN
 90
        0
 91
        1
 62
     0
 92
       -2
340
0
 93
        0
 40
0.045
309
GRIDFORMAT_END
 95
        8
302
GRIDFORMAT
  1
GRIDFORMAT_BEGIN
 90
        0
 91
        1
 62
     0
 92
       -2
340
0
 93
        0
 40
0.045
309
GRIDFORMAT_END
 95
       16
302
GRIDFORMAT
  1
GRIDFORMAT_BEGIN
 90
        0
 91
        1
 62
     0
 92
       -2
340
0
 93
        0
 40
0.045
309
GRIDFORMAT_END
 95
       32
302
GRIDFORMAT
  1
GRIDFORMAT_BEGIN
 90
        0
 91
        1
 62
     0
 92
       -2
340
0
 93
        0
 40
0.045
309
GRIDFORMAT_END
309
TABLEFORMAT_END
  1
CELLSTYLE_BEGIN
 90
        2
 91
        1
300
_HEADER
309
CELLSTYLE_END
300
CELLSTYLE
  1
TABLEFORMAT_BEGIN
 90
        5
170
     1
 91
        0
 92
        0
 62
   257
 93
        1
300
CONTENTFORMAT
  1
CONTENTFORMAT_BEGIN
 90
        0
 91
        0
 92
        4
 93
        0
300

 40
0.0
140
1.0
 94
        2
 62
     0
340
1CCE
144
0.18
309
CONTENTFORMAT_END
171
     1
301
MARGIN
  1
CELLMARGIN_BEGIN
 40
0.06
 40
0.06
 40
0.06
 40
0.06
 40
0.18
 40
0.18
309
CELLMARGIN_END
 94
        6
 95
        1
302
GRIDFORMAT
  1
GRIDFORMAT_BEGIN
 90
        0
 91
        1
 62
     0
 92
       -2
340
0
 93
        0
 40
0.045
309
GRIDFORMAT_END
 95
        2
302
GRIDFORMAT
  1
GRIDFORMAT_BEGIN
 90
        0
 91
        1
 62
     0
 92
       -2
340
0
 93
        0
 40
0.045
309
GRIDFORMAT_END
 95
        4
302
GRIDFORMAT
  1
GRIDFORMAT_BEGIN
 90
        0
 91
        1
 62
     0
 92
       -2
340
0
 93
        0
 40
0.045
309
GRIDFORMAT_END
 95
        8
302
GRIDFORMAT
  1
GRIDFORMAT_BEGIN
 90
        0
 91
        1
 62
     0
 92
       -2
340
0
 93
        0
 40
0.045
309
GRIDFORMAT_END
 95
       16
302
GRIDFORMAT
  1
GRIDFORMAT_BEGIN
 90
        0
 91
        1
 62
     0
 92
       -2
340
0
 93
        0
 40
0.045
309
GRIDFORMAT_END
 95
       32
302
GRIDFORMAT
  1
GRIDFORMAT_BEGIN
 90
        0
 91
        1
 62
     0
 92
       -2
340
0
 93
        0
 40
0.045
309
GRIDFORMAT_END
309
TABLEFORMAT_END
  1
CELLSTYLE_BEGIN
 90
        3
 91
        2
300
_DATA
309
CELLSTYLE_END
  0
XRECORD
  5
24D3
102
{ACAD_REACTORS
330
1F61
102
}
330
1F61
100
AcDbXrecord
280
     1
102
ACAD_ROUNDTRIP_PRE2007_TABLESTYLE
 90
        4
 91
        0
  1

 92
        4
 93
        0
  2

 94
        4
 95
        0
  3

  0
ENDSEC
  0
EOF
