  0
SECTION
  2
HEADER
  9
$ACADVER
  1
AC1015
  9
$ACADMAINTVER
 70
    20
  9
$DWGCODEPAGE
  3
ANSI_932
  9
$INSBASE
 10
0.0
 20
0.0
 30
0.0
  9
$EXTMIN
 10
4.199999999999954
 20
8.274999999999977
 30
0.0
  9
$EXTMAX
 10
189.4249999999999
 20
280.0749999999999
 30
0.0
  9
$LIMMIN
 10
0.0
 20
0.0
  9
$LIMMAX
 10
194.0
 20
282.0
  9
$ORTHOMODE
 70
     0
  9
$REGENMODE
 70
     1
  9
$FILLMODE
 70
     1
  9
$QTEXTMODE
 70
     0
  9
$MIRRTEXT
 70
     0
  9
$LTSCALE
 40
1.0
  9
$ATTMODE
 70
     1
  9
$TEXTSIZE
 40
0.2
  9
$TRACEWID
 40
0.05
  9
$TEXTSTYLE
  7
BIGFONT
  9
$CLAYER
  8
0
  9
$CELTYPE
  6
CONTINUOUS
  9
$CECOLOR
 62
   256
  9
$CELTSCALE
 40
1.0
  9
$DISPSILH
 70
     0
  9
$DIMSCALE
 40
1.0
  9
$DIMASZ
 40
3.0
  9
$DIMEXO
 40
0.0625
  9
$DIMDLI
 40
0.38
  9
$DIMRND
 40
0.0
  9
$DIMDLE
 40
0.0
  9
$DIMEXE
 40
1.0
  9
$DIMTP
 40
0.0
  9
$DIMTM
 40
0.0
  9
$DIMTXT
 40
3.5
  9
$DIMCEN
 40
0.09
  9
$DIMTSZ
 40
0.0
  9
$DIMTOL
 70
     0
  9
$DIMLIM
 70
     0
  9
$DIMTIH
 70
     0
  9
$DIMTOH
 70
     0
  9
$DIMSE1
 70
     0
  9
$DIMSE2
 70
     0
  9
$DIMTAD
 70
     1
  9
$DIMZIN
 70
     0
  9
$DIMBLK
  1

  9
$DIMASO
 70
     1
  9
$DIMSHO
 70
     1
  9
$DIMPOST
  1

  9
$DIMAPOST
  1

  9
$DIMALT
 70
     0
  9
$DIMALTD
 70
     2
  9
$DIMALTF
 40
25.4
  9
$DIMLFAC
 40
1.0
  9
$DIMTOFL
 70
     1
  9
$DIMTVP
 40
0.0
  9
$DIMTIX
 70
     0
  9
$DIMSOXD
 70
     0
  9
$DIMSAH
 70
     0
  9
$DIMBLK1
  1

  9
$DIMBLK2
  1

  9
$DIMSTYLE
  2
STANDARD
  9
$DIMCLRD
 70
     0
  9
$DIMCLRE
 70
     0
  9
$DIMCLRT
 70
     0
  9
$DIMTFAC
 40
1.0
  9
$DIMGAP
 40
1.0
  9
$DIMJUST
 70
     0
  9
$DIMSD1
 70
     0
  9
$DIMSD2
 70
     0
  9
$DIMTOLJ
 70
     1
  9
$DIMTZIN
 70
     0
  9
$DIMALTZ
 70
     0
  9
$DIMALTTZ
 70
     0
  9
$DIMUPT
 70
     0
  9
$DIMDEC
 70
     4
  9
$DIMTDEC
 70
     4
  9
$DIMALTU
 70
     2
  9
$DIMALTTD
 70
     2
  9
$DIMTXSTY
  7
STANDARD
  9
$DIMAUNIT
 70
     0
  9
$DIMADEC
 70
     0
  9
$DIMALTRND
 40
0.0
  9
$DIMAZIN
 70
     0
  9
$DIMDSEP
 70
    46
  9
$DIMATFIT
 70
     3
  9
$DIMFRAC
 70
     0
  9
$DIMLDRBLK
  1

  9
$DIMLUNIT
 70
     2
  9
$DIMLWD
 70
    -2
  9
$DIMLWE
 70
    -2
  9
$DIMTMOVE
 70
     0
  9
$LUNITS
 70
     2
  9
$LUPREC
 70
     4
  9
$SKETCHINC
 40
0.1
  9
$FILLETRAD
 40
1.0
  9
$AUNITS
 70
     0
  9
$AUPREC
 70
     0
  9
$MENU
  1
.
  9
$ELEVATION
 40
0.0
  9
$PELEVATION
 40
0.0
  9
$THICKNESS
 40
0.0
  9
$LIMCHECK
 70
     0
  9
$CHAMFERA
 40
0.0
  9
$CHAMFERB
 40
0.0
  9
$CHAMFERC
 40
0.0
  9
$CHAMFERD
 40
0.0
  9
$SKPOLY
 70
     0
  9
$TDCREATE
 40
2453573.411721273
  9
$TDUCREATE
 40
2453573.036721274
  9
$TDUPDATE
 40
2456553.557858415
  9
$TDUUPDATE
 40
2456553.182858415
  9
$TDINDWG
 40
0.6685351157
  9
$TDUSRTIMER
 40
0.6685338889
  9
$USRTIMER
 70
     1
  9
$ANGBASE
 50
0.0
  9
$ANGDIR
 70
     0
  9
$PDMODE
 70
     0
  9
$PDSIZE
 40
0.0
  9
$PLINEWID
 40
0.0
  9
$SPLFRAME
 70
     0
  9
$SPLINETYPE
 70
     6
  9
$SPLINESEGS
 70
     8
  9
$HANDSEED
  5
1FCB
  9
$SURFTAB1
 70
     6
  9
$SURFTAB2
 70
     6
  9
$SURFTYPE
 70
     6
  9
$SURFU
 70
     6
  9
$SURFV
 70
     6
  9
$UCSBASE
  2

  9
$UCSNAME
  2

  9
$UCSORG
 10
0.0
 20
0.0
 30
0.0
  9
$UCSXDIR
 10
1.0
 20
0.0
 30
0.0
  9
$UCSYDIR
 10
0.0
 20
1.0
 30
0.0
  9
$UCSORTHOREF
  2

  9
$UCSORTHOVIEW
 70
     0
  9
$UCSORGTOP
 10
0.0
 20
0.0
 30
0.0
  9
$UCSORGBOTTOM
 10
0.0
 20
0.0
 30
0.0
  9
$UCSORGLEFT
 10
0.0
 20
0.0
 30
0.0
  9
$UCSORGRIGHT
 10
0.0
 20
0.0
 30
0.0
  9
$UCSORGFRONT
 10
0.0
 20
0.0
 30
0.0
  9
$UCSORGBACK
 10
0.0
 20
0.0
 30
0.0
  9
$PUCSBASE
  2

  9
$PUCSNAME
  2

  9
$PUCSORG
 10
0.0
 20
0.0
 30
0.0
  9
$PUCSXDIR
 10
1.0
 20
0.0
 30
0.0
  9
$PUCSYDIR
 10
0.0
 20
1.0
 30
0.0
  9
$PUCSORTHOREF
  2

  9
$PUCSORTHOVIEW
 70
     0
  9
$PUCSORGTOP
 10
0.0
 20
0.0
 30
0.0
  9
$PUCSORGBOTTOM
 10
0.0
 20
0.0
 30
0.0
  9
$PUCSORGLEFT
 10
0.0
 20
0.0
 30
0.0
  9
$PUCSORGRIGHT
 10
0.0
 20
0.0
 30
0.0
  9
$PUCSORGFRONT
 10
0.0
 20
0.0
 30
0.0
  9
$PUCSORGBACK
 10
0.0
 20
0.0
 30
0.0
  9
$USERI1
 70
     0
  9
$USERI2
 70
     0
  9
$USERI3
 70
     0
  9
$USERI4
 70
     0
  9
$USERI5
 70
     0
  9
$USERR1
 40
0.0
  9
$USERR2
 40
0.0
  9
$USERR3
 40
0.0
  9
$USERR4
 40
0.0
  9
$USERR5
 40
0.0
  9
$WORLDVIEW
 70
     1
  9
$SHADEDGE
 70
     3
  9
$SHADEDIF
 70
    70
  9
$TILEMODE
 70
     1
  9
$MAXACTVP
 70
    64
  9
$PINSBASE
 10
0.0
 20
0.0
 30
0.0
  9
$PLIMCHECK
 70
     0
  9
$PEXTMIN
 10
1.000000000000000E+20
 20
1.000000000000000E+20
 30
1.000000000000000E+20
  9
$PEXTMAX
 10
-1.000000000000000E+20
 20
-1.000000000000000E+20
 30
-1.000000000000000E+20
  9
$PLIMMIN
 10
0.0
 20
0.0
  9
$PLIMMAX
 10
12.0
 20
9.0
  9
$UNITMODE
 70
     0
  9
$VISRETAIN
 70
     1
  9
$PLINEGEN
 70
     0
  9
$PSLTSCALE
 70
     1
  9
$TREEDEPTH
 70
  3020
  9
$CMLSTYLE
  2
Standard
  9
$CMLJUST
 70
     0
  9
$CMLSCALE
 40
1.0
  9
$PROXYGRAPHICS
 70
     1
  9
$MEASUREMENT
 70
     0
  9
$CELWEIGHT
370
    -1
  9
$ENDCAPS
280
     0
  9
$JOINSTYLE
280
     0
  9
$LWDISPLAY
290
     0
  9
$INSUNITS
 70
     0
  9
$HYPERLINKBASE
  1

  9
$STYLESHEET
  1

  9
$XEDIT
290
     1
  9
$CEPSNTYPE
380
     0
  9
$PSTYLEMODE
290
     1
  9
$FINGERPRINTGUID
  2
{CBB31A18-FE82-42AB-AD72-06F9024F81BC}
  9
$VERSIONGUID
  2
{6B790DE8-23FA-450D-B711-DAC66F399DF1}
  9
$EXTNAMES
290
     1
  9
$PSVPSCALE
 40
0.0
  9
$OLESTARTUP
290
     0
  0
ENDSEC
  0
SECTION
  2
CLASSES
  0
CLASS
  1
ACDBDICTIONARYWDFLT
  2
AcDbDictionaryWithDefault
  3
ObjectDBX Classes
 90
        0
280
     0
281
     0
  0
CLASS
  1
TABLESTYLE
  2
AcDbTableStyle
  3
ObjectDBX Classes
 90
     4095
280
     0
281
     0
  0
CLASS
  1
SORTENTSTABLE
  2
AcDbSortentsTable
  3
ObjectDBX Classes
 90
    32768
280
     0
281
     0
  0
CLASS
  1
DICTIONARYVAR
  2
AcDbDictionaryVar
  3
ObjectDBX Classes
 90
        0
280
     0
281
     0
  0
CLASS
  1
ACDBPLACEHOLDER
  2
AcDbPlaceHolder
  3
ObjectDBX Classes
 90
        0
280
     0
281
     0
  0
CLASS
  1
LAYOUT
  2
AcDbLayout
  3
ObjectDBX Classes
 90
        0
280
     0
281
     0
  0
CLASS
  1
MATERIAL
  2
AcDbMaterial
  3
ObjectDBX Classes
 90
     1153
280
     0
281
     0
  0
CLASS
  1
VISUALSTYLE
  2
AcDbVisualStyle
  3
ObjectDBX Classes
 90
     4095
280
     0
281
     0
  0
CLASS
  1
SCALE
  2
AcDbScale
  3
ObjectDBX Classes
 90
     1153
280
     0
281
     0
  0
CLASS
  1
MLEADERSTYLE
  2
AcDbMLeaderStyle
  3
ACDB_MLEADERSTYLE_CLASS
 90
     4095
280
     0
281
     0
  0
CLASS
  1
CELLSTYLEMAP
  2
AcDbCellStyleMap
  3
ObjectDBX Classes
 90
     1152
280
     0
281
     0
  0
ENDSEC
  0
SECTION
  2
TABLES
  0
TABLE
  2
VPORT
  5
1CC5
102
{ACAD_XDICTIONARY
360
1F65
102
}
330
0
100
AcDbSymbolTable
 70
     1
  0
VPORT
  5
1EFC
330
1CC5
100
AcDbSymbolTableRecord
100
AcDbViewportTableRecord
  2
*Active
 70
     0
 10
0.0
 20
0.0
 11
1.0
 21
1.0
 12
235.0761550082691
 22
144.1842047618518
 13
0.0
 23
0.0
 14
0.5
 24
0.5
 15
0.0
 25
0.0
 16
0.0
 26
0.0
 36
1.0
 17
0.0
 27
0.0
 37
0.0
 40
273.9380036344416
 41
1.779141104294478
 42
50.0
 43
0.0
 44
0.0
 50
0.0
 51
0.0
 71
     0
 72
   100
 73
     1
 74
     1
 75
     0
 76
     0
 77
     0
 78
     0
281
     0
 65
     1
110
0.0
120
0.0
130
0.0
111
1.0
121
0.0
131
0.0
112
0.0
122
1.0
132
0.0
 79
     0
146
0.0
  0
ENDTAB
  0
TABLE
  2
LTYPE
  5
1CC2
330
0
100
AcDbSymbolTable
 70
    10
  0
LTYPE
  5
1CD0
330
1CC2
100
AcDbSymbolTableRecord
100
AcDbLinetypeTableRecord
  2
ByBlock
 70
     0
  3

 72
    65
 73
     0
 40
0.0
  0
LTYPE
  5
1CD1
330
1CC2
100
AcDbSymbolTableRecord
100
AcDbLinetypeTableRecord
  2
ByLayer
 70
     0
  3

 72
    65
 73
     0
 40
0.0
  0
LTYPE
  5
1CD2
330
1CC2
100
AcDbSymbolTableRecord
100
AcDbLinetypeTableRecord
  2
CONTINUOUS
 70
     0
  3
実線
 72
    65
 73
     0
 40
0.0
  0
LTYPE
  5
1CE5
330
1CC2
100
AcDbSymbolTableRecord
100
AcDbLinetypeTableRecord
  2
DASHED
 70
     0
  3
__ __ __ __ __ __ __ __ __ __ __ __ __ __ __
 72
    65
 73
     2
 40
0.75
 49
0.5
 74
     0
 49
-0.25
 74
     0
  0
LTYPE
  5
1CE6
330
1CC2
100
AcDbSymbolTableRecord
100
AcDbLinetypeTableRecord
  2
HIDDEN
 70
     0
  3
_ _ _ _ _ _ _ _ _ _ _ _ _ _ _ _ _ _ _ _ _ _ _
 72
    65
 73
     2
 40
0.375
 49
0.25
 74
     0
 49
-0.125
 74
     0
  0
LTYPE
  5
1CE7
330
1CC2
100
AcDbSymbolTableRecord
100
AcDbLinetypeTableRecord
  2
CENTER
 70
     0
  3
____ _ ____ _ ____ _ ____ _ ____ _ ____ _ ____
 72
    65
 73
     4
 40
2.0
 49
1.25
 74
     0
 49
-0.25
 74
     0
 49
0.25
 74
     0
 49
-0.25
 74
     0
  0
LTYPE
  5
1CE8
330
1CC2
100
AcDbSymbolTableRecord
100
AcDbLinetypeTableRecord
  2
PHANTOM
 70
     0
  3
_____ _ _ _____ _ _ _____ _ _ _____ _ _ ____
 72
    65
 73
     6
 40
2.5
 49
1.25
 74
     0
 49
-0.25
 74
     0
 49
0.25
 74
     0
 49
-0.25
 74
     0
 49
0.25
 74
     0
 49
-0.25
 74
     0
  0
LTYPE
  5
1CE9
330
1CC2
100
AcDbSymbolTableRecord
100
AcDbLinetypeTableRecord
  2
DOT
 70
     0
  3
...............................................
 72
    65
 73
     2
 40
0.25
 49
0.0
 74
     0
 49
-0.25
 74
     0
  0
LTYPE
  5
1CEA
330
1CC2
100
AcDbSymbolTableRecord
100
AcDbLinetypeTableRecord
  2
DASHDOT
 70
     0
  3
__ . __ . __ . __ . __ . __ . __ . __ . __ . __
 72
    65
 73
     4
 40
1.0
 49
0.5
 74
     0
 49
-0.25
 74
     0
 49
0.0
 74
     0
 49
-0.25
 74
     0
  0
LTYPE
  5
1CEB
330
1CC2
100
AcDbSymbolTableRecord
100
AcDbLinetypeTableRecord
  2
BORDER
 70
     0
  3
__ __ . __ __ . __ __ . __ __ . __ __ . __ __
 72
    65
 73
     6
 40
1.75
 49
0.5
 74
     0
 49
-0.25
 74
     0
 49
0.5
 74
     0
 49
-0.25
 74
     0
 49
0.0
 74
     0
 49
-0.25
 74
     0
  0
LTYPE
  5
1CEC
330
1CC2
100
AcDbSymbolTableRecord
100
AcDbLinetypeTableRecord
  2
DIVIDE
 70
     0
  3
__ . . __ . . __ . . __ . . __ . . __ . . __
 72
    65
 73
     6
 40
1.25
 49
0.5
 74
     0
 49
-0.25
 74
     0
 49
0.0
 74
     0
 49
-0.25
 74
     0
 49
0.0
 74
     0
 49
-0.25
 74
     0
  0
LTYPE
  5
1CED
330
1CC2
100
AcDbSymbolTableRecord
100
AcDbLinetypeTableRecord
  2
DASHEDX2
 70
     0
  3
Dashed (2x) ____  ____  ____  ____  ____  ___
 72
    65
 73
     2
 40
1.5
 49
1.0
 74
     0
 49
-0.5
 74
     0
  0
ENDTAB
  0
TABLE
  2
LAYER
  5
1CBF
102
{ACAD_XDICTIONARY
360
1E26
102
}
330
0
100
AcDbSymbolTable
 70
     6
  0
LAYER
  5
1CCD
102
{ACAD_XDICTIONARY
360
1F57
102
}
330
1CBF
100
AcDbSymbolTableRecord
100
AcDbLayerTableRecord
  2
0
 70
     0
 62
     7
  6
CONTINUOUS
370
    -3
390
1CCC
  0
LAYER
  5
1CEE
330
1CBF
100
AcDbSymbolTableRecord
100
AcDbLayerTableRecord
  2
DEFPOINTS
 70
     0
 62
     7
  6
CONTINUOUS
290
     0
370
    -3
390
1CCC
  0
LAYER
  5
1CEF
102
{ACAD_XDICTIONARY
360
1F59
102
}
330
1CBF
100
AcDbSymbolTableRecord
100
AcDbLayerTableRecord
  2
ED
 70
     0
 62
     7
  6
CONTINUOUS
370
    -3
390
1CCC
  0
LAYER
  5
1CF0
102
{ACAD_XDICTIONARY
360
1F5B
102
}
330
1CBF
100
AcDbSymbolTableRecord
100
AcDbLayerTableRecord
  2
MO
 70
     0
 62
     7
  6
CONTINUOUS
370
    -3
390
1CCC
  0
LAYER
  5
1CF1
102
{ACAD_XDICTIONARY
360
1F5D
102
}
330
1CBF
100
AcDbSymbolTableRecord
100
AcDbLayerTableRecord
  2
1
 70
     0
 62
     7
  6
CONTINUOUS
370
    -3
390
1CCC
  0
LAYER
  5
1CF2
102
{ACAD_XDICTIONARY
360
1F5F
102
}
330
1CBF
100
AcDbSymbolTableRecord
100
AcDbLayerTableRecord
  2
SUNPO
 70
     0
 62
     7
  6
CONTINUOUS
370
    -3
390
1CCC
  0
ENDTAB
  0
TABLE
  2
STYLE
  5
1CC0
330
0
100
AcDbSymbolTable
 70
     3
  0
STYLE
  5
1CCE
330
1CC0
100
AcDbSymbolTableRecord
100
AcDbTextStyleTableRecord
  2
STANDARD
 70
     0
 40
0.0
 41
0.5
 50
0.0
 71
     0
 42
0.3
  3
txt.shx
  4
bigfont.shx
  0
STYLE
  5
1CE3
330
1CC0
100
AcDbSymbolTableRecord
100
AcDbTextStyleTableRecord
  2
BIGFONT
 70
     0
 40
0.0
 41
1.0
 50
0.0
 71
     0
 42
0.2
  3
MS PMincho.ttf
  4

1001
ACAD
1000
MS PMincho
1071
    32786
  0
STYLE
  5
1CF3
330
1CC0
100
AcDbSymbolTableRecord
100
AcDbTextStyleTableRecord
  2

 70
     1
 40
0.0
 41
1.0
 50
0.0
 71
     0
 42
0.2
  3
ltypeshp.shx
  4

  0
ENDTAB
  0
TABLE
  2
VIEW
  5
1CC3
330
0
100
AcDbSymbolTable
 70
     0
  0
ENDTAB
  0
TABLE
  2
UCS
  5
1CC4
330
0
100
AcDbSymbolTable
 70
     0
  0
ENDTAB
  0
TABLE
  2
APPID
  5
1CC6
330
0
100
AcDbSymbolTable
 70
     4
  0
APPID
  5
1CCF
330
1CC6
100
AcDbSymbolTableRecord
100
AcDbRegAppTableRecord
  2
ACAD
 70
     0
  0
APPID
  5
1CF4
330
1CC6
100
AcDbSymbolTableRecord
100
AcDbRegAppTableRecord
  2
ACAD_DSTYLE_DIMTEXT_FILL
 70
     0
  0
APPID
  5
1CF5
330
1CC6
100
AcDbSymbolTableRecord
100
AcDbRegAppTableRecord
  2
ACAD_PSEXT
 70
     0
  0
APPID
  5
1F50
330
1CC6
100
AcDbSymbolTableRecord
100
AcDbRegAppTableRecord
  2
ACAD_MLEADERVER
 70
     0
  0
ENDTAB
  0
TABLE
  2
DIMSTYLE
  5
1CC7
330
0
100
AcDbSymbolTable
 70
     2
100
AcDbDimStyleTable
 71
     1
340
1CF6
  0
DIMSTYLE
105
1CF6
102
{ACAD_REACTORS
330
135B
330
135E
330
1A79
330
1A88
330
1D97
102
}
330
1CC7
100
AcDbSymbolTableRecord
100
AcDbDimStyleTableRecord
  2
STANDARD
 70
     0
 41
3.0
 44
1.0
 73
     0
 74
     0
 77
     1
140
3.5
147
1.0
172
     1
279
     2
340
1CE3
  0
DIMSTYLE
105
1CF7
330
1CC7
100
AcDbSymbolTableRecord
100
AcDbDimStyleTableRecord
  2
ISO-25
 70
     0
 41
1.5
 42
0.625
 43
3.75
 44
0.0
 73
     0
 74
     0
 77
     1
 78
     8
140
1.5
141
1.5
143
0.03937007874016
147
0.625
171
     3
172
     1
174
     1
279
     2
340
1CE3
  0
ENDTAB
  0
TABLE
  2
BLOCK_RECORD
  5
1CBE
330
0
100
AcDbSymbolTable
 70
    12
  0
BLOCK_RECORD
  5
1CDF
330
1CBE
100
AcDbSymbolTableRecord
100
AcDbBlockTableRecord
  2
*Model_Space
340
1CE2
  0
BLOCK_RECORD
  5
1CDB
330
1CBE
100
AcDbSymbolTableRecord
100
AcDbBlockTableRecord
  2
*Paper_Space
340
1CDE
  0
BLOCK_RECORD
  5
1CFB
330
1CBE
100
AcDbSymbolTableRecord
100
AcDbBlockTableRecord
  2
$MODEL_SPACE
340
0
  0
BLOCK_RECORD
  5
1CFD
330
1CBE
100
AcDbSymbolTableRecord
100
AcDbBlockTableRecord
  2
$PAPER_SPACE
340
0
  0
BLOCK_RECORD
  5
1CFF
330
1CBE
100
AcDbSymbolTableRecord
100
AcDbBlockTableRecord
  2
_OPEN30
340
0
  0
BLOCK_RECORD
  5
1D01
330
1CBE
100
AcDbSymbolTableRecord
100
AcDbBlockTableRecord
  2
_NONE
340
0
  0
BLOCK_RECORD
  5
1D0B
330
1CBE
100
AcDbSymbolTableRecord
100
AcDbBlockTableRecord
  2
A$C52D45C41
340
0
  0
BLOCK_RECORD
  5
1D40
330
1CBE
100
AcDbSymbolTableRecord
100
AcDbBlockTableRecord
  2
waku
340
0
310
2800000020000000200000000100080000000000000400000000000000000000000000000000000000000000000080000080000000808000800000008000800080800000C0C0C000C0DCC000F0CAA6000020400000206000002080000020A0000020C0000020E00000400000004020000040400000406000004080000040A0
310
000040C0000040E00000600000006020000060400000606000006080000060A0000060C0000060E00000800000008020000080400000806000008080000080A0000080C0000080E00000A0000000A0200000A0400000A0600000A0800000A0A00000A0C00000A0E00000C0000000C0200000C0400000C0600000C0800000C0
310
A00000C0C00000C0E00000E0000000E0200000E0400000E0600000E0800000E0A00000E0C00000E0E00040000000400020004000400040006000400080004000A0004000C0004000E00040200000402020004020400040206000402080004020A0004020C0004020E000404000004040200040404000404060004040800040
310
40A0004040C0004040E00040600000406020004060400040606000406080004060A0004060C0004060E00040800000408020004080400040806000408080004080A0004080C0004080E00040A0000040A0200040A0400040A0600040A0800040A0A00040A0C00040A0E00040C0000040C0200040C0400040C0600040C08000
310
40C0A00040C0C00040C0E00040E0000040E0200040E0400040E0600040E0800040E0A00040E0C00040E0E00080000000800020008000400080006000800080008000A0008000C0008000E00080200000802020008020400080206000802080008020A0008020C0008020E00080400000804020008040400080406000804080
310
008040A0008040C0008040E00080600000806020008060400080606000806080008060A0008060C0008060E00080800000808020008080400080806000808080008080A0008080C0008080E00080A0000080A0200080A0400080A0600080A0800080A0A00080A0C00080A0E00080C0000080C0200080C0400080C0600080C0
310
800080C0A00080C0C00080C0E00080E0000080E0200080E0400080E0600080E0800080E0A00080E0C00080E0E000C0000000C0002000C0004000C0006000C0008000C000A000C000C000C000E000C0200000C0202000C0204000C0206000C0208000C020A000C020C000C020E000C0400000C0402000C0404000C0406000C0
310
408000C040A000C040C000C040E000C0600000C0602000C0604000C0606000C0608000C060A000C060C000C060E000C0800000C0802000C0804000C0806000C0808000C080A000C080C000C080E000C0A00000C0A02000C0A04000C0A06000C0A08000C0A0A000C0A0C000C0A0E000C0C00000C0C02000C0C04000C0C06000
310
C0C08000C0C0A000F0FBFF00A4A0A000808080000000FF0000FF000000FFFF00FF000000FF00FF00FFFF0000FFFFFF00FFFFFFFFFFFFFFFFFFFFFFFFFFFFFFFFFFFFFFFFFFFFFFFFFFFFFFFFFFFFFFFFFFFFFFFFFFFF0000000000000000000000000000000000000000FFFFFFFFFFFFFFFFFFFFFFFF00FFFFFFFFFFFFFFFF
310
FFFFFFFFFFFFFFFFFFFF00FFFFFFFFFFFFFFFFFFFFFFFF00FFFFFFFFFFFFFFFFFFFFFFFFFFFFFFFFFFFF00FFFFFFFFFFFFFFFFFFFFFFFF00FFFFFFFFFFFFFFFFFFFFFFFFFFFFFFFFFFFF00FFFFFFFFFFFFFFFFFFFFFFFF00FFFFFFFFFFFFFFFFFFFFFFFFFFFFFFFFFFFF00FFFFFFFFFFFFFFFFFFFFFFFF00FFFFFFFFFFFFFF
310
FFFFFFFFFFFFFFFFFFFFFF00FFFFFFFFFFFFFFFFFFFFFFFF00FFFFFFFFFFFFFFFFFFFFFFFFFFFFFFFFFFFF00FFFFFFFFFFFFFFFFFFFFFFFF00FFFFFFFFFFFFFFFFFFFFFFFFFFFFFFFFFFFF00FFFFFFFFFFFFFFFFFFFFFFFF00FFFFFFFFFFFFFFFFFFFFFFFFFFFFFFFFFFFF00FFFFFFFFFFFFFFFFFFFFFFFF00FFFFFFFFFFFF
310
FFFFFFFFFFFFFFFFFFFFFFFF00FFFFFFFFFFFFFFFFFFFFFFFF00FFFFFFFFFFFFFFFFFFFFFFFFFFFFFFFFFFFF00FFFFFFFFFFFFFFFFFFFFFFFF00FFFFFFFFFFFFFFFFFFFFFFFFFFFFFFFFFFFF00FFFFFFFFFFFFFFFFFFFFFFFF00FFFFFFFFFFFFFFFFFFFFFFFFFFFFFFFFFFFF00FFFFFFFFFFFFFFFFFFFFFFFF00FFFFFFFFFF
310
FFFFFFFFFFFFFFFFFFFFFFFFFF00FFFFFFFFFFFFFFFFFFFFFFFF00FFFFFFFFFFFFFFFFFFFFFFFFFFFFFFFFFFFF00FFFFFFFFFFFFFFFFFFFFFFFF00FFFFFFFFFFFFFFFFFFFFFFFFFFFFFFFFFFFF00FFFFFFFFFFFFFFFFFFFFFFFF00FFFFFFFFFFFFFFFFFFFFFFFFFFFFFFFFFFFF00FFFFFFFFFFFFFFFFFFFFFFFF00FFFFFFFF
310
FFFFFFFFFFFFFFFFFFFFFFFFFFFF00FFFFFFFFFFFFFFFFFFFFFFFF00FFFFFFFFFFFFFFFFFFFFFFFFFFFFFFFFFFFF00FFFFFFFFFFFFFFFFFFFFFFFF00FFFFFFFFFFFFFFFFFFFFFFFFFFFFFFFFFFFF00FFFFFFFFFFFFFFFFFFFFFFFF00FFFFFFFFFFFFFFFFFFFFFFFFFFFFFFFFFFFF00FFFFFFFFFFFFFFFFFFFFFFFF00FFFFFF
310
FFFFFFFFFFFFFFFFFFFFFFFFFFFFFF00FFFFFFFFFFFFFFFFFFFFFFFF00FFFFFFFFFFFFFFFFFFFFFFFFFFFFFFFFFFFF00FFFFFFFFFFFFFFFFFFFFFFFF00FFFFFFFFFFFFFFFFFFFFFFFFFFFFFFFFFFFF00FFFFFFFFFFFFFFFFFFFFFFFF00FFFFFFFFFFFFFFFFFFFFFFFFFFFFFFFFFFFF00FFFFFFFFFFFFFFFFFFFFFFFF00FFFF
310
FFFFFFFFFFFFFFFFFFFFFFFFFFFFFFFF00FFFFFFFFFFFFFFFFFFFFFFFF00FFFFFFFFFFFFFFFFFFFFFFFFFFFFFFFFFFFF00FFFFFFFFFFFFFFFFFFFFFFFF00FFFFFFFFFFFFFFFFFFFFFFFFFFFFFFFFFFFF00FFFFFFFFFFFFFFFFFFFFFFFF00FFFFFFFFFFFFFFFFFFFFFFFFFFFFFFFFFFFF00FFFFFFFFFFFFFFFFFFFFFFFF0000
310
000000000000000000000000000000000000FFFFFFFFFFFFFFFFFFFFFFFFFFFFFFFFFFFFFFFFFFFFFFFFFFFFFFFFFFFFFFFFFFFFFFFFFFFF
102
{BLKREFS
331
1D63
102
}
  0
BLOCK_RECORD
  5
1D98
330
1CBE
100
AcDbSymbolTableRecord
100
AcDbBlockTableRecord
  2
*D6
340
0
  0
BLOCK_RECORD
  5
1DE7
330
1CBE
100
AcDbSymbolTableRecord
100
AcDbBlockTableRecord
  2
*D7
340
0
  0
BLOCK_RECORD
  5
1DF3
330
1CBE
100
AcDbSymbolTableRecord
100
AcDbBlockTableRecord
  2
*D8
340
0
  0
BLOCK_RECORD
  5
1DFF
330
1CBE
100
AcDbSymbolTableRecord
100
AcDbBlockTableRecord
  2
*D9
340
0
  0
BLOCK_RECORD
  5
1E0D
330
1CBE
100
AcDbSymbolTableRecord
100
AcDbBlockTableRecord
  2
*D10
340
0
  0
BLOCK_RECORD
  5
1EE0
330
1CBE
100
AcDbSymbolTableRecord
100
AcDbBlockTableRecord
  2
A$C4A4B34CD
340
0
  0
ENDTAB
  0
ENDSEC
  0
SECTION
  2
BLOCKS
  0
BLOCK
  5
1CE0
330
1CDF
100
AcDbEntity
  8
0
100
AcDbBlockBegin
  2
*Model_Space
 70
     0
 10
0.0
 20
0.0
 30
0.0
  3
*Model_Space
  1

  0
ENDBLK
  5
1CE1
330
1CDF
100
AcDbEntity
  8
0
100
AcDbBlockEnd
  0
BLOCK
  5
1CDC
330
1CDB
100
AcDbEntity
 67
     1
  8
0
100
AcDbBlockBegin
  2
*Paper_Space
 70
     0
 10
0.0
 20
0.0
 30
0.0
  3
*Paper_Space
  1

  0
ENDBLK
  5
1CDD
330
1CDB
100
AcDbEntity
 67
     1
  8
0
100
AcDbBlockEnd
  0
BLOCK
  5
1CFC
330
1CFB
100
AcDbEntity
  8
0
100
AcDbBlockBegin
  2
$MODEL_SPACE
 70
     0
 10
0.0
 20
0.0
 30
0.0
  3
$MODEL_SPACE
  1

  0
ENDBLK
  5
1C7C
330
1CFB
100
AcDbEntity
  8
0
100
AcDbBlockEnd
  0
BLOCK
  5
1CFE
330
1CFD
100
AcDbEntity
  8
0
100
AcDbBlockBegin
  2
$PAPER_SPACE
 70
     0
 10
0.0
 20
0.0
 30
0.0
  3
$PAPER_SPACE
  1

  0
ENDBLK
  5
1C78
330
1CFD
100
AcDbEntity
  8
0
100
AcDbBlockEnd
  0
BLOCK
  5
1D00
330
1CFF
100
AcDbEntity
  8
0
100
AcDbBlockBegin
  2
_OPEN30
 70
     0
 10
0.0
 20
0.0
 30
0.0
  3
_OPEN30
  1

  0
LINE
  5
9B7
330
1CFF
100
AcDbEntity
  8
0
 62
     0
100
AcDbLine
 10
-1.0
 20
0.26794919
 30
0.0
 11
0.0
 21
0.0
 31
0.0
  0
LINE
  5
9B8
330
1CFF
100
AcDbEntity
  8
0
 62
     0
100
AcDbLine
 10
0.0
 20
0.0
 30
0.0
 11
-1.0
 21
-0.26794919
 31
0.0
  0
LINE
  5
9B9
330
1CFF
100
AcDbEntity
  8
0
 62
     0
100
AcDbLine
 10
0.0
 20
0.0
 30
0.0
 11
-1.0
 21
0.0
 31
0.0
  0
ENDBLK
  5
9BA
330
1CFF
100
AcDbEntity
  8
0
100
AcDbBlockEnd
  0
BLOCK
  5
1D02
330
1D01
100
AcDbEntity
  8
0
100
AcDbBlockBegin
  2
_NONE
 70
     0
 10
0.0
 20
0.0
 30
0.0
  3
_NONE
  1

  0
ENDBLK
  5
9BD
330
1D01
100
AcDbEntity
  8
0
100
AcDbBlockEnd
  0
BLOCK
  5
1D0C
330
1D0B
100
AcDbEntity
  8
0
100
AcDbBlockBegin
  2
A$C52D45C41
 70
     0
 10
0.0
 20
0.0
 30
0.0
  3
A$C52D45C41
  1

  0
POLYLINE
  5
1C4A
330
1D0B
100
AcDbEntity
  8
0
100
AcDb3dPolyline
 66
     1
 10
0.0
 20
0.0
 30
0.0
 70
     8
  0
VERTEX
  5
1C4B
330
1C4A
100
AcDbEntity
  8
0
100
AcDbVertex
100
AcDb3dPolylineVertex
 10
0.0076359
 20
-0.0065206
 30
0.0
 70
    32
  0
VERTEX
  5
1C4C
330
1C4A
100
AcDbEntity
  8
0
100
AcDbVertex
100
AcDb3dPolylineVertex
 10
-9.15831
 20
7.820639999999998
 30
0.0
 70
    32
  0
VERTEX
  5
1C4D
330
1C4A
100
AcDbEntity
  8
0
100
AcDbVertex
100
AcDb3dPolylineVertex
 10
-28.3108
 20
7.820639999999998
 30
0.0
 70
    32
  0
SEQEND
  5
1C4E
330
1C4A
100
AcDbEntity
  8
0
  0
TEXT
  5
1B0A
330
1D0B
100
AcDbEntity
  8
0
100
AcDbText
 10
-28.9530311972574
 20
13.52066296157018
 30
0.0
 40
3.5
  1
電源入線孔
  7
BIGFONT
100
AcDbText
  0
TEXT
  5
1B0B
330
1D0B
100
AcDbEntity
  8
0
100
AcDbText
 10
-24.56645919324755
 20
8.946072661416309
 30
0.0
 40
3.5
  1
φ30
  7
BIGFONT
100
AcDbText
  0
ENDBLK
  5
1B0F
330
1D0B
100
AcDbEntity
  8
0
100
AcDbBlockEnd
  0
BLOCK
  5
1D41
330
1D40
100
AcDbEntity
  8
0
100
AcDbBlockBegin
  2
waku
 70
     0
 10
0.0
 20
0.0
 30
0.0
  3
waku
  1

  0
LINE
  5
1D42
330
1D40
100
AcDbEntity
  8
0
100
AcDbLine
 10
4.15
 20
8.274999999999998
 30
0.0
 11
189.375
 21
8.274999999999998
 31
0.0
  0
LINE
  5
1D43
330
1D40
100
AcDbEntity
  8
0
100
AcDbLine
 10
189.375
 20
8.274999999999998
 30
0.0
 11
189.375
 21
280.0749999999999
 31
0.0
  0
LINE
  5
1D44
330
1D40
100
AcDbEntity
  8
0
100
AcDbLine
 10
189.375
 20
280.0749999999999
 30
0.0
 11
4.15
 21
280.0749999999999
 31
0.0
  0
LINE
  5
1D45
330
1D40
100
AcDbEntity
  8
0
100
AcDbLine
 10
4.15
 20
280.0749999999999
 30
0.0
 11
4.15
 21
8.274999999999998
 31
0.0
  0
ENDBLK
  5
1D46
330
1D40
100
AcDbEntity
  8
0
100
AcDbBlockEnd
  0
BLOCK
  5
1DA4
330
1D98
100
AcDbEntity
  8
0
100
AcDbBlockBegin
  2
*D6
 70
     1
 10
0.0
 20
0.0
 30
0.0
  3
*D6
  1

  0
LINE
  5
1EA7
330
1D98
100
AcDbEntity
  8
0
  6
Continuous
 62
     0
370
    -2
100
AcDbLine
 10
120.1249999999998
 20
173.1874999999999
 30
0.0
 11
120.1249999999998
 21
194.6249999999998
 31
0.0
  0
LINE
  5
1EA8
330
1D98
100
AcDbEntity
  8
0
  6
Continuous
 62
     0
370
    -2
100
AcDbLine
 10
125.125
 20
173.1874999999999
 30
0.0
 11
125.125
 21
194.6249999999998
 31
0.0
  0
LINE
  5
1EA9
330
1D98
100
AcDbEntity
  8
0
  6
Continuous
 62
     0
370
    -2
100
AcDbLine
 10
117.1249999999998
 20
193.6249999999997
 30
0.0
 11
114.1249999999998
 21
193.6249999999997
 31
0.0
  0
LINE
  5
1EAA
330
1D98
100
AcDbEntity
  8
0
  6
Continuous
 62
     0
370
    -2
100
AcDbLine
 10
128.125
 20
193.6249999999997
 30
0.0
 11
131.125
 21
193.6249999999997
 31
0.0
  0
LINE
  5
1EAB
330
1D98
100
AcDbEntity
  8
0
  6
Continuous
 62
     0
370
    -2
100
AcDbLine
 10
120.1249999999998
 20
193.6249999999997
 30
0.0
 11
125.125
 21
193.6249999999997
 31
0.0
  0
SOLID
  5
1EAC
330
1D98
100
AcDbEntity
  8
0
  6
Continuous
 62
     0
100
AcDbTrace
 10
117.1249999999998
 20
194.1249999999998
 30
0.0
 11
117.1249999999998
 21
193.1249999999997
 31
0.0
 12
120.1249999999998
 22
193.6249999999997
 32
0.0
 13
120.1249999999998
 23
193.6249999999997
 33
0.0
  0
SOLID
  5
1EAD
330
1D98
100
AcDbEntity
  8
0
  6
Continuous
 62
     0
100
AcDbTrace
 10
128.125
 20
194.1249999999998
 30
0.0
 11
128.125
 21
193.1249999999997
 31
0.0
 12
125.125
 22
193.6249999999997
 32
0.0
 13
125.125
 23
193.6249999999997
 33
0.0
  0
MTEXT
  5
1EAE
330
1D98
100
AcDbEntity
  8
0
  6
Continuous
 62
     0
100
AcDbMText
 10
122.6249999999999
 20
196.3749999999997
 30
0.0
 40
3.5
 41
0.0
 71
     5
 72
     1
  1
\A1;5
 73
     1
 44
1.0
1001
ACAD
1000
MTEXTBEGIN
1070
    73
1070
     1
1070
    44
1040
1.0
1070
    74
1070
     0
1000
MTEXTEND
  0
POINT
  5
1EAF
330
1D98
100
AcDbEntity
  8
DEFPOINTS
  6
Continuous
 62
     0
100
AcDbPoint
 10
120.1249999999998
 20
173.1249999999999
 30
0.0
  0
POINT
  5
1EB0
330
1D98
100
AcDbEntity
  8
DEFPOINTS
  6
Continuous
 62
     0
100
AcDbPoint
 10
125.125
 20
173.1249999999999
 30
0.0
  0
POINT
  5
1EB1
330
1D98
100
AcDbEntity
  8
DEFPOINTS
  6
Continuous
 62
     0
100
AcDbPoint
 10
125.125
 20
193.6249999999997
 30
0.0
  0
ENDBLK
  5
1DA5
330
1D98
100
AcDbEntity
  8
0
100
AcDbBlockEnd
  0
BLOCK
  5
1DF1
330
1DE7
100
AcDbEntity
  8
0
100
AcDbBlockBegin
  2
*D7
 70
     1
 10
0.0
 20
0.0
 30
0.0
  3
*D7
  1

  0
LINE
  5
1E7F
330
1DE7
100
AcDbEntity
  8
SUNPO
  6
Continuous
 62
     0
370
    -2
100
AcDbLine
 10
25.12499999999999
 20
135.4624999999997
 30
0.0
 11
25.12499999999999
 21
119.6249999999998
 31
0.0
  0
LINE
  5
1E80
330
1DE7
100
AcDbEntity
  8
SUNPO
  6
Continuous
 62
     0
370
    -2
100
AcDbLine
 10
95.09999999999987
 20
135.4874999999999
 30
0.0
 11
95.09999999999987
 21
119.6249999999998
 31
0.0
  0
LINE
  5
1E81
330
1DE7
100
AcDbEntity
  8
SUNPO
  6
Continuous
 62
     0
370
    -2
100
AcDbLine
 10
28.12499999999999
 20
120.6249999999998
 30
0.0
 11
92.09999999999986
 21
120.6249999999998
 31
0.0
  0
SOLID
  5
1E82
330
1DE7
100
AcDbEntity
  8
SUNPO
  6
Continuous
 62
     0
100
AcDbTrace
 10
28.12499999999999
 20
121.1249999999998
 30
0.0
 11
28.12499999999999
 21
120.1249999999998
 31
0.0
 12
25.12499999999999
 22
120.6249999999998
 32
0.0
 13
25.12499999999999
 23
120.6249999999998
 33
0.0
  0
SOLID
  5
1E83
330
1DE7
100
AcDbEntity
  8
SUNPO
  6
Continuous
 62
     0
100
AcDbTrace
 10
92.09999999999986
 20
121.1249999999998
 30
0.0
 11
92.09999999999986
 21
120.1249999999998
 31
0.0
 12
95.09999999999987
 22
120.6249999999998
 32
0.0
 13
95.09999999999987
 23
120.6249999999998
 33
0.0
  0
MTEXT
  5
1E84
330
1DE7
100
AcDbEntity
  8
SUNPO
  6
Continuous
 62
     0
100
AcDbMText
 10
60.11249999999993
 20
123.3749999999998
 30
0.0
 40
3.5
 41
0.0
 71
     5
 72
     1
  1
\A1;70
  7
BIGFONT
 73
     1
 44
1.0
1001
ACAD
1000
MTEXTBEGIN
1070
    73
1070
     1
1070
    44
1040
1.0
1070
    74
1070
     0
1000
MTEXTEND
  0
POINT
  5
1E85
330
1DE7
100
AcDbEntity
  8
DEFPOINTS
  6
Continuous
 62
     0
100
AcDbPoint
 10
25.12499999999999
 20
135.5249999999998
 30
0.0
  0
POINT
  5
1E86
330
1DE7
100
AcDbEntity
  8
DEFPOINTS
  6
Continuous
 62
     0
100
AcDbPoint
 10
95.09999999999987
 20
135.5499999999999
 30
0.0
  0
POINT
  5
1E87
330
1DE7
100
AcDbEntity
  8
DEFPOINTS
  6
Continuous
 62
     0
100
AcDbPoint
 10
95.09999999999987
 20
120.6249999999998
 30
0.0
  0
ENDBLK
  5
1DF2
330
1DE7
100
AcDbEntity
  8
0
100
AcDbBlockEnd
  0
BLOCK
  5
1DFD
330
1DF3
100
AcDbEntity
  8
0
100
AcDbBlockBegin
  2
*D8
 70
     1
 10
0.0
 20
0.0
 30
0.0
  3
*D8
  1

  0
LINE
  5
1E88
330
1DF3
100
AcDbEntity
  8
SUNPO
  6
Continuous
 62
     0
370
    -2
100
AcDbLine
 10
26.9625
 20
133.6249999999998
 30
0.0
 11
14.12499999999998
 21
133.6249999999998
 31
0.0
  0
LINE
  5
1E89
330
1DF3
100
AcDbEntity
  8
SUNPO
  6
Continuous
 62
     0
370
    -2
100
AcDbLine
 10
26.9625
 20
253.6249999999999
 30
0.0
 11
14.125
 21
253.6249999999999
 31
0.0
  0
LINE
  5
1E8A
330
1DF3
100
AcDbEntity
  8
SUNPO
  6
Continuous
 62
     0
370
    -2
100
AcDbLine
 10
15.12499999999998
 20
136.6249999999998
 30
0.0
 11
15.125
 21
250.6249999999999
 31
0.0
  0
SOLID
  5
1E8B
330
1DF3
100
AcDbEntity
  8
SUNPO
  6
Continuous
 62
     0
100
AcDbTrace
 10
14.62499999999998
 20
136.6249999999998
 30
0.0
 11
15.62499999999998
 21
136.6249999999998
 31
0.0
 12
15.12499999999998
 22
133.6249999999998
 32
0.0
 13
15.12499999999998
 23
133.6249999999998
 33
0.0
  0
SOLID
  5
1E8C
330
1DF3
100
AcDbEntity
  8
SUNPO
  6
Continuous
 62
     0
100
AcDbTrace
 10
14.625
 20
250.6249999999999
 30
0.0
 11
15.625
 21
250.6249999999999
 31
0.0
 12
15.12500000000001
 22
253.6249999999999
 32
0.0
 13
15.12500000000001
 23
253.6249999999999
 33
0.0
  0
MTEXT
  5
1E8D
330
1DF3
100
AcDbEntity
  8
SUNPO
  6
Continuous
 62
     0
100
AcDbMText
 10
12.37499999999996
 20
193.6249999999998
 30
0.0
 40
3.5
 41
0.0
 71
     5
 72
     1
  1
\A1;120
  7
BIGFONT
 11
0.0000000000000001
 21
1.0
 31
0.0
 73
     1
 44
1.0
1001
ACAD
1000
MTEXTBEGIN
1070
    73
1070
     1
1070
    44
1040
1.0
1070
    74
1070
     0
1000
MTEXTEND
  0
POINT
  5
1E8E
330
1DF3
100
AcDbEntity
  8
DEFPOINTS
  6
Continuous
 62
     0
100
AcDbPoint
 10
27.025
 20
133.6249999999998
 30
0.0
  0
POINT
  5
1E8F
330
1DF3
100
AcDbEntity
  8
DEFPOINTS
  6
Continuous
 62
     0
100
AcDbPoint
 10
27.025
 20
253.6249999999999
 30
0.0
  0
POINT
  5
1E90
330
1DF3
100
AcDbEntity
  8
DEFPOINTS
  6
Continuous
 62
     0
100
AcDbPoint
 10
15.12500000000001
 20
253.6249999999999
 30
0.0
  0
ENDBLK
  5
1DFE
330
1DF3
100
AcDbEntity
  8
0
100
AcDbBlockEnd
  0
BLOCK
  5
1E0B
330
1DFF
100
AcDbEntity
  8
0
100
AcDbBlockBegin
  2
*D9
 70
     1
 10
0.0
 20
0.0
 30
0.0
  3
*D9
  1

  0
LINE
  5
1E91
330
1DFF
100
AcDbEntity
  8
0
  6
Continuous
 62
     0
370
    -2
100
AcDbLine
 10
114.1249999999999
 20
138.2374999999998
 30
0.0
 11
114.1249999999999
 21
119.6249999999998
 31
0.0
  0
LINE
  5
1E92
330
1DFF
100
AcDbEntity
  8
0
  6
Continuous
 62
     0
370
    -2
100
AcDbLine
 10
120.125
 20
133.5624999999998
 30
0.0
 11
120.125
 21
119.6249999999998
 31
0.0
  0
LINE
  5
1E93
330
1DFF
100
AcDbEntity
  8
0
  6
Continuous
 62
     0
370
    -2
100
AcDbLine
 10
111.1249999999999
 20
120.6249999999998
 30
0.0
 11
108.1249999999999
 21
120.6249999999998
 31
0.0
  0
LINE
  5
1E94
330
1DFF
100
AcDbEntity
  8
0
  6
Continuous
 62
     0
370
    -2
100
AcDbLine
 10
123.125
 20
120.6249999999998
 30
0.0
 11
126.125
 21
120.6249999999998
 31
0.0
  0
LINE
  5
1E95
330
1DFF
100
AcDbEntity
  8
0
  6
Continuous
 62
     0
370
    -2
100
AcDbLine
 10
114.1249999999999
 20
120.6249999999998
 30
0.0
 11
120.125
 21
120.6249999999998
 31
0.0
  0
SOLID
  5
1E96
330
1DFF
100
AcDbEntity
  8
0
  6
Continuous
 62
     0
100
AcDbTrace
 10
111.1249999999999
 20
121.1249999999998
 30
0.0
 11
111.1249999999999
 21
120.1249999999998
 31
0.0
 12
114.1249999999999
 22
120.6249999999998
 32
0.0
 13
114.1249999999999
 23
120.6249999999998
 33
0.0
  0
SOLID
  5
1E97
330
1DFF
100
AcDbEntity
  8
0
  6
Continuous
 62
     0
100
AcDbTrace
 10
123.125
 20
121.1249999999998
 30
0.0
 11
123.125
 21
120.1249999999998
 31
0.0
 12
120.125
 22
120.6249999999998
 32
0.0
 13
120.125
 23
120.6249999999998
 33
0.0
  0
MTEXT
  5
1E98
330
1DFF
100
AcDbEntity
  8
0
  6
Continuous
 62
     0
100
AcDbMText
 10
117.1249999999999
 20
123.3749999999998
 30
0.0
 40
3.5
 41
0.0
 71
     5
 72
     1
  1
\A1;6
  7
BIGFONT
 73
     1
 44
1.0
1001
ACAD
1000
MTEXTBEGIN
1070
    73
1070
     1
1070
    44
1040
1.0
1070
    74
1070
     0
1000
MTEXTEND
  0
POINT
  5
1E99
330
1DFF
100
AcDbEntity
  8
DEFPOINTS
  6
Continuous
 62
     0
100
AcDbPoint
 10
114.1249999999999
 20
138.2999999999998
 30
0.0
  0
POINT
  5
1E9A
330
1DFF
100
AcDbEntity
  8
DEFPOINTS
  6
Continuous
 62
     0
100
AcDbPoint
 10
120.125
 20
133.6249999999998
 30
0.0
  0
POINT
  5
1E9B
330
1DFF
100
AcDbEntity
  8
DEFPOINTS
  6
Continuous
 62
     0
100
AcDbPoint
 10
120.125
 20
120.6249999999998
 30
0.0
  0
ENDBLK
  5
1E0C
330
1DFF
100
AcDbEntity
  8
0
100
AcDbBlockEnd
  0
BLOCK
  5
1E19
330
1E0D
100
AcDbEntity
  8
0
100
AcDbBlockBegin
  2
*D10
 70
     1
 10
0.0
 20
0.0
 30
0.0
  3
*D10
  1

  0
LINE
  5
1EBD
330
1E0D
100
AcDbEntity
  8
0
  6
Continuous
 62
     0
370
    -2
100
AcDbLine
 10
113.1999999999999
 20
163.0624999999998
 30
0.0
 11
113.1999999999999
 21
126.7878608450255
 31
0.0
  0
LINE
  5
1EBE
330
1E0D
100
AcDbEntity
  8
0
  6
Continuous
 62
     0
370
    -2
100
AcDbLine
 10
114.1249999999999
 20
138.2124999999998
 30
0.0
 11
114.1249999999999
 21
126.7878608450255
 31
0.0
  0
LINE
  5
1EBF
330
1E0D
100
AcDbEntity
  8
0
  6
Continuous
 62
     0
370
    -2
100
AcDbLine
 10
110.1999999999999
 20
127.7878608450255
 30
0.0
 11
107.1999999999999
 21
127.7878608450255
 31
0.0
  0
LINE
  5
1EC0
330
1E0D
100
AcDbEntity
  8
0
  6
Continuous
 62
     0
370
    -2
100
AcDbLine
 10
117.1249999999999
 20
127.7878608450255
 30
0.0
 11
120.1249999999999
 21
127.7878608450255
 31
0.0
  0
MTEXT
  5
1EC1
330
1E0D
100
AcDbEntity
  8
0
  6
Continuous
 62
     0
100
AcDbMText
 10
109.3061733970303
 20
131.1033663118556
 30
0.0
 40
3.5
 41
0.0
 71
     5
 72
     1
  1
\A1;1
  7
BIGFONT
 73
     1
 44
1.0
1001
ACAD
1000
MTEXTBEGIN
1070
    73
1070
     1
1070
    44
1040
1.0
1070
    74
1070
     0
1000
MTEXTEND
  0
LINE
  5
1EC2
330
1E0D
100
AcDbEntity
  8
0
  6
Continuous
 62
     0
370
    -2
100
AcDbLine
 10
113.1999999999999
 20
127.7878608450255
 30
0.0
 11
114.1249999999999
 21
127.7878608450255
 31
0.0
  0
SOLID
  5
1EC3
330
1E0D
100
AcDbEntity
  8
0
  6
Continuous
 62
     0
100
AcDbTrace
 10
110.1999999999999
 20
128.2878608450255
 30
0.0
 11
110.1999999999999
 21
127.2878608450255
 31
0.0
 12
113.1999999999999
 22
127.7878608450255
 32
0.0
 13
113.1999999999999
 23
127.7878608450255
 33
0.0
  0
SOLID
  5
1EC4
330
1E0D
100
AcDbEntity
  8
0
  6
Continuous
 62
     0
100
AcDbTrace
 10
117.1249999999999
 20
128.2878608450255
 30
0.0
 11
117.1249999999999
 21
127.2878608450255
 31
0.0
 12
114.1249999999999
 22
127.7878608450255
 32
0.0
 13
114.1249999999999
 23
127.7878608450255
 33
0.0
  0
POINT
  5
1EC5
330
1E0D
100
AcDbEntity
  8
DEFPOINTS
  6
Continuous
 62
     0
100
AcDbPoint
 10
113.1999999999999
 20
163.1249999999998
 30
0.0
  0
POINT
  5
1EC6
330
1E0D
100
AcDbEntity
  8
DEFPOINTS
  6
Continuous
 62
     0
100
AcDbPoint
 10
114.1249999999999
 20
138.2749999999998
 30
0.0
  0
POINT
  5
1EC7
330
1E0D
100
AcDbEntity
  8
DEFPOINTS
  6
Continuous
 62
     0
100
AcDbPoint
 10
114.1249999999999
 20
127.7878608450255
 30
0.0
  0
ENDBLK
  5
1E1A
330
1E0D
100
AcDbEntity
  8
0
100
AcDbBlockEnd
  0
BLOCK
  5
1EE8
330
1EE0
100
AcDbEntity
  8
0
100
AcDbBlockBegin
  2
A$C4A4B34CD
 70
     0
 10
0.0
 20
0.0
 30
0.0
  3
A$C4A4B34CD
  1

  0
TEXT
  5
1EE1
330
1EE0
100
AcDbEntity
  8
0
100
AcDbText
 10
-40.34050344145899
 20
14.94331425430246
 30
0.0
 40
3.0
  1
4×4用アウトレットBOX浅型対応
  7
BIGFONT
100
AcDbText
  0
POLYLINE
  5
1EE2
330
1EE0
100
AcDbEntity
  8
0
100
AcDb3dPolyline
 66
     1
 10
0.0
 20
0.0
 30
0.0
 70
     8
  0
VERTEX
  5
1EE3
330
1EE2
100
AcDbEntity
  8
0
100
AcDbVertex
100
AcDb3dPolylineVertex
 10
0.0000000000004832
 20
0.0000000000003695
 30
0.0
 70
    32
  0
VERTEX
  5
1EE4
330
1EE2
100
AcDbEntity
  8
0
100
AcDbVertex
100
AcDb3dPolylineVertex
 10
17.27188071065103
 20
13.55283453934382
 30
0.0
 70
    32
  0
VERTEX
  5
1EE5
330
1EE2
100
AcDbEntity
  8
0
100
AcDbVertex
100
AcDb3dPolylineVertex
 10
-41.29598646234581
 20
13.55283453934382
 30
0.0
 70
    32
  0
SEQEND
  5
1EE6
330
1EE2
100
AcDbEntity
  8
0
  0
TEXT
  5
1EE7
330
1EE0
100
AcDbEntity
  8
0
100
AcDbText
 10
-32.08783256690018
 20
9.154410512524663
 30
0.0
 40
3.0
  1
(1ヶ用塗りしろ)
  7
BIGFONT
100
AcDbText
  0
ENDBLK
  5
1EE9
330
1EE0
100
AcDbEntity
  8
0
100
AcDbBlockEnd
  0
ENDSEC
  0
SECTION
  2
ENTITIES
  0
TEXT
  5
EE8
330
1CDF
100
AcDbEntity
  8
0
100
AcDbText
 10
104.8034211128719
 20
254.0950862514524
 30
0.0
 40
3.5
  1
1
  7
BIGFONT
100
AcDbText
  0
LINE
  5
EED
330
1CDF
100
AcDbEntity
  8
0
  6
Continuous
100
AcDbLine
 10
78.29968496122862
 20
240.5155814017031
 30
0.0
 11
103.5484147033649
 21
254.4606147321244
 31
0.0
  0
TEXT
  5
EEE
330
1CDF
100
AcDbEntity
  8
0
100
AcDbText
 10
104.9306757570333
 20
216.610922106215
 30
0.0
 40
3.5
  1
2
  7
BIGFONT
100
AcDbText
  0
LINE
  5
EF3
330
1CDF
100
AcDbEntity
  8
0
  6
Continuous
100
AcDbLine
 10
145.0186013828657
 20
172.6249999999999
 30
0.0
 11
141.5230877000563
 21
185.1204354058376
 31
0.0
  0
LINE
  5
EF6
330
1CDF
100
AcDbEntity
  8
0
  6
Continuous
100
AcDbLine
 10
155.5186013828657
 20
172.6249999999999
 30
0.0
 11
153.377818734035
 21
185.0990285460065
 31
0.0
  0
CIRCLE
  5
F31
330
1CDF
100
AcDbEntity
  8
0
  6
Continuous
100
AcDbCircle
 10
105.7368197964742
 20
255.6692847236661
 30
0.0
 40
2.5
  0
LINE
  5
1359
330
1CDF
100
AcDbEntity
  8
0
100
AcDbLine
 10
27.07499999999999
 20
253.6249999999997
 30
0.0
 11
93.175
 21
253.6249999999997
 31
0.0
  0
LINE
  5
135A
330
1CDF
100
AcDbEntity
  8
0
100
AcDbLine
 10
93.175
 20
133.6249999999998
 30
0.0
 11
27.07499999999999
 21
133.6249999999998
 31
0.0
  0
DIMENSION
  5
135B
330
1CDF
100
AcDbEntity
  8
SUNPO
  6
Continuous
100
AcDbDimension
  2
*D7
 10
95.09999999999987
 20
120.6249999999998
 30
0.0
 11
60.11249999999993
 21
123.3749999999998
 31
0.0
 70
    32
 71
     5
 42
69.97499999999988
  3
STANDARD
100
AcDbAlignedDimension
 13
25.12499999999999
 23
135.5249999999998
 33
0.0
 14
95.09999999999987
 24
135.5499999999999
 34
0.0
100
AcDbRotatedDimension
1001
ACAD
1000
DSTYLE
1002
{
1070
   271
1070
     0
1002
}
  0
LINE
  5
135D
330
1CDF
100
AcDbEntity
  8
0
100
AcDbLine
 10
25.125
 20
135.5749999999999
 30
0.0
 11
25.125
 21
251.6749999999997
 31
0.0
  0
DIMENSION
  5
135E
330
1CDF
100
AcDbEntity
  8
SUNPO
  6
Continuous
100
AcDbDimension
  2
*D8
 10
15.12500000000001
 20
253.6249999999999
 30
0.0
 11
12.37499999999996
 21
193.6249999999998
 31
0.0
 70
    32
 71
     5
 42
120.0000000000001
  3
STANDARD
100
AcDbAlignedDimension
 13
27.025
 23
133.6249999999998
 33
0.0
 14
27.025
 24
253.6249999999999
 34
0.0
 50
90.0
100
AcDbRotatedDimension
1001
ACAD
1000
DSTYLE
1002
{
1070
   271
1070
     0
1002
}
  0
ARC
  5
135F
330
1CDF
100
AcDbEntity
  8
0
100
AcDbCircle
 10
27.07499999999999
 20
135.5999999999998
 30
0.0
 40
1.95
100
AcDbArc
 50
180.0
 51
270.0
  0
ARC
  5
1360
330
1CDF
100
AcDbEntity
  8
0
100
AcDbCircle
 10
27.07499999999999
 20
251.6749999999997
 30
0.0
 40
1.95
100
AcDbArc
 50
90.0
 51
180.0
  0
LINE
  5
136C
330
1CDF
100
AcDbEntity
  8
0
100
AcDbLine
 10
120.125
 20
253.6249999999997
 30
0.0
 11
120.125
 21
133.6249999999998
 31
0.0
  0
LINE
  5
136D
330
1CDF
100
AcDbEntity
  8
0
100
AcDbLine
 10
95.12499999999988
 20
251.6749999999997
 30
0.0
 11
95.12499999999988
 21
135.5749999999999
 31
0.0
  0
LINE
  5
136E
330
1CDF
100
AcDbEntity
  8
0
100
AcDbLine
 10
114.1249999999999
 20
138.2749999999998
 30
0.0
 11
114.1249999999999
 21
248.8749999999999
 31
0.0
  0
ARC
  5
1370
330
1CDF
100
AcDbEntity
  8
0
100
AcDbCircle
 10
93.15000000000003
 20
135.5999999999998
 30
0.0
 40
1.95
100
AcDbArc
 50
270.0
 51
0.0
  0
ARC
  5
1372
330
1CDF
100
AcDbEntity
  8
0
100
AcDbCircle
 10
118.775
 20
138.2999999999998
 30
0.0
 40
4.65
100
AcDbArc
 50
180.0
 51
270.0
  0
LINE
  5
1373
330
1CDF
100
AcDbEntity
  8
0
100
AcDbLine
 10
120.125
 20
133.6249999999998
 30
0.0
 11
118.775
 21
133.6249999999998
 31
0.0
  0
ARC
  5
1377
330
1CDF
100
AcDbEntity
  8
0
100
AcDbCircle
 10
93.15000000000003
 20
251.6749999999997
 30
0.0
 40
1.95
100
AcDbArc
 50
0.0
 51
90.0
  0
LINE
  5
1378
330
1CDF
100
AcDbEntity
  8
0
100
AcDbLine
 10
113.6999999999998
 20
158.1249999999998
 30
0.0
 11
113.6999999999998
 21
229.1249999999998
 31
0.0
  0
LINE
  5
137A
330
1CDF
100
AcDbEntity
  8
0
100
AcDbLine
 10
114.1249999999999
 20
158.1249999999998
 30
0.0
 11
113.6999999999998
 21
158.1249999999998
 31
0.0
  0
LINE
  5
137B
330
1CDF
100
AcDbEntity
  8
0
100
AcDbLine
 10
113.6999999999998
 20
229.1249999999998
 30
0.0
 11
114.1249999999999
 21
229.1249999999998
 31
0.0
  0
ARC
  5
138A
330
1CDF
100
AcDbEntity
  8
0
100
AcDbCircle
 10
118.875
 20
248.8749999999999
 30
0.0
 40
4.75
100
AcDbArc
 50
90.0
 51
180.0
  0
LINE
  5
138B
330
1CDF
100
AcDbEntity
  8
0
100
AcDbLine
 10
118.875
 20
253.6249999999997
 30
0.0
 11
120.125
 21
253.6249999999997
 31
0.0
  0
TEXT
  5
1546
330
1CDF
100
AcDbEntity
  8
0
100
AcDbText
 10
140.1493964418462
 20
185.8625706650272
 30
0.0
 40
3.5
  1
3
  7
BIGFONT
100
AcDbText
  0
LINE
  5
1566
330
1CDF
100
AcDbEntity
  8
0
100
AcDbLine
 10
113.1999999999999
 20
178.1249999999999
 30
0.0
 11
113.6999999999998
 21
178.1249999999999
 31
0.0
  0
LINE
  5
1567
330
1CDF
100
AcDbEntity
  8
0
100
AcDbLine
 10
113.6999999999998
 20
163.1249999999998
 30
0.0
 11
113.1999999999999
 21
163.1249999999998
 31
0.0
  0
LINE
  5
1569
330
1CDF
100
AcDbEntity
  8
0
100
AcDbLine
 10
113.1999999999999
 20
163.1249999999998
 30
0.0
 11
113.1999999999999
 21
178.1249999999999
 31
0.0
  0
LINE
  5
15B3
330
1CDF
100
AcDbEntity
  8
0
  6
Continuous
100
AcDbLine
 10
155.5186013828657
 20
158.6249999999998
 30
0.0
 11
154.0512232656724
 21
147.9612982558517
 31
0.0
  0
LINE
  5
15B4
330
1CDF
100
AcDbEntity
  8
0
  6
Continuous
100
AcDbLine
 10
145.0186013828657
 20
158.6249999999998
 30
0.0
 11
142.2180467461112
 21
147.893144131835
 31
0.0
  0
CIRCLE
  5
15B5
330
1CDF
100
AcDbEntity
  8
0
  6
Continuous
100
AcDbCircle
 10
140.955540481287
 20
187.5551612948171
 30
0.0
 40
2.5
  0
TEXT
  5
15B6
330
1CDF
100
AcDbEntity
  8
0
100
AcDbText
 10
140.7806495742584
 20
143.6667433431159
 30
0.0
 40
3.5
  1
5
  7
BIGFONT
100
AcDbText
  0
CIRCLE
  5
15B7
330
1CDF
100
AcDbEntity
  8
0
  6
Continuous
100
AcDbCircle
 10
153.0240004093859
 20
187.573864417967
 30
0.0
 40
2.5
  0
TEXT
  5
15B8
330
1CDF
100
AcDbEntity
  8
0
100
AcDbText
 10
152.8491095023571
 20
143.6854464662654
 30
0.0
 40
3.5
  1
6
  7
BIGFONT
100
AcDbText
  0
LINE
  5
192F
330
1CDF
100
AcDbEntity
  8
1
100
AcDbLine
 10
50.29999999999998
 20
201.6249999999999
 30
0.0
 11
50.29999999999998
 21
215.6249999999999
 31
0.0
  0
LINE
  5
1930
330
1CDF
100
AcDbEntity
  8
1
100
AcDbLine
 10
47.29999999999998
 20
159.6249999999998
 30
0.0
 11
47.29999999999998
 21
219.6249999999999
 31
0.0
  0
LINE
  5
1932
330
1CDF
100
AcDbEntity
  8
1
100
AcDbLine
 10
47.79999999999998
 20
220.1249999999999
 30
0.0
 11
72.79999999999998
 21
220.1249999999999
 31
0.0
  0
LINE
  5
1933
330
1CDF
100
AcDbEntity
  8
1
100
AcDbLine
 10
50.79999999999998
 20
197.1249999999999
 30
0.0
 11
69.79999999999995
 21
197.1249999999999
 31
0.0
  0
LINE
  5
1934
330
1CDF
100
AcDbEntity
  8
1
100
AcDbLine
 10
69.79999999999995
 20
182.1249999999999
 30
0.0
 11
50.79999999999998
 21
182.1249999999999
 31
0.0
  0
LINE
  5
1935
330
1CDF
100
AcDbEntity
  8
1
100
AcDbLine
 10
72.79999999999995
 20
159.1249999999998
 30
0.0
 11
47.79999999999998
 21
159.1249999999998
 31
0.0
  0
LINE
  5
1936
330
1CDF
100
AcDbEntity
  8
1
100
AcDbLine
 10
50.79999999999998
 20
178.1249999999999
 30
0.0
 11
69.79999999999995
 21
178.1249999999999
 31
0.0
  0
LINE
  5
1937
330
1CDF
100
AcDbEntity
  8
1
100
AcDbLine
 10
69.79999999999995
 20
163.1249999999998
 30
0.0
 11
50.79999999999998
 21
163.1249999999998
 31
0.0
  0
LINE
  5
1938
330
1CDF
100
AcDbEntity
  8
1
100
AcDbLine
 10
69.79999999999995
 20
201.1249999999999
 30
0.0
 11
50.79999999999998
 21
201.1249999999999
 31
0.0
  0
LINE
  5
1939
330
1CDF
100
AcDbEntity
  8
1
100
AcDbLine
 10
50.29999999999998
 20
163.6249999999998
 30
0.0
 11
50.29999999999998
 21
177.6249999999999
 31
0.0
  0
LINE
  5
193A
330
1CDF
100
AcDbEntity
  8
1
100
AcDbLine
 10
50.29999999999998
 20
182.6249999999999
 30
0.0
 11
50.29999999999998
 21
196.6249999999998
 31
0.0
  0
LINE
  5
193C
330
1CDF
100
AcDbEntity
  8
1
100
AcDbLine
 10
50.79999999999998
 20
216.1249999999999
 30
0.0
 11
69.79999999999995
 21
216.1249999999999
 31
0.0
  0
LINE
  5
193D
330
1CDF
100
AcDbEntity
  8
1
100
AcDbLine
 10
70.29999999999995
 20
215.6249999999999
 30
0.0
 11
70.29999999999995
 21
201.6249999999999
 31
0.0
  0
LINE
  5
193F
330
1CDF
100
AcDbEntity
  8
1
100
AcDbLine
 10
73.29999999999995
 20
159.6249999999998
 30
0.0
 11
73.29999999999998
 21
219.6249999999999
 31
0.0
  0
LINE
  5
1940
330
1CDF
100
AcDbEntity
  8
1
100
AcDbLine
 10
70.29999999999995
 20
196.6249999999998
 30
0.0
 11
70.29999999999995
 21
182.6249999999999
 31
0.0
  0
LINE
  5
1941
330
1CDF
100
AcDbEntity
  8
1
100
AcDbLine
 10
70.29999999999995
 20
177.6249999999999
 30
0.0
 11
70.29999999999995
 21
163.6249999999998
 31
0.0
  0
LINE
  5
1942
330
1CDF
100
AcDbEntity
  8
1
100
AcDbLine
 10
46.29999999999998
 20
158.1249999999998
 30
0.0
 11
46.29999999999998
 21
229.1249999999999
 31
0.0
  0
LINE
  5
1943
330
1CDF
100
AcDbEntity
  8
1
100
AcDbLine
 10
74.29999999999996
 20
158.1249999999998
 30
0.0
 11
74.29999999999996
 21
229.1249999999999
 31
0.0
  0
LINE
  5
1945
330
1CDF
100
AcDbEntity
  8
1
100
AcDbLine
 10
74.29999999999996
 20
158.1249999999998
 30
0.0
 11
46.29999999999998
 21
158.1249999999998
 31
0.0
  0
LINE
  5
1946
330
1CDF
100
AcDbEntity
  8
1
100
AcDbLine
 10
74.29999999999996
 20
229.1249999999998
 30
0.0
 11
46.29999999999998
 21
229.1249999999999
 31
0.0
  0
CIRCLE
  5
1955
330
1CDF
100
AcDbEntity
  8
0
  6
Continuous
100
AcDbCircle
 10
65.29999999999995
 20
224.1249999999999
 30
0.0
 40
1.0
  0
CIRCLE
  5
1956
330
1CDF
100
AcDbEntity
  8
0
  6
Continuous
100
AcDbCircle
 10
55.29999999999995
 20
224.1249999999999
 30
0.0
 40
1.0
  0
ARC
  5
195D
330
1CDF
100
AcDbEntity
  8
1
100
AcDbCircle
 10
47.79999999999998
 20
219.6249999999999
 30
0.0
 40
0.5
100
AcDbArc
 50
90.0
 51
180.0
  0
ARC
  5
195E
330
1CDF
100
AcDbEntity
  8
1
100
AcDbCircle
 10
50.79999999999998
 20
215.6249999999999
 30
0.0
 40
0.5
100
AcDbArc
 50
90.0
 51
180.0
  0
ARC
  5
195F
330
1CDF
100
AcDbEntity
  8
1
100
AcDbCircle
 10
72.79999999999998
 20
219.6249999999999
 30
0.0
 40
0.5
100
AcDbArc
 50
0.0
 51
89.99999999999991
  0
ARC
  5
1960
330
1CDF
100
AcDbEntity
  8
1
100
AcDbCircle
 10
69.79999999999995
 20
215.6249999999999
 30
0.0
 40
0.5
100
AcDbArc
 50
0.0
 51
89.99999999999991
  0
ARC
  5
1961
330
1CDF
100
AcDbEntity
  8
1
100
AcDbCircle
 10
69.79999999999995
 20
201.6249999999999
 30
0.0
 40
0.5
100
AcDbArc
 50
270.0
 51
0.0000000000000509
  0
ARC
  5
1962
330
1CDF
100
AcDbEntity
  8
1
100
AcDbCircle
 10
50.79999999999998
 20
201.6249999999999
 30
0.0
 40
0.5
100
AcDbArc
 50
179.9999999999999
 51
269.9999999999998
  0
ARC
  5
1964
330
1CDF
100
AcDbEntity
  8
1
100
AcDbCircle
 10
50.79999999999998
 20
196.6249999999998
 30
0.0
 40
0.5
100
AcDbArc
 50
90.0
 51
180.0
  0
ARC
  5
1965
330
1CDF
100
AcDbEntity
  8
1
100
AcDbCircle
 10
69.79999999999995
 20
196.6249999999998
 30
0.0
 40
0.5
100
AcDbArc
 50
0.0
 51
89.99999999999991
  0
ARC
  5
1966
330
1CDF
100
AcDbEntity
  8
1
100
AcDbCircle
 10
69.79999999999995
 20
182.6249999999999
 30
0.0
 40
0.5
100
AcDbArc
 50
270.0
 51
0.0000000000000509
  0
ARC
  5
1967
330
1CDF
100
AcDbEntity
  8
1
100
AcDbCircle
 10
50.79999999999998
 20
182.6249999999999
 30
0.0
 40
0.5
100
AcDbArc
 50
179.9999999999999
 51
269.9999999999998
  0
ARC
  5
1968
330
1CDF
100
AcDbEntity
  8
1
100
AcDbCircle
 10
50.79999999999998
 20
177.6249999999999
 30
0.0
 40
0.5
100
AcDbArc
 50
90.0
 51
180.0
  0
ARC
  5
1969
330
1CDF
100
AcDbEntity
  8
1
100
AcDbCircle
 10
69.79999999999995
 20
177.6249999999999
 30
0.0
 40
0.5
100
AcDbArc
 50
0.0
 51
90.0
  0
ARC
  5
196A
330
1CDF
100
AcDbEntity
  8
1
100
AcDbCircle
 10
69.79999999999995
 20
163.6249999999998
 30
0.0
 40
0.5
100
AcDbArc
 50
270.0
 51
0.0000000000000509
  0
ARC
  5
196B
330
1CDF
100
AcDbEntity
  8
1
100
AcDbCircle
 10
50.79999999999998
 20
163.6249999999998
 30
0.0
 40
0.5
100
AcDbArc
 50
179.9999999999999
 51
269.9999999999998
  0
ARC
  5
196C
330
1CDF
100
AcDbEntity
  8
1
100
AcDbCircle
 10
47.79999999999998
 20
159.6249999999998
 30
0.0
 40
0.5
100
AcDbArc
 50
180.0
 51
270.0
  0
ARC
  5
196D
330
1CDF
100
AcDbEntity
  8
1
100
AcDbCircle
 10
72.79999999999995
 20
159.6249999999998
 30
0.0
 40
0.5
100
AcDbArc
 50
270.0
 51
0.0
  0
LINE
  5
196E
330
1CDF
100
AcDbEntity
  8
0
  6
Continuous
100
AcDbLine
 10
58.5
 20
211.0
 30
0.0
 11
58.5
 21
212.0
 31
0.0
  0
LINE
  5
1971
330
1CDF
100
AcDbEntity
  8
0
  6
Continuous
100
AcDbLine
 10
60.5
 20
213.0
 30
0.0
 11
61.5
 21
213.0
 31
0.0
  0
LINE
  5
1972
330
1CDF
100
AcDbEntity
  8
0
  6
Continuous
100
AcDbLine
 10
61.5
 20
213.0
 30
0.0
 11
61.5
 21
204.5
 31
0.0
  0
LINE
  5
1973
330
1CDF
100
AcDbEntity
  8
0
  6
Continuous
100
AcDbLine
 10
61.5
 20
204.5
 30
0.0
 11
59.5
 21
204.5
 31
0.0
  0
LINE
  5
1974
330
1CDF
100
AcDbEntity
  8
0
  6
Continuous
100
AcDbLine
 10
59.5
 20
204.5
 30
0.0
 11
59.5
 21
211.0
 31
0.0
  0
LINE
  5
1975
330
1CDF
100
AcDbEntity
  8
0
  6
Continuous
100
AcDbLine
 10
59.5
 20
211.0
 30
0.0
 11
58.5
 21
211.0
 31
0.0
  0
ARC
  5
1977
330
1CDF
100
AcDbEntity
  8
0
  6
Continuous
100
AcDbCircle
 10
58.5
 20
214.4999999999999
 30
0.0
 40
2.5
100
AcDbArc
 50
270.0
 51
323.130102354156
  0
LINE
  5
197B
330
1CDF
100
AcDbEntity
  8
0
  6
Continuous
100
AcDbLine
 10
63.5
 20
185.5
 30
0.0
 11
57.5
 21
185.5
 31
0.0
  0
LINE
  5
1980
330
1CDF
100
AcDbEntity
  8
0
  6
Continuous
100
AcDbLine
 10
57.5
 20
185.5
 30
0.0
 11
57.5
 21
186.0
 31
0.0
  0
LINE
  5
1981
330
1CDF
100
AcDbEntity
  8
0
  6
Continuous
100
AcDbLine
 10
63.5
 20
185.5
 30
0.0
 11
63.5
 21
187.0
 31
0.0
  0
LINE
  5
1982
330
1CDF
100
AcDbEntity
  8
0
  6
Continuous
100
AcDbLine
 10
63.5
 20
187.0
 30
0.0
 11
59.25
 21
187.0
 31
0.0
  0
LINE
  5
1983
330
1CDF
100
AcDbEntity
  8
0
  6
Continuous
100
AcDbLine
 10
59.0
 20
191.0
 30
0.0
 11
57.5
 21
191.0
 31
0.0
  0
ARC
  5
1987
330
1CDF
100
AcDbEntity
  8
0
  6
Continuous
100
AcDbCircle
 10
60.5
 20
191.0
 30
0.0
 40
3.000000000000003
100
AcDbArc
 50
273.2975299563031
 51
180.0
  0
ARC
  5
1988
330
1CDF
100
AcDbEntity
  8
0
  6
Continuous
100
AcDbCircle
 10
60.5
 20
191.0
 30
0.0
 40
1.5
100
AcDbArc
 50
270.0
 51
180.0
  0
ARC
  5
198C
330
1CDF
100
AcDbEntity
  8
0
  6
Continuous
100
AcDbCircle
 10
61.12499999999989
 20
185.8552029108904
 30
0.0
 40
2.196858068977793
100
AcDbArc
 50
101.8849599904575
 51
148.5934952328234
  0
ARC
  5
198D
330
1CDF
100
AcDbEntity
  8
0
  6
Continuous
100
AcDbCircle
 10
60.96166225218903
 20
186.0685752124093
 30
0.0
 40
3.462341419904694
100
AcDbArc
 50
97.66253499996167
 51
181.1348757100291
  0
LINE
  5
198E
330
1CDF
100
AcDbEntity
  8
0
  6
Continuous
100
AcDbLine
 10
59.0
 20
172.0
 30
0.0
 11
57.5
 21
172.0
 31
0.0
  0
ARC
  5
198F
330
1CDF
100
AcDbEntity
  8
0
  6
Continuous
100
AcDbCircle
 10
60.37219588998721
 20
172.4332938349808
 30
0.0
 40
1.438980579413859
100
AcDbArc
 50
8.740353730079057
 51
197.524384398302
  0
ARC
  5
1994
330
1CDF
100
AcDbEntity
  8
0
  6
Continuous
100
AcDbCircle
 10
60.40127889219988
 20
172.4245705613809
 30
0.0
 40
2.932179969223588
100
AcDbArc
 50
356.4829801359297
 51
188.3255181318969
  0
LINE
  5
1999
330
1CDF
100
AcDbEntity
  8
0
  6
Continuous
100
AcDbLine
 10
59.0
 20
170.0
 30
0.0
 11
57.5
 21
170.0
 31
0.0
  0
ARC
  5
199A
330
1CDF
100
AcDbEntity
  8
0
  6
Continuous
100
AcDbCircle
 10
60.37219588998721
 20
169.566706165019
 30
0.0
 40
1.438980579413859
100
AcDbArc
 50
162.4756156016979
 51
351.2596462698384
  0
LINE
  5
199B
330
1CDF
100
AcDbEntity
  8
0
  6
Continuous
100
AcDbLine
 10
59.5
 20
171.5
 30
0.0
 11
59.5
 21
170.5
 31
0.0
  0
LINE
  5
199C
330
1CDF
100
AcDbEntity
  8
0
  6
Continuous
100
AcDbLine
 10
59.5
 20
170.5
 30
0.0
 11
60.80607863526575
 21
170.5
 31
0.0
  0
LINE
  5
199D
330
1CDF
100
AcDbEntity
  8
0
  6
Continuous
100
AcDbLine
 10
60.80607863526996
 20
171.5
 30
0.0
 11
59.5
 21
171.5
 31
0.0
  0
ARC
  5
19A0
330
1CDF
100
AcDbEntity
  8
0
  6
Continuous
100
AcDbCircle
 10
61.0
 20
173.0
 30
0.0
 40
2.5
100
AcDbArc
 50
306.8698976458438
 51
332.4424458060024
  0
ARC
  5
19A2
330
1CDF
100
AcDbEntity
  8
0
  6
Continuous
100
AcDbCircle
 10
60.80607863526996
 20
172.5
 30
0.0
 40
1.0
100
AcDbArc
 50
270.0
 51
8.740353730079267
  0
ARC
  5
19A3
330
1CDF
100
AcDbEntity
  8
0
  6
Continuous
100
AcDbCircle
 10
60.80607863526575
 20
169.5
 30
0.0
 40
1.0
100
AcDbArc
 50
351.2596462698386
 51
90.0
  0
ARC
  5
19A4
330
1CDF
100
AcDbEntity
  8
0
  6
Continuous
100
AcDbCircle
 10
62.32981983183549
 20
172.3060409126921
 30
0.0
 40
1.0
100
AcDbArc
 50
332.4424458060026
 51
356.4829801359302
  0
ARC
  5
19A5
330
1CDF
100
AcDbEntity
  8
0
  6
Continuous
100
AcDbCircle
 10
60.40127889219988
 20
169.5754294386189
 30
0.0
 40
2.932179969223588
100
AcDbArc
 50
171.674481868103
 51
3.517019864070086
  0
ARC
  5
19A6
330
1CDF
100
AcDbEntity
  8
0
  6
Continuous
100
AcDbCircle
 10
61.0
 20
169.0
 30
0.0
 40
2.5
100
AcDbArc
 50
27.55755419399758
 51
53.130102354156
  0
ARC
  5
19A7
330
1CDF
100
AcDbEntity
  8
0
  6
Continuous
100
AcDbCircle
 10
62.32981983183549
 20
169.6939590873076
 30
0.0
 40
1.0
100
AcDbArc
 50
3.517019864069781
 51
27.55755419399732
  0
LINE
  5
19E1
330
1CDF
100
AcDbEntity
  8
0
100
AcDbLine
 10
113.1999999999999
 20
197.1249999999999
 30
0.0
 11
113.6999999999998
 21
197.1249999999999
 31
0.0
  0
LINE
  5
19E2
330
1CDF
100
AcDbEntity
  8
0
100
AcDbLine
 10
113.6999999999998
 20
182.1249999999999
 30
0.0
 11
113.1999999999999
 21
182.1249999999999
 31
0.0
  0
LINE
  5
19E3
330
1CDF
100
AcDbEntity
  8
0
100
AcDbLine
 10
113.1999999999999
 20
182.1249999999999
 30
0.0
 11
113.1999999999999
 21
197.1249999999999
 31
0.0
  0
LINE
  5
19E4
330
1CDF
100
AcDbEntity
  8
0
100
AcDbLine
 10
113.1999999999999
 20
216.1249999999999
 30
0.0
 11
113.6999999999998
 21
216.1249999999999
 31
0.0
  0
LINE
  5
19E5
330
1CDF
100
AcDbEntity
  8
0
100
AcDbLine
 10
113.6999999999998
 20
201.1249999999999
 30
0.0
 11
113.1999999999999
 21
201.1249999999999
 31
0.0
  0
LINE
  5
19E6
330
1CDF
100
AcDbEntity
  8
0
100
AcDbLine
 10
113.1999999999999
 20
201.1249999999999
 30
0.0
 11
113.1999999999999
 21
216.1249999999999
 31
0.0
  0
LINE
  5
1A16
330
1CDF
100
AcDbEntity
  8
0
100
AcDbLine
 10
125.125
 20
173.1249999999999
 30
0.0
 11
125.125
 21
168.1249999999999
 31
0.0
  0
LINE
  5
1A20
330
1CDF
100
AcDbEntity
  8
0
  6
Continuous
100
AcDbLine
 10
125.125
 20
170.1249999999999
 30
0.0
 11
134.9048388810654
 21
170.1249999999999
 31
0.0
  0
LINE
  5
1A21
330
1CDF
100
AcDbEntity
  8
0
  6
Continuous
100
AcDbLine
 10
120.1249999999998
 20
173.1249999999999
 30
0.0
 11
125.125
 21
173.1249999999999
 31
0.0
  0
LINE
  5
1A22
330
1CDF
100
AcDbEntity
  8
0
  6
Continuous
100
AcDbLine
 10
120.1249999999998
 20
168.1249999999999
 30
0.0
 11
125.125
 21
168.1249999999999
 31
0.0
  0
LINE
  5
1A23
330
1CDF
100
AcDbEntity
  8
0
  6
Continuous
100
AcDbLine
 10
125.125
 20
171.1249999999999
 30
0.0
 11
134.481398617134
 21
171.1249999999999
 31
0.0
  0
LINE
  5
1A24
330
1CDF
100
AcDbEntity
  8
0
100
AcDbLine
 10
141.2686013828657
 20
172.6249999999999
 30
0.0
 11
141.2686013828657
 21
168.6249999999999
 31
0.0
  0
LINE
  5
1A25
330
1CDF
100
AcDbEntity
  8
0
  6
Continuous
100
AcDbLine
 10
148.7686013828657
 20
172.6249999999999
 30
0.0
 11
141.2686013828657
 21
172.6249999999999
 31
0.0
  0
LINE
  5
1A26
330
1CDF
100
AcDbEntity
  8
0
  6
Continuous
100
AcDbLine
 10
148.7686013828657
 20
168.6249999999999
 30
0.0
 11
141.2686013828657
 21
168.6249999999999
 31
0.0
  0
LINE
  5
1A27
330
1CDF
100
AcDbEntity
  8
0
100
AcDbLine
 10
148.7686013828657
 20
172.6249999999999
 30
0.0
 11
148.7686013828657
 21
168.6249999999999
 31
0.0
  0
LINE
  5
1A28
330
1CDF
100
AcDbEntity
  8
0
  6
Continuous
100
AcDbLine
 10
167.0756931946819
 20
170.1249999999999
 30
0.0
 11
159.2686013828657
 21
170.1249999999999
 31
0.0
  0
LINE
  5
1A29
330
1CDF
100
AcDbEntity
  8
0
  6
Continuous
100
AcDbLine
 10
167.0756931946819
 20
171.1249999999999
 30
0.0
 11
159.2686013828657
 21
171.1249999999999
 31
0.0
  0
LINE
  5
1A2A
330
1CDF
100
AcDbEntity
  8
0
100
AcDbLine
 10
159.2686013828657
 20
172.6249999999999
 30
0.0
 11
159.2686013828657
 21
168.6249999999999
 31
0.0
  0
LINE
  5
1A2B
330
1CDF
100
AcDbEntity
  8
0
  6
Continuous
100
AcDbLine
 10
151.7686013828655
 20
172.6249999999999
 30
0.0
 11
159.2686013828657
 21
172.6249999999999
 31
0.0
  0
LINE
  5
1A2C
330
1CDF
100
AcDbEntity
  8
0
  6
Continuous
100
AcDbLine
 10
151.7686013828655
 20
168.6249999999999
 30
0.0
 11
159.2686013828657
 21
168.6249999999999
 31
0.0
  0
LINE
  5
1A2D
330
1CDF
100
AcDbEntity
  8
0
100
AcDbLine
 10
151.7686013828655
 20
172.6249999999999
 30
0.0
 11
151.7686013828655
 21
168.6249999999999
 31
0.0
  0
LINE
  5
1A2E
330
1CDF
100
AcDbEntity
  8
0
  6
Continuous
100
AcDbLine
 10
135.3188567440477
 20
171.8721603166294
 30
0.0
 11
135.074078642394
 21
171.4329233211558
 31
0.0
  0
LINE
  5
1A2F
330
1CDF
100
AcDbEntity
  8
0
  6
Continuous
100
AcDbLine
 10
135.1292163517886
 20
170.617828016161
 30
0.0
 11
135.2686013828657
 21
170.4319813080583
 31
0.0
  0
LINE
  5
1A30
330
1CDF
100
AcDbEntity
  8
0
  6
Continuous
100
AcDbLine
 10
135.292639103619
 20
169.5659561608895
 30
0.0
 11
135.0869831693241
 21
169.257472259447
 31
0.0
  0
ARC
  5
1A34
330
1CDF
100
AcDbEntity
  8
0
  6
Continuous
100
AcDbCircle
 10
135.7292163517886
 20
171.067828016161
 30
0.0
 40
0.75
100
AcDbArc
 50
150.8699396428589
 51
216.8698976458439
  0
ARC
  5
1A37
330
1CDF
100
AcDbEntity
  8
0
  6
Continuous
100
AcDbCircle
 10
134.6686013828657
 20
169.9819813080584
 30
0.0
 40
0.75
100
AcDbArc
 50
326.30993247402
 51
36.869897645844
  0
LINE
  5
1A38
330
1CDF
100
AcDbEntity
  8
0
  6
Continuous
100
AcDbLine
 10
134.8188567440476
 20
171.8721603166294
 30
0.0
 11
134.574078642394
 21
171.4329233211558
 31
0.0
  0
LINE
  5
1A39
330
1CDF
100
AcDbEntity
  8
0
  6
Continuous
100
AcDbLine
 10
134.6292163517886
 20
170.617828016161
 30
0.0
 11
134.7686013828655
 21
170.4319813080583
 31
0.0
  0
ARC
  5
1A3A
330
1CDF
100
AcDbEntity
  8
0
  6
Continuous
100
AcDbCircle
 10
135.2292163517885
 20
171.067828016161
 30
0.0
 40
0.75
100
AcDbArc
 50
150.8699396428589
 51
216.8698976458439
  0
LINE
  5
1A3B
330
1CDF
100
AcDbEntity
  8
0
  6
Continuous
100
AcDbLine
 10
134.792639103619
 20
169.5659561608895
 30
0.0
 11
134.586983169324
 21
169.257472259447
 31
0.0
  0
ARC
  5
1A3C
330
1CDF
100
AcDbEntity
  8
0
  6
Continuous
100
AcDbCircle
 10
134.1686013828657
 20
169.9819813080584
 30
0.0
 40
0.75
100
AcDbArc
 50
326.30993247402
 51
36.869897645844
  0
LINE
  5
1A3D
330
1CDF
100
AcDbEntity
  8
0
  6
Continuous
100
AcDbLine
 10
134.981398617134
 20
171.1249999999999
 30
0.0
 11
141.2686013828655
 21
171.1249999999999
 31
0.0
  0
LINE
  5
1A3E
330
1CDF
100
AcDbEntity
  8
0
  6
Continuous
100
AcDbLine
 10
135.4048388810652
 20
170.1249999999999
 30
0.0
 11
141.2686013828655
 21
170.1249999999999
 31
0.0
  0
LINE
  5
1A3F
330
1CDF
100
AcDbEntity
  8
0
  6
Continuous
100
AcDbLine
 10
126.0082906248085
 20
160.1249999999998
 30
0.0
 11
134.9048388810654
 21
160.1249999999998
 31
0.0
  0
LINE
  5
1A40
330
1CDF
100
AcDbEntity
  8
0
  6
Continuous
100
AcDbLine
 10
135.4048388810652
 20
160.1249999999998
 30
0.0
 11
141.2686013828655
 21
160.1249999999998
 31
0.0
  0
LINE
  5
1A41
330
1CDF
100
AcDbEntity
  8
0
  6
Continuous
100
AcDbLine
 10
126.3606502229267
 20
161.1249999999998
 30
0.0
 11
134.481398617134
 21
161.1249999999998
 31
0.0
  0
LINE
  5
1A42
330
1CDF
100
AcDbEntity
  8
0
  6
Continuous
100
AcDbLine
 10
134.981398617134
 20
161.1249999999998
 30
0.0
 11
141.2686013828655
 21
161.1249999999998
 31
0.0
  0
LINE
  5
1A43
330
1CDF
100
AcDbEntity
  8
0
100
AcDbLine
 10
141.2686013828657
 20
162.6249999999998
 30
0.0
 11
141.2686013828657
 21
158.6249999999998
 31
0.0
  0
LINE
  5
1A44
330
1CDF
100
AcDbEntity
  8
0
  6
Continuous
100
AcDbLine
 10
148.7686013828657
 20
162.6249999999997
 30
0.0
 11
141.2686013828657
 21
162.6249999999998
 31
0.0
  0
LINE
  5
1A45
330
1CDF
100
AcDbEntity
  8
0
  6
Continuous
100
AcDbLine
 10
148.7686013828657
 20
158.6249999999998
 30
0.0
 11
141.2686013828657
 21
158.6249999999998
 31
0.0
  0
LINE
  5
1A46
330
1CDF
100
AcDbEntity
  8
0
100
AcDbLine
 10
148.7686013828657
 20
162.6249999999998
 30
0.0
 11
148.7686013828657
 21
158.6249999999998
 31
0.0
  0
LINE
  5
1A47
330
1CDF
100
AcDbEntity
  8
0
  6
Continuous
100
AcDbLine
 10
167.0756931946819
 20
160.1249999999998
 30
0.0
 11
159.2686013828657
 21
160.1249999999998
 31
0.0
  0
LINE
  5
1A48
330
1CDF
100
AcDbEntity
  8
0
  6
Continuous
100
AcDbLine
 10
167.0756931946819
 20
161.1249999999998
 30
0.0
 11
159.2686013828657
 21
161.1249999999998
 31
0.0
  0
LINE
  5
1A49
330
1CDF
100
AcDbEntity
  8
0
100
AcDbLine
 10
159.2686013828657
 20
162.6249999999998
 30
0.0
 11
159.2686013828657
 21
158.6249999999998
 31
0.0
  0
LINE
  5
1A4A
330
1CDF
100
AcDbEntity
  8
0
  6
Continuous
100
AcDbLine
 10
151.7686013828655
 20
162.6249999999998
 30
0.0
 11
159.2686013828657
 21
162.6249999999998
 31
0.0
  0
LINE
  5
1A4B
330
1CDF
100
AcDbEntity
  8
0
  6
Continuous
100
AcDbLine
 10
151.7686013828655
 20
158.6249999999998
 30
0.0
 11
159.2686013828657
 21
158.6249999999998
 31
0.0
  0
LINE
  5
1A4C
330
1CDF
100
AcDbEntity
  8
0
100
AcDbLine
 10
151.7686013828655
 20
162.6249999999998
 30
0.0
 11
151.7686013828655
 21
158.6249999999998
 31
0.0
  0
LINE
  5
1A4D
330
1CDF
100
AcDbEntity
  8
0
  6
Continuous
100
AcDbLine
 10
135.3188567440477
 20
161.8721603166293
 30
0.0
 11
135.074078642394
 21
161.4329233211558
 31
0.0
  0
LINE
  5
1A4E
330
1CDF
100
AcDbEntity
  8
0
  6
Continuous
100
AcDbLine
 10
135.1292163517886
 20
160.617828016161
 30
0.0
 11
135.2686013828657
 21
160.4319813080584
 31
0.0
  0
ARC
  5
1A4F
330
1CDF
100
AcDbEntity
  8
0
  6
Continuous
100
AcDbCircle
 10
135.7292163517886
 20
161.067828016161
 30
0.0
 40
0.75
100
AcDbArc
 50
150.8699396428589
 51
216.8698976458439
  0
LINE
  5
1A50
330
1CDF
100
AcDbEntity
  8
0
  6
Continuous
100
AcDbLine
 10
135.292639103619
 20
159.5659561608894
 30
0.0
 11
135.0869831693241
 21
159.2574722594471
 31
0.0
  0
ARC
  5
1A51
330
1CDF
100
AcDbEntity
  8
0
  6
Continuous
100
AcDbCircle
 10
134.6686013828657
 20
159.9819813080585
 30
0.0
 40
0.75
100
AcDbArc
 50
326.30993247402
 51
36.869897645844
  0
LINE
  5
1A52
330
1CDF
100
AcDbEntity
  8
0
  6
Continuous
100
AcDbLine
 10
134.8188567440476
 20
161.8721603166293
 30
0.0
 11
134.574078642394
 21
161.4329233211558
 31
0.0
  0
LINE
  5
1A53
330
1CDF
100
AcDbEntity
  8
0
  6
Continuous
100
AcDbLine
 10
134.6292163517886
 20
160.617828016161
 30
0.0
 11
134.7686013828655
 21
160.4319813080584
 31
0.0
  0
ARC
  5
1A54
330
1CDF
100
AcDbEntity
  8
0
  6
Continuous
100
AcDbCircle
 10
135.2292163517885
 20
161.067828016161
 30
0.0
 40
0.75
100
AcDbArc
 50
150.8699396428589
 51
216.8698976458439
  0
LINE
  5
1A55
330
1CDF
100
AcDbEntity
  8
0
  6
Continuous
100
AcDbLine
 10
134.792639103619
 20
159.5659561608894
 30
0.0
 11
134.586983169324
 21
159.2574722594471
 31
0.0
  0
ARC
  5
1A56
330
1CDF
100
AcDbEntity
  8
0
  6
Continuous
100
AcDbCircle
 10
134.1686013828657
 20
159.9819813080585
 30
0.0
 40
0.75
100
AcDbArc
 50
326.30993247402
 51
36.869897645844
  0
LINE
  5
1A58
330
1CDF
100
AcDbEntity
  8
0
  6
Continuous
100
AcDbLine
 10
123.1559310266898
 20
168.1249999999999
 30
0.0
 11
125.4189083113319
 21
161.7886636030018
 31
0.0
  0
LINE
  5
1A59
330
1CDF
100
AcDbEntity
  8
0
  6
Continuous
100
AcDbLine
 10
122.0940689733101
 20
168.1249999999999
 30
0.0
 11
124.5956777574162
 21
161.1204954045024
 31
0.0
  0
ARC
  5
1A5A
330
1CDF
100
AcDbEntity
  8
0
  6
Continuous
100
AcDbCircle
 10
126.0082906248085
 20
161.6249999999998
 30
0.0
 40
1.5
100
AcDbArc
 50
199.6538240580533
 51
270.0000000000001
  0
ARC
  5
1A5B
330
1CDF
100
AcDbEntity
  8
0
  6
Continuous
100
AcDbCircle
 10
126.3606502229267
 20
162.1249999999998
 30
0.0
 40
1.0
100
AcDbArc
 50
199.6538240580533
 51
270.0000000000001
  0
LINE
  5
1A5C
330
1CDF
100
AcDbEntity
  8
0
100
AcDbLine
 10
15.65
 20
65.27500000000006
 30
0.0
 11
15.65
 21
29.27500000000004
 31
0.0
  0
LINE
  5
1A5D
330
1CDF
100
AcDbEntity
  8
0
100
AcDbLine
 10
15.65
 20
29.27500000000004
 30
0.0
 11
179.8999999999999
 21
29.27499999999997
 31
0.0
  0
LINE
  5
1A5E
330
1CDF
100
AcDbEntity
  8
0
100
AcDbLine
 10
15.65
 20
41.27500000000003
 30
0.0
 11
179.8999999999999
 21
41.27499999999996
 31
0.0
  0
LINE
  5
1A5F
330
1CDF
100
AcDbEntity
  8
0
100
AcDbLine
 10
15.65
 20
47.27500000000004
 30
0.0
 11
179.8999999999999
 21
47.27499999999998
 31
0.0
  0
LINE
  5
1A60
330
1CDF
100
AcDbEntity
  8
0
100
AcDbLine
 10
45.65
 20
53.27500000000004
 30
0.0
 11
179.8999999999999
 21
53.27499999999998
 31
0.0
  0
LINE
  5
1A61
330
1CDF
100
AcDbEntity
  8
0
100
AcDbLine
 10
45.65
 20
59.27500000000004
 30
0.0
 11
179.8999999999999
 21
59.27499999999997
 31
0.0
  0
LINE
  5
1A62
330
1CDF
100
AcDbEntity
  8
0
100
AcDbLine
 10
45.65
 20
65.27500000000003
 30
0.0
 11
45.65
 21
29.27500000000004
 31
0.0
  0
LINE
  5
1A63
330
1CDF
100
AcDbEntity
  8
0
100
AcDbLine
 10
179.8999999999999
 20
65.27499999999993
 30
0.0
 11
179.8999999999999
 21
29.27499999999998
 31
0.0
  0
TEXT
  5
1A64
330
1CDF
100
AcDbEntity
  8
0
100
AcDbText
 10
18.45502776698185
 20
60.85000000000004
 30
0.0
 40
3.5
  1
仕　　　様
  7
BIGFONT
100
AcDbText
  0
LINE
  5
1A65
330
1CDF
100
AcDbEntity
  8
0
100
AcDbLine
 10
15.65
 20
35.27500000000003
 30
0.0
 11
179.8999999999999
 21
35.27499999999998
 31
0.0
  0
LINE
  5
1A66
330
1CDF
100
AcDbEntity
  8
0
100
AcDbLine
 10
15.65
 20
65.27500000000003
 30
0.0
 11
179.8999999999999
 21
65.27499999999993
 31
0.0
  0
TEXT
  5
1A68
330
1CDF
100
AcDbEntity
  8
0
100
AcDbText
 10
18.55502776698185
 20
42.57500000000005
 30
0.0
 40
3.5
  1
機　　　能
  7
BIGFONT
100
AcDbText
  0
TEXT
  5
1A69
330
1CDF
100
AcDbEntity
  8
0
100
AcDbText
 10
18.55502776698185
 20
36.57500000000005
 30
0.0
 40
3.5
  1
動作環境条件
  7
BIGFONT
100
AcDbText
  0
TEXT
  5
1A6A
330
1CDF
100
AcDbEntity
  8
0
100
AcDbText
 10
47.55502776698185
 20
60.575
 30
0.0
 40
3.5
  1
樹脂フイルム式、3キー
  7
BIGFONT
100
AcDbText
  0
TEXT
  5
1A6B
330
1CDF
100
AcDbEntity
  8
0
100
AcDbText
 10
47.55502776698185
 20
54.57500000000003
 30
0.0
 40
3.5
  1
タクトスイッチ耐久性　100万回／2kgf
  7
BIGFONT
100
AcDbText
  0
TEXT
  5
1A6C
330
1CDF
100
AcDbEntity
  8
0
100
AcDbText
 10
47.55502776698185
 20
48.57500000000001
 30
0.0
 40
3.5
  1
暗証番号設定（1～8桁）
  7
BIGFONT
100
AcDbText
  0
TEXT
  5
1A6E
330
1CDF
100
AcDbEntity
  8
0
100
AcDbText
 10
47.55502776698185
 20
42.57500000000005
 30
0.0
 40
3.5
  1
並列使用可能
  7
BIGFONT
100
AcDbText
  0
TEXT
  5
1A6F
330
1CDF
100
AcDbEntity
  8
0
100
AcDbText
 10
47.55502776698185
 20
36.57500000000005
 30
0.0
 40
3.5
  1
-10～+60℃
  7
BIGFONT
100
AcDbText
  0
LINE
  5
1A71
330
1CDF
100
AcDbEntity
  8
0
100
AcDbLine
 10
95.65000000000001
 20
41.275
 30
0.0
 11
95.65000000000001
 21
35.27500000000005
 31
0.0
  0
LINE
  5
1A72
330
1CDF
100
AcDbEntity
  8
0
100
AcDbLine
 10
125.65
 20
41.275
 30
0.0
 11
125.65
 21
35.27500000000005
 31
0.0
  0
TEXT
  5
1A73
330
1CDF
100
AcDbEntity
  8
0
100
AcDbText
 10
98.55502776698187
 20
36.57500000000005
 30
0.0
 40
3.5
  1
電 気 特 性
  7
BIGFONT
100
AcDbText
  0
TEXT
  5
1A74
330
1CDF
100
AcDbEntity
  8
0
100
AcDbText
 10
127.5550277669817
 20
36.57500000000005
 30
0.0
 40
3.5
  1
DC24V　20mA
  7
BIGFONT
100
AcDbText
  0
DIMENSION
  5
1A79
330
1CDF
100
AcDbEntity
  8
0
  6
Continuous
100
AcDbDimension
  2
*D9
 10
120.125
 20
120.6249999999998
 30
0.0
 11
117.1249999999999
 21
123.3749999999998
 31
0.0
 70
    32
 71
     5
 42
6.000000000000099
  3
STANDARD
100
AcDbAlignedDimension
 13
114.1249999999999
 23
138.2999999999998
 33
0.0
 14
120.125
 24
133.6249999999998
 34
0.0
100
AcDbRotatedDimension
1001
ACAD
1000
DSTYLE
1002
{
1070
   271
1070
     0
1002
}
  0
DIMENSION
  5
1A88
330
1CDF
100
AcDbEntity
  8
0
  6
Continuous
100
AcDbDimension
  2
*D10
 10
114.1249999999999
 20
127.7878608450255
 30
0.0
 11
109.3061733970303
 21
131.1033663118556
 31
0.0
 70
   160
 71
     5
 42
0.9249999999999971
  3
STANDARD
100
AcDbAlignedDimension
 13
113.1999999999999
 23
163.1249999999998
 33
0.0
 14
114.1249999999999
 24
138.2749999999998
 34
0.0
100
AcDbRotatedDimension
1001
ACAD
1000
DSTYLE
1002
{
1070
   271
1070
     0
1002
}
  0
LINE
  5
1AA2
330
1CDF
100
AcDbEntity
  8
0
  6
Continuous
100
AcDbLine
 10
65.81912052238681
 20
208.6249999999999
 30
0.0
 11
103.3072153646457
 21
217.714426744965
 31
0.0
  0
CIRCLE
  5
1AA3
330
1CDF
100
AcDbEntity
  8
0
  6
Continuous
100
AcDbCircle
 10
105.7368197964742
 20
218.3035127360049
 30
0.0
 40
2.5
  0
TEXT
  5
1AA4
330
1CDF
100
AcDbEntity
  8
0
100
AcDbText
 10
152.217856369945
 20
185.7664550477565
 30
0.0
 40
3.5
  1
4
  7
BIGFONT
100
AcDbText
  0
CIRCLE
  5
1AA5
330
1CDF
100
AcDbEntity
  8
0
  6
Continuous
100
AcDbCircle
 10
141.5867936136991
 20
145.4741527133262
 30
0.0
 40
2.5
  0
CIRCLE
  5
1AA7
330
1CDF
100
AcDbEntity
  8
0
  6
Continuous
100
AcDbCircle
 10
153.655253541798
 20
145.4928558364759
 30
0.0
 40
2.5
  0
LINE
  5
1AA9
330
1CDF
100
AcDbEntity
  8
0
100
AcDbLine
 10
88.12499999999998
 20
107.275
 30
0.0
 11
88.12499999999998
 21
71.27500000000002
 31
0.0
  0
LINE
  5
1AAA
330
1CDF
100
AcDbEntity
  8
0
100
AcDbLine
 10
88.12499999999998
 20
71.27500000000002
 30
0.0
 11
179.7499999999999
 21
71.27500000000002
 31
0.0
  0
LINE
  5
1AAB
330
1CDF
100
AcDbEntity
  8
0
100
AcDbLine
 10
88.12499999999998
 20
77.27500000000009
 30
0.0
 11
179.7499999999999
 21
77.27500000000009
 31
0.0
  0
LINE
  5
1AAC
330
1CDF
100
AcDbEntity
  8
0
100
AcDbLine
 10
88.12499999999998
 20
83.27500000000009
 30
0.0
 11
179.7499999999999
 21
83.27500000000009
 31
0.0
  0
LINE
  5
1AAD
330
1CDF
100
AcDbEntity
  8
0
100
AcDbLine
 10
88.12499999999998
 20
101.2750000000001
 30
0.0
 11
179.7499999999999
 21
101.2750000000001
 31
0.0
  0
LINE
  5
1AAE
330
1CDF
100
AcDbEntity
  8
0
100
AcDbLine
 10
88.12499999999998
 20
107.275
 30
0.0
 11
179.7499999999999
 21
107.275
 31
0.0
  0
LINE
  5
1AAF
330
1CDF
100
AcDbEntity
  8
0
100
AcDbLine
 10
100.1249999999999
 20
107.275
 30
0.0
 11
100.1249999999999
 21
71.27500000000002
 31
0.0
  0
LINE
  5
1AB0
330
1CDF
100
AcDbEntity
  8
0
100
AcDbLine
 10
179.7499999999999
 20
107.275
 30
0.0
 11
179.7499999999999
 21
71.27500000000002
 31
0.0
  0
TEXT
  5
1AB2
330
1CDF
100
AcDbEntity
  8
0
100
AcDbText
 10
102.0300277669818
 20
90.57500000000009
 30
0.0
 40
3.5
  1
操作スイッチ
  7
BIGFONT
100
AcDbText
  0
TEXT
  5
1AB3
330
1CDF
100
AcDbEntity
  8
0
100
AcDbText
 10
102.0300277669818
 20
72.57500000000014
 30
0.0
 40
3.5
  1
オプションコネクタ
  7
BIGFONT
100
AcDbText
  0
TEXT
  5
1AB4
330
1CDF
100
AcDbEntity
  8
0
100
AcDbText
 10
90.28002776698178
 20
102.5750000000001
 30
0.0
 40
3.5
  1
番号
  7
BIGFONT
100
AcDbText
  0
TEXT
  5
1AB5
330
1CDF
100
AcDbEntity
  8
0
100
AcDbText
 10
112.0300277669817
 20
102.5750000000001
 30
0.0
 40
3.5
  1
　名　称
  7
BIGFONT
100
AcDbText
  0
TEXT
  5
1AB6
330
1CDF
100
AcDbEntity
  8
0
100
AcDbText
 10
93.31885596055908
 20
90.52680473786319
 30
0.0
 40
3.5
  1
2
  7
BIGFONT
100
AcDbText
  0
CIRCLE
  5
1AB7
330
1CDF
100
AcDbEntity
  8
0
  6
Continuous
100
AcDbCircle
 10
94.12499999999996
 20
92.27500000000009
 30
0.0
 40
2.5
  0
TEXT
  5
1AB8
330
1CDF
100
AcDbEntity
  8
0
100
AcDbText
 10
93.31885596055908
 20
84.52680473786324
 30
0.0
 40
3.5
  1
3
  7
BIGFONT
100
AcDbText
  0
CIRCLE
  5
1AB9
330
1CDF
100
AcDbEntity
  8
0
  6
Continuous
100
AcDbCircle
 10
94.12499999999996
 20
86.2750000000001
 30
0.0
 40
2.5
  0
TEXT
  5
1ABA
330
1CDF
100
AcDbEntity
  8
0
100
AcDbText
 10
93.31885596055908
 20
78.52680473786323
 30
0.0
 40
3.5
  1
4
  7
BIGFONT
100
AcDbText
  0
CIRCLE
  5
1ABB
330
1CDF
100
AcDbEntity
  8
0
  6
Continuous
100
AcDbCircle
 10
94.12499999999996
 20
80.2750000000001
 30
0.0
 40
2.5
  0
CIRCLE
  5
1ABC
330
1CDF
100
AcDbEntity
  8
0
  6
Continuous
100
AcDbCircle
 10
94.12499999999996
 20
98.27500000000009
 30
0.0
 40
2.5
  0
TEXT
  5
1ABD
330
1CDF
100
AcDbEntity
  8
0
100
AcDbText
 10
93.04598659790821
 20
96.52680473786318
 30
0.0
 40
3.5
  1
1
  7
BIGFONT
100
AcDbText
  0
TEXT
  5
1ABE
330
1CDF
100
AcDbEntity
  8
0
100
AcDbText
 10
102.0300277669818
 20
96.57499999999998
 30
0.0
 40
3.5
  1
カバープレート
  7
BIGFONT
100
AcDbText
  0
LINE
  5
1ABF
330
1CDF
100
AcDbEntity
  8
0
100
AcDbLine
 10
88.12499999999998
 20
95.27500000000008
 30
0.0
 11
179.7499999999999
 21
95.27499999999987
 31
0.0
  0
TEXT
  5
1AC1
330
1CDF
100
AcDbEntity
  8
0
100
AcDbText
 10
90.81885596055908
 20
72.52680473786327
 30
0.0
 40
3.5
  1
5
  7
BIGFONT
100
AcDbText
  0
LINE
  5
1AC2
330
1CDF
100
AcDbEntity
  8
0
100
AcDbLine
 10
88.12499999999998
 20
89.27500000000009
 30
0.0
 11
179.7499999999999
 21
89.275
 31
0.0
  0
TEXT
  5
1AEF
330
1CDF
100
AcDbEntity
  8
0
100
AcDbText
 10
102.0300277669818
 20
84.57500000000022
 30
0.0
 40
3.5
  1
接続コネクタ
  7
BIGFONT
100
AcDbText
  0
TEXT
  5
1AF0
330
1CDF
100
AcDbEntity
  8
0
100
AcDbText
 10
102.0300277669818
 20
78.57500000000022
 30
0.0
 40
3.5
  1
付属コネクタ
  7
BIGFONT
100
AcDbText
  0
TEXT
  5
1AF1
330
1CDF
100
AcDbEntity
  8
0
100
AcDbText
 10
95.81885596055908
 20
72.52680473786327
 30
0.0
 40
3.5
  1
6
  7
BIGFONT
100
AcDbText
  0
CIRCLE
  5
1AF3
330
1CDF
100
AcDbEntity
  8
0
  6
Continuous
100
AcDbCircle
 10
91.62499999999996
 20
74.27500000000016
 30
0.0
 40
2.5
  0
CIRCLE
  5
1AF5
330
1CDF
100
AcDbEntity
  8
0
  6
Continuous
100
AcDbCircle
 10
96.62499999999996
 20
74.27500000000016
 30
0.0
 40
2.5
  0
TEXT
  5
1AFA
330
1CDF
100
AcDbEntity
  8
0
100
AcDbText
 10
18.45502776698185
 20
66.85000000000004
 30
0.0
 40
3.5
  1
3key-F
  7
BIGFONT
100
AcDbText
  0
POLYLINE
  5
1C54
330
1CDF
100
AcDbEntity
  8
0
100
AcDb3dPolyline
 66
     1
 10
0.0
 20
0.0
 30
0.0
 70
     8
  0
VERTEX
  5
1C55
330
1C54
100
AcDbEntity
  8
0
100
AcDbVertex
100
AcDb3dPolylineVertex
 10
128.3013650723279
 20
170.125
 30
0.0
 70
    32
  0
VERTEX
  5
1C56
330
1C54
100
AcDbEntity
  8
0
100
AcDbVertex
100
AcDb3dPolylineVertex
 10
126.677
 20
131.328
 30
0.0
 70
    32
  0
VERTEX
  5
1C57
330
1C54
100
AcDbEntity
  8
0
100
AcDbVertex
100
AcDb3dPolylineVertex
 10
165.233
 20
131.328
 30
0.0
 70
    32
  0
SEQEND
  5
1C58
330
1C54
100
AcDbEntity
  8
0
  0
TEXT
  5
1B12
330
1CDF
100
AcDbEntity
  8
0
100
AcDbText
 10
133.3318136974554
 20
132.1002312091247
 30
0.0
 40
3.5
  1
線長は50mm
  7
BIGFONT
100
AcDbText
  0
TEXT
  5
1B13
330
1CDF
100
AcDbEntity
  8
0
100
AcDbText
 10
127.4059462838755
 20
127.0421556758295
 30
0.0
 40
3.5
  1
（コネクタ含まず）
  7
BIGFONT
100
AcDbText
  0
LINE
  5
1D5E
330
1CDF
100
AcDbEntity
  8
0
100
AcDbLine
 10
4.19999999999996
 20
16.27499999999997
 30
0.0
 11
189.4249999999999
 21
16.27499999999997
 31
0.0
  0
LINE
  5
1D5F
330
1CDF
100
AcDbEntity
  8
0
100
AcDbLine
 10
4.974999999999965
 20
24.27499999999998
 30
0.0
 11
189.4249999999999
 21
24.27499999999998
 31
0.0
  0
LINE
  5
1D60
330
1CDF
100
AcDbEntity
  8
0
100
AcDbLine
 10
104.4749999999998
 20
24.27499999999998
 30
0.0
 11
104.4749999999998
 21
8.274999999999977
 31
0.0
  0
LINE
  5
1D61
330
1CDF
100
AcDbEntity
  8
0
100
AcDbLine
 10
94.44999999999996
 20
24.27499999999998
 30
0.0
 11
94.44999999999996
 21
8.274999999999977
 31
0.0
  0
LINE
  5
1D62
330
1CDF
100
AcDbEntity
  8
0
100
AcDbLine
 10
14.82499999999996
 20
24.27499999999998
 30
0.0
 11
14.82499999999996
 21
8.274999999999977
 31
0.0
  0
INSERT
  5
1D63
330
1CDF
100
AcDbEntity
  8
0
  6
Continuous
100
AcDbBlockReference
  2
waku
 10
0.0499999999999545
 20
0.0
 30
0.0
  0
LINE
  5
1D64
330
1CDF
100
AcDbEntity
  8
0
100
AcDbLine
 10
4.19999999999996
 20
24.27499999999998
 30
0.0
 11
189.4249999999999
 21
24.27499999999998
 31
0.0
  0
TEXT
  5
1D65
330
1CDF
100
AcDbEntity
  8
0
100
AcDbText
 10
31.82499999999996
 20
18.74999999999997
 30
0.0
 40
3.674999999999998
  1
単位 mm
  7
BIGFONT
100
AcDbText
  0
TEXT
  5
1D66
330
1CDF
100
AcDbEntity
  8
0
100
AcDbText
 10
46.09999999999994
 20
18.74999999999997
 30
0.0
 40
3.674999999999998
  1
　
  7
BIGFONT
100
AcDbText
  0
TEXT
  5
1D67
330
1CDF
100
AcDbEntity
  8
0
100
AcDbText
 10
114.6249999999999
 20
9.474999999999965
 30
0.0
 40
3.524999999999999
  1
　
  7
BIGFONT
100
AcDbText
  0
TEXT
  5
1D68
330
1CDF
100
AcDbEntity
  8
0
100
AcDbText
 10
121.425
 20
10.47499999999996
 30
0.0
 40
3.674999999999999
  1
　日本電子工業株式会社
  7
BIGFONT
100
AcDbText
  0
LINE
  5
1D69
330
1CDF
100
AcDbEntity
  8
0
100
AcDbLine
 10
4.19999999999996
 20
270.025
 30
0.0
 11
189.4249999999999
 21
270.025
 31
0.0
  0
TEXT
  5
1D6A
330
1CDF
100
AcDbEntity
  8
0
100
AcDbText
 10
31.82499999999996
 20
10.47499999999996
 30
0.0
 40
3.674999999999998
  1
尺度　　　１／１
  7
BIGFONT
100
AcDbText
  0
LINE
  5
1D6B
330
1CDF
100
AcDbEntity
  8
0
100
AcDbLine
 10
159.4999999999998
 20
24.27499999999998
 30
0.0
 11
159.4999999999998
 21
16.27499999999997
 31
0.0
  0
LINE
  5
1D6C
330
1CDF
100
AcDbEntity
  8
0
100
AcDbLine
 10
144.4749999999999
 20
24.27499999999998
 30
0.0
 11
144.4749999999999
 21
16.27499999999997
 31
0.0
  0
TEXT
  5
1D6D
330
1CDF
100
AcDbEntity
  8
0
100
AcDbText
 10
163.3467056960535
 20
18.74999999999997
 30
0.0
 40
3.674999999999998
  1
SW-0030
  7
BIGFONT
100
AcDbText
  0
TEXT
  5
1D6E
330
1CDF
100
AcDbEntity
  8
0
100
AcDbText
 10
147.0324564216774
 20
18.74999999999997
 30
0.0
 40
3.674999999999998
  1
図番
  7
BIGFONT
100
AcDbText
  0
DIMENSION
  5
1D97
330
1CDF
100
AcDbEntity
  8
0
  6
Continuous
100
AcDbDimension
  2
*D6
 10
125.125
 20
193.6249999999997
 30
0.0
 11
122.6249999999999
 21
196.3749999999997
 31
0.0
 70
    32
 71
     5
 42
5.000000000000198
  3
STANDARD
100
AcDbAlignedDimension
 13
120.1249999999998
 23
173.1249999999999
 33
0.0
 14
125.125
 24
173.1249999999999
 34
0.0
100
AcDbRotatedDimension
1001
ACAD
1000
DSTYLE
1002
{
1070
   271
1070
     0
1070
   279
1070
     0
1070
   340
1005
1CCE
1002
}
  0
TEXT
  5
1DD9
330
1CDF
100
AcDbEntity
  8
0
100
AcDbText
 10
168.5496899722566
 20
169.1048072307436
 30
0.0
 40
3.5
  1
2Pr
  7
BIGFONT
100
AcDbText
  0
TEXT
  5
1DDA
330
1CDF
100
AcDbEntity
  8
0
100
AcDbText
 10
168.5496899722566
 20
159.1048072307436
 30
0.0
 40
3.5
  1
2Pr
  7
BIGFONT
100
AcDbText
  0
LINE
  5
1E3C
330
1CDF
100
AcDbEntity
  8
0
  6
DASHED
 48
1.5
100
AcDbLine
 10
127.6250000712673
 20
241.6250001425345
 30
0.0
 11
122.6249999287326
 21
241.6249999999998
 31
0.0
  0
ARC
  5
1E3D
330
1CDF
100
AcDbEntity
  8
0
  6
DASHED
 48
1.5
100
AcDbCircle
 10
122.625
 20
239.1249999999998
 30
0.0
 40
2.5
100
AcDbArc
 50
90.00000163332769
 51
180.0
  0
LINE
  5
1E3E
330
1CDF
100
AcDbEntity
  8
0
  6
DASHED
100
AcDbLine
 10
132.625
 20
247.6249994898964
 30
0.0
 11
171.6250000000003
 21
247.6249994898939
 31
0.0
  0
LINE
  5
1E3F
330
1CDF
100
AcDbEntity
  8
0
  6
DASHED
 48
1.5
100
AcDbLine
 10
122.6250000712673
 20
145.6249999999998
 30
0.0
 11
127.6249999287326
 21
145.6250001425344
 31
0.0
  0
ARC
  5
1E40
330
1CDF
100
AcDbEntity
  8
0
  6
DASHED
 48
1.5
100
AcDbCircle
 10
122.625
 20
148.1249999999998
 30
0.0
 40
2.5
100
AcDbArc
 50
180.0
 51
270.0000016333277
  0
LINE
  5
1E41
330
1CDF
100
AcDbEntity
  8
0
  6
DASHED
100
AcDbLine
 10
132.625
 20
139.6249994898964
 30
0.0
 11
171.6249999999996
 21
139.6249994898939
 31
0.0
  0
LINE
  5
1E42
330
1CDF
100
AcDbEntity
  8
0
  6
DASHED
100
AcDbLine
 10
132.625
 20
248.6249999999998
 30
0.0
 11
132.625
 21
138.6249999999997
 31
0.0
  0
ARC
  5
1E43
330
1CDF
100
AcDbEntity
  8
0
  6
DASHED
100
AcDbCircle
 10
127.625
 20
143.1250001425344
 30
0.0
 40
2.5
100
AcDbArc
 50
0.0
 51
90.00000163332769
  0
ARC
  5
1E44
330
1CDF
100
AcDbEntity
  8
0
  6
DASHED
100
AcDbCircle
 10
127.625
 20
244.1250001425345
 30
0.0
 40
2.5
100
AcDbArc
 50
270.0000016333277
 51
0.0
  0
LINE
  5
1E45
330
1CDF
100
AcDbEntity
  8
0
  6
DASHED
100
AcDbLine
 10
176.625
 20
242.6249994898939
 30
0.0
 11
176.625
 21
144.6249994898939
 31
0.0
  0
ARC
  5
1E46
330
1CDF
100
AcDbEntity
  8
0
  6
DASHED
100
AcDbCircle
 10
171.625
 20
144.6249994898939
 30
0.0
 40
5.0
100
AcDbArc
 50
269.9999999999951
 51
0.0
  0
ARC
  5
1E47
330
1CDF
100
AcDbEntity
  8
0
  6
DASHED
100
AcDbCircle
 10
171.625
 20
242.6249994898939
 30
0.0
 40
5.0
100
AcDbArc
 50
0.0
 51
89.99999999999674
  0
LINE
  5
1E48
330
1CDF
100
AcDbEntity
  8
0
  6
DASHED
100
AcDbLine
 10
120.125
 20
239.1249999999998
 30
0.0
 11
120.125
 21
148.1249999999998
 31
0.0
  0
LINE
  5
1E49
330
1CDF
100
AcDbEntity
  8
0
  6
Continuous
100
AcDbLine
 10
130.125
 20
248.6249999999998
 30
0.0
 11
132.625
 21
248.6249999999997
 31
0.0
  0
LINE
  5
1E4A
330
1CDF
100
AcDbEntity
  8
0
  6
Continuous
100
AcDbLine
 10
130.125
 20
138.6249999999997
 30
0.0
 11
132.625
 21
138.6249999999997
 31
0.0
  0
LINE
  5
1E4B
330
1CDF
100
AcDbEntity
  8
0
  6
DASHED
100
AcDbLine
 10
130.125
 20
248.6249999999998
 30
0.0
 11
130.125
 21
138.6249999999997
 31
0.0
  0
TEXT
  5
1EF5
330
1CDF
100
AcDbEntity
  8
0
100
AcDbText
 10
122.7348267226286
 20
261.5683137441973
 30
0.0
 40
3.0
  1
4×4用アウトレットBOX浅型対応
  7
BIGFONT
100
AcDbText
  0
POLYLINE
  5
1EF6
330
1CDF
100
AcDbEntity
  8
0
100
AcDb3dPolyline
 66
     1
 10
0.0
 20
0.0
 30
0.0
 70
     8
  0
VERTEX
  5
1EF7
330
1EF6
100
AcDbEntity
  8
0
100
AcDbVertex
100
AcDb3dPolylineVertex
 10
164.3497411118863
 20
247.6249994898944
 30
0.0
 70
    32
  0
VERTEX
  5
1EF8
330
1EF6
100
AcDbEntity
  8
0
100
AcDbVertex
100
AcDb3dPolylineVertex
 10
180.3472108747386
 20
260.1778340292387
 30
0.0
 70
    32
  0
VERTEX
  5
1EF9
330
1EF6
100
AcDbEntity
  8
0
100
AcDbVertex
100
AcDb3dPolylineVertex
 10
121.7793437017418
 20
260.1778340292387
 30
0.0
 70
    32
  0
SEQEND
  5
1EFA
330
1EF6
100
AcDbEntity
  8
0
  0
TEXT
  5
1EFB
330
1CDF
100
AcDbEntity
  8
0
100
AcDbText
 10
130.9874975971874
 20
255.7794100024195
 30
0.0
 40
3.0
  1
(1ヶ用塗りしろ)
  7
BIGFONT
100
AcDbText
  0
MTEXT
  5
1FB3
330
1CDF
100
AcDbEntity
  8
0
  6
Continuous
100
AcDbMText
 10
96.81249999999998
 20
275.05
 30
0.0
 40
3.5
 41
100.0
 71
     5
 72
     5
  1
３キースイッチ
  7
BIGFONT
 73
     1
 44
1.0
1001
ACAD
1000
MTEXTBEGIN
1070
    73
1070
     1
1070
    44
1040
1.0
1070
    74
1070
     0
1000
MTEXTEND
  0
MTEXT
  5
1FB5
330
1CDF
100
AcDbEntity
  8
0
  6
Continuous
100
AcDbMText
 10
184.4249999999999
 20
275.05
 30
0.0
 40
3.5
 41
50.0
 71
     6
 72
     5
  1
WP0200-01
  7
BIGFONT
 73
     1
 44
1.0
1001
ACAD
1000
MTEXTBEGIN
1070
    73
1070
     1
1070
    44
1040
1.0
1070
    74
1070
     0
1000
MTEXTEND
  0
ENDSEC
  0
SECTION
  2
OBJECTS
  0
DICTIONARY
  5
1CC9
330
0
100
AcDbDictionary
281
     1
  3
ACAD_COLOR
350
1CD8
  3
ACAD_GROUP
350
1CCA
  3
ACAD_LAYOUT
350
1CD6
  3
ACAD_MATERIAL
350
1CD7
  3
ACAD_MLEADERSTYLE
350
1F4E
  3
ACAD_MLINESTYLE
350
1CD3
  3
ACAD_PLOTSETTINGS
350
1CD5
  3
ACAD_PLOTSTYLENAME
350
1CCB
  3
ACAD_SCALELIST
350
1F2C
  3
ACAD_TABLESTYLE
350
1CD9
  3
ACAD_VISUALSTYLE
350
1F1B
  3
ACDB_RECOMPOSE_DATA
350
1F63
  3
AcDbVariableDictionary
350
1D75
  3
DWGPROPS
350
1FC2
  0
DICTIONARY
  5
1F65
330
1CC5
100
AcDbDictionary
280
     1
281
     1
  0
DICTIONARY
  5
1E26
330
1CBF
100
AcDbDictionary
280
     1
281
     1
  3
ACAD_LAYERSTATES
360
1E27
  0
DICTIONARY
  5
1F57
330
1CCD
100
AcDbDictionary
280
     1
281
     1
  3
ADSK_XREC_LAYER_RECONCILED
360
1F58
  0
DICTIONARY
  5
1F59
330
1CEF
100
AcDbDictionary
280
     1
281
     1
  3
ADSK_XREC_LAYER_RECONCILED
360
1F5A
  0
DICTIONARY
  5
1F5B
330
1CF0
100
AcDbDictionary
280
     1
281
     1
  3
ADSK_XREC_LAYER_RECONCILED
360
1F5C
  0
DICTIONARY
  5
1F5D
330
1CF1
100
AcDbDictionary
280
     1
281
     1
  3
ADSK_XREC_LAYER_RECONCILED
360
1F5E
  0
DICTIONARY
  5
1F5F
330
1CF2
100
AcDbDictionary
280
     1
281
     1
  3
ADSK_XREC_LAYER_RECONCILED
360
1F60
  0
DICTIONARY
  5
1CD8
102
{ACAD_REACTORS
330
1CC9
102
}
330
1CC9
100
AcDbDictionary
281
     1
  0
DICTIONARY
  5
1CCA
102
{ACAD_REACTORS
330
1CC9
102
}
330
1CC9
100
AcDbDictionary
281
     1
  0
DICTIONARY
  5
1CD6
102
{ACAD_REACTORS
330
1CC9
102
}
330
1CC9
100
AcDbDictionary
281
     1
  3
Model
350
1CE2
  3
レイアウト1
350
1CDE
  0
DICTIONARY
  5
1CD7
102
{ACAD_REACTORS
330
1CC9
102
}
330
1CC9
100
AcDbDictionary
281
     1
  3
ByBlock
350
1F0B
  3
ByLayer
350
1F03
  3
Global
350
1F13
  0
DICTIONARY
  5
1F4E
102
{ACAD_REACTORS
330
1CC9
102
}
330
1CC9
100
AcDbDictionary
281
     1
  3
Standard
350
1F4F
  0
DICTIONARY
  5
1CD3
102
{ACAD_REACTORS
330
1CC9
102
}
330
1CC9
100
AcDbDictionary
281
     1
  3
Standard
350
1CD4
  0
DICTIONARY
  5
1CD5
102
{ACAD_REACTORS
330
1CC9
102
}
330
1CC9
100
AcDbDictionary
281
     1
  0
ACDBDICTIONARYWDFLT
  5
1CCB
102
{ACAD_REACTORS
330
1CC9
102
}
330
1CC9
100
AcDbDictionary
281
     1
  3
Normal
350
1CCC
100
AcDbDictionaryWithDefault
340
1CCC
  0
DICTIONARY
  5
1F2C
102
{ACAD_REACTORS
330
1CC9
102
}
330
1CC9
100
AcDbDictionary
281
     1
  3
A0
350
1F2D
  3
A1
350
1F2E
  3
A2
350
1F2F
  3
A3
350
1F30
  3
A4
350
1F31
  3
A5
350
1F32
  3
A6
350
1F33
  3
A7
350
1F34
  3
A8
350
1F35
  3
A9
350
1F36
  3
B0
350
1F37
  3
B1
350
1F38
  3
B2
350
1F39
  3
B3
350
1F3A
  3
B4
350
1F3B
  3
B5
350
1F3C
  3
B6
350
1F3D
  3
B7
350
1F3E
  3
B8
350
1F3F
  3
B9
350
1F40
  3
C0
350
1F41
  3
C1
350
1F42
  3
C2
350
1F43
  3
C3
350
1F44
  3
C4
350
1F45
  3
C5
350
1F46
  3
C6
350
1F47
  3
C7
350
1F48
  3
C8
350
1F49
  3
C9
350
1F4A
  3
D0
350
1F4B
  3
D1
350
1F4C
  3
D2
350
1F4D
  0
DICTIONARY
  5
1CD9
102
{ACAD_REACTORS
330
1CC9
102
}
330
1CC9
100
AcDbDictionary
281
     1
  3
Standard
350
1CDA
  0
DICTIONARY
  5
1F1B
102
{ACAD_REACTORS
330
1CC9
102
}
330
1CC9
100
AcDbDictionary
281
     1
  3
2dWireframe
350
1F21
  3
3D Hidden
350
1F23
  3
3dWireframe
350
1F22
  3
Basic
350
1F20
  3
Brighten
350
1F27
  3
ColorChange
350
1F2B
  3
Conceptual
350
1F24
  3
Dim
350
1F26
  3
Facepattern
350
1F2A
  3
Flat
350
1F1C
  3
FlatWithEdges
350
1F1D
  3
Gouraud
350
1F1E
  3
GouraudWithEdges
350
1F1F
  3
Linepattern
350
1F29
  3
Realistic
350
1F25
  3
Thicken
350
1F28
  0
XRECORD
  5
1F63
102
{ACAD_REACTORS
330
1CC9
102
}
330
1CC9
100
AcDbXrecord
280
     1
 90
        1
330
1CDA
  0
DICTIONARY
  5
1D75
102
{ACAD_REACTORS
330
1CC9
102
}
330
1CC9
100
AcDbDictionary
281
     1
  3
CANNOSCALE
350
1F77
  3
CMLEADERSTYLE
350
1F76
  3
CTABLESTYLE
350
1D76
  3
DIMASSOC
350
1D77
  3
INDEXCTL
350
1F79
  3
LIGHTINGUNITS
350
1FB8
  3
MSLTSCALE
350
1FB7
  3
PROJECTNAME
350
1D78
  3
SORTENTS
350
1F78
  0
XRECORD
  5
1FC2
102
{ACAD_REACTORS
330
1CC9
102
}
330
1CC9
100
AcDbXrecord
280
     1
  1
DWGPROPS COOKIE
  2

  3

  4

  6

  7

  8
Takeshi_Nakagawa
  9

300
=
301
=
302
=
303
=
304
=
305
=
306
=
307
=
308
=
309
=
 40
0.6685349421296296
 41
2453573.411721273
 42
2456553.557858415
  1

 90
        0
  0
DICTIONARY
  5
1E27
102
{ACAD_REACTORS
330
1E26
102
}
330
1E26
100
AcDbDictionary
281
     1
  0
XRECORD
  5
1F58
102
{ACAD_REACTORS
330
1F57
102
}
330
1F57
100
AcDbXrecord
280
     1
290
     1
  0
XRECORD
  5
1F5A
102
{ACAD_REACTORS
330
1F59
102
}
330
1F59
100
AcDbXrecord
280
     1
290
     1
  0
XRECORD
  5
1F5C
102
{ACAD_REACTORS
330
1F5B
102
}
330
1F5B
100
AcDbXrecord
280
     1
290
     1
  0
XRECORD
  5
1F5E
102
{ACAD_REACTORS
330
1F5D
102
}
330
1F5D
100
AcDbXrecord
280
     1
290
     1
  0
XRECORD
  5
1F60
102
{ACAD_REACTORS
330
1F5F
102
}
330
1F5F
100
AcDbXrecord
280
     1
290
     1
  0
LAYOUT
  5
1CE2
102
{ACAD_XDICTIONARY
360
1FC6
102
}
102
{ACAD_REACTORS
330
1CD6
102
}
330
1CD6
100
AcDbPlotSettings
  1

  2
RICOH imagio Color 3100P-V
  4

  6

 40
0.0
 41
0.0
 42
0.0
 43
0.0
 44
0.0
 45
0.0
 46
0.0
 47
0.0
 48
0.0
 49
0.0
140
0.0
141
0.0
142
1.0
143
1.0
 70
  1712
 72
     0
 73
     0
 74
     0
  7

 75
     0
147
1.0
148
0.0
149
0.0
100
AcDbLayout
  1
Model
 70
     1
 71
     0
 10
0.0
 20
0.0
 11
12.0
 21
9.0
 12
0.0
 22
0.0
 32
0.0
 14
0.0
 24
0.0
 34
0.0
 15
0.0
 25
0.0
 35
0.0
146
0.0
 13
0.0
 23
0.0
 33
0.0
 16
1.0
 26
0.0
 36
0.0
 17
0.0
 27
1.0
 37
0.0
 76
     0
330
1CDF
331
1EFC
  0
LAYOUT
  5
1CDE
102
{ACAD_XDICTIONARY
360
1FC4
102
}
102
{ACAD_REACTORS
330
1CD6
102
}
330
1CD6
100
AcDbPlotSettings
  1

  2
RICOH imagio Color 3100P-V
  4

  6

 40
0.0
 41
0.0
 42
0.0
 43
0.0
 44
0.0
 45
0.0
 46
0.0
 47
0.0
 48
0.0
 49
0.0
140
0.0
141
0.0
142
1.0
143
1.0
 70
   688
 72
     0
 73
     0
 74
     5
  7

 75
    16
147
1.0
148
0.0
149
0.0
100
AcDbLayout
  1
レイアウト1
 70
     1
 71
     1
 10
0.0
 20
0.0
 11
12.0
 21
9.0
 12
0.0
 22
0.0
 32
0.0
 14
1.000000000000000E+20
 24
1.000000000000000E+20
 34
1.000000000000000E+20
 15
-1.000000000000000E+20
 25
-1.000000000000000E+20
 35
-1.000000000000000E+20
146
0.0
 13
0.0
 23
0.0
 33
0.0
 16
1.0
 26
0.0
 36
0.0
 17
0.0
 27
1.0
 37
0.0
 76
     0
330
1CDB
  0
MATERIAL
  5
1F0B
102
{ACAD_XDICTIONARY
360
1F0C
102
}
102
{ACAD_REACTORS
330
1CD7
102
}
330
1CD7
100
AcDbMaterial
  1
ByBlock
 72
     0
 43
0.0208333333333333
 43
0.0
 43
0.0
 43
0.0
 43
0.0
 43
0.0208333333333333
 43
0.0
 43
0.0
 43
0.0
 43
0.0
 43
1.0
 43
0.0
 43
0.0
 43
0.0
 43
0.0
 43
1.0
 77
     0
 47
0.0208333333333333
 47
0.0
 47
0.0
 47
0.0
 47
0.0
 47
0.0208333333333333
 47
0.0
 47
0.0
 47
0.0
 47
0.0
 47
1.0
 47
0.0
 47
0.0
 47
0.0
 47
0.0
 47
1.0
171
     0
 49
0.0208333333333333
 49
0.0
 49
0.0
 49
0.0
 49
0.0
 49
0.0208333333333333
 49
0.0
 49
0.0
 49
0.0
 49
0.0
 49
1.0
 49
0.0
 49
0.0
 49
0.0
 49
0.0
 49
1.0
175
     0
142
0.0208333333333333
142
0.0
142
0.0
142
0.0
142
0.0
142
0.0208333333333333
142
0.0
142
0.0
142
0.0
142
0.0
142
1.0
142
0.0
142
0.0
142
0.0
142
0.0
142
1.0
179
     0
144
0.0208333333333333
144
0.0
144
0.0
144
0.0
144
0.0
144
0.0208333333333333
144
0.0
144
0.0
144
0.0
144
0.0
144
1.0
144
0.0
144
0.0
144
0.0
144
0.0
144
1.0
147
0.0208333333333333
147
0.0
147
0.0
147
0.0
147
0.0
147
0.0208333333333333
147
0.0
147
0.0
147
0.0
147
0.0
147
1.0
147
0.0
147
0.0
147
0.0
147
0.0
147
1.0
  0
MATERIAL
  5
1F03
102
{ACAD_XDICTIONARY
360
1F04
102
}
102
{ACAD_REACTORS
330
1CD7
102
}
330
1CD7
100
AcDbMaterial
  1
ByLayer
 72
     0
 43
0.0208333333333333
 43
0.0
 43
0.0
 43
0.0
 43
0.0
 43
0.0208333333333333
 43
0.0
 43
0.0
 43
0.0
 43
0.0
 43
1.0
 43
0.0
 43
0.0
 43
0.0
 43
0.0
 43
1.0
 77
     0
 47
0.0208333333333333
 47
0.0
 47
0.0
 47
0.0
 47
0.0
 47
0.0208333333333333
 47
0.0
 47
0.0
 47
0.0
 47
0.0
 47
1.0
 47
0.0
 47
0.0
 47
0.0
 47
0.0
 47
1.0
171
     0
 49
0.0208333333333333
 49
0.0
 49
0.0
 49
0.0
 49
0.0
 49
0.0208333333333333
 49
0.0
 49
0.0
 49
0.0
 49
0.0
 49
1.0
 49
0.0
 49
0.0
 49
0.0
 49
0.0
 49
1.0
175
     0
142
0.0208333333333333
142
0.0
142
0.0
142
0.0
142
0.0
142
0.0208333333333333
142
0.0
142
0.0
142
0.0
142
0.0
142
1.0
142
0.0
142
0.0
142
0.0
142
0.0
142
1.0
179
     0
144
0.0208333333333333
144
0.0
144
0.0
144
0.0
144
0.0
144
0.0208333333333333
144
0.0
144
0.0
144
0.0
144
0.0
144
1.0
144
0.0
144
0.0
144
0.0
144
0.0
144
1.0
147
0.0208333333333333
147
0.0
147
0.0
147
0.0
147
0.0
147
0.0208333333333333
147
0.0
147
0.0
147
0.0
147
0.0
147
1.0
147
0.0
147
0.0
147
0.0
147
0.0
147
1.0
  0
MATERIAL
  5
1F13
102
{ACAD_XDICTIONARY
360
1F14
102
}
102
{ACAD_REACTORS
330
1CD7
102
}
330
1CD7
100
AcDbMaterial
  1
Global
 72
     0
 43
0.0208333333333333
 43
0.0
 43
0.0
 43
0.0
 43
0.0
 43
0.0208333333333333
 43
0.0
 43
0.0
 43
0.0
 43
0.0
 43
1.0
 43
0.0
 43
0.0
 43
0.0
 43
0.0
 43
1.0
 77
     0
 47
0.0208333333333333
 47
0.0
 47
0.0
 47
0.0
 47
0.0
 47
0.0208333333333333
 47
0.0
 47
0.0
 47
0.0
 47
0.0
 47
1.0
 47
0.0
 47
0.0
 47
0.0
 47
0.0
 47
1.0
171
     0
 49
0.0208333333333333
 49
0.0
 49
0.0
 49
0.0
 49
0.0
 49
0.0208333333333333
 49
0.0
 49
0.0
 49
0.0
 49
0.0
 49
1.0
 49
0.0
 49
0.0
 49
0.0
 49
0.0
 49
1.0
175
     0
142
0.0208333333333333
142
0.0
142
0.0
142
0.0
142
0.0
142
0.0208333333333333
142
0.0
142
0.0
142
0.0
142
0.0
142
1.0
142
0.0
142
0.0
142
0.0
142
0.0
142
1.0
179
     0
144
0.0208333333333333
144
0.0
144
0.0
144
0.0
144
0.0
144
0.0208333333333333
144
0.0
144
0.0
144
0.0
144
0.0
144
1.0
144
0.0
144
0.0
144
0.0
144
0.0
144
1.0
147
0.0208333333333333
147
0.0
147
0.0
147
0.0
147
0.0
147
0.0208333333333333
147
0.0
147
0.0
147
0.0
147
0.0
147
1.0
147
0.0
147
0.0
147
0.0
147
0.0
147
1.0
  0
MLEADERSTYLE
  5
1F4F
102
{ACAD_REACTORS
330
1F4E
102
}
330
1F4E
100
AcDbMLeaderStyle
170
     2
171
     1
172
     0
 90
        2
 40
0.0
 41
0.0
173
     1
 91
-1056964608
340
1CD0
 92
       -2
290
     1
 42
0.09
291
     1
 43
0.36
  3
Standard
 44
0.18
300

342
1CCE
174
     1
178
     6
175
     1
176
     0
 93
-1056964608
 45
0.18
292
     0
297
     0
 46
0.18
 94
-1056964608
 47
1.0
 49
1.0
140
1.0
293
     1
141
0.0
294
     1
177
     0
142
1.0
295
     0
296
     0
143
0.125
1001
ACAD_MLEADERVER
1070
     2
  0
MLINESTYLE
  5
1CD4
102
{ACAD_REACTORS
330
1CD3
102
}
330
1CD3
100
AcDbMlineStyle
  2
STANDARD
 70
     0
  3

 62
   256
 51
90.0
 52
90.0
 71
     2
 49
0.5
 62
   256
  6
BYLAYER
 49
-0.5
 62
   256
  6
BYLAYER
  0
ACDBPLACEHOLDER
  5
1CCC
102
{ACAD_REACTORS
330
1CCB
102
}
330
1CCB
  0
SCALE
  5
1F2D
102
{ACAD_REACTORS
330
1F2C
102
}
330
1F2C
100
AcDbScale
 70
     0
300
1:1
140
1.0
141
1.0
290
     1
  0
SCALE
  5
1F2E
102
{ACAD_REACTORS
330
1F2C
102
}
330
1F2C
100
AcDbScale
 70
     0
300
1:2
140
1.0
141
2.0
290
     0
  0
SCALE
  5
1F2F
102
{ACAD_REACTORS
330
1F2C
102
}
330
1F2C
100
AcDbScale
 70
     0
300
1:4
140
1.0
141
4.0
290
     0
  0
SCALE
  5
1F30
102
{ACAD_REACTORS
330
1F2C
102
}
330
1F2C
100
AcDbScale
 70
     0
300
1:5
140
1.0
141
5.0
290
     0
  0
SCALE
  5
1F31
102
{ACAD_REACTORS
330
1F2C
102
}
330
1F2C
100
AcDbScale
 70
     0
300
1:8
140
1.0
141
8.0
290
     0
  0
SCALE
  5
1F32
102
{ACAD_REACTORS
330
1F2C
102
}
330
1F2C
100
AcDbScale
 70
     0
300
1:10
140
1.0
141
10.0
290
     0
  0
SCALE
  5
1F33
102
{ACAD_REACTORS
330
1F2C
102
}
330
1F2C
100
AcDbScale
 70
     0
300
1:16
140
1.0
141
16.0
290
     0
  0
SCALE
  5
1F34
102
{ACAD_REACTORS
330
1F2C
102
}
330
1F2C
100
AcDbScale
 70
     0
300
1:20
140
1.0
141
20.0
290
     0
  0
SCALE
  5
1F35
102
{ACAD_REACTORS
330
1F2C
102
}
330
1F2C
100
AcDbScale
 70
     0
300
1:30
140
1.0
141
30.0
290
     0
  0
SCALE
  5
1F36
102
{ACAD_REACTORS
330
1F2C
102
}
330
1F2C
100
AcDbScale
 70
     0
300
1:40
140
1.0
141
40.0
290
     0
  0
SCALE
  5
1F37
102
{ACAD_REACTORS
330
1F2C
102
}
330
1F2C
100
AcDbScale
 70
     0
300
1:50
140
1.0
141
50.0
290
     0
  0
SCALE
  5
1F38
102
{ACAD_REACTORS
330
1F2C
102
}
330
1F2C
100
AcDbScale
 70
     0
300
1:100
140
1.0
141
100.0
290
     0
  0
SCALE
  5
1F39
102
{ACAD_REACTORS
330
1F2C
102
}
330
1F2C
100
AcDbScale
 70
     0
300
2:1
140
2.0
141
1.0
290
     0
  0
SCALE
  5
1F3A
102
{ACAD_REACTORS
330
1F2C
102
}
330
1F2C
100
AcDbScale
 70
     0
300
4:1
140
4.0
141
1.0
290
     0
  0
SCALE
  5
1F3B
102
{ACAD_REACTORS
330
1F2C
102
}
330
1F2C
100
AcDbScale
 70
     0
300
8:1
140
8.0
141
1.0
290
     0
  0
SCALE
  5
1F3C
102
{ACAD_REACTORS
330
1F2C
102
}
330
1F2C
100
AcDbScale
 70
     0
300
10:1
140
10.0
141
1.0
290
     0
  0
SCALE
  5
1F3D
102
{ACAD_REACTORS
330
1F2C
102
}
330
1F2C
100
AcDbScale
 70
     0
300
100:1
140
100.0
141
1.0
290
     0
  0
SCALE
  5
1F3E
102
{ACAD_REACTORS
330
1F2C
102
}
330
1F2C
100
AcDbScale
 70
     0
300
1/128" = 1'-0"
140
0.0078125
141
12.0
290
     0
  0
SCALE
  5
1F3F
102
{ACAD_REACTORS
330
1F2C
102
}
330
1F2C
100
AcDbScale
 70
     0
300
1/64" = 1'-0"
140
0.015625
141
12.0
290
     0
  0
SCALE
  5
1F40
102
{ACAD_REACTORS
330
1F2C
102
}
330
1F2C
100
AcDbScale
 70
     0
300
1/32" = 1'-0"
140
0.03125
141
12.0
290
     0
  0
SCALE
  5
1F41
102
{ACAD_REACTORS
330
1F2C
102
}
330
1F2C
100
AcDbScale
 70
     0
300
1/16" = 1'-0"
140
0.0625
141
12.0
290
     0
  0
SCALE
  5
1F42
102
{ACAD_REACTORS
330
1F2C
102
}
330
1F2C
100
AcDbScale
 70
     0
300
3/32" = 1'-0"
140
0.09375
141
12.0
290
     0
  0
SCALE
  5
1F43
102
{ACAD_REACTORS
330
1F2C
102
}
330
1F2C
100
AcDbScale
 70
     0
300
1/8" = 1'-0"
140
0.125
141
12.0
290
     0
  0
SCALE
  5
1F44
102
{ACAD_REACTORS
330
1F2C
102
}
330
1F2C
100
AcDbScale
 70
     0
300
3/16" = 1'-0"
140
0.1875
141
12.0
290
     0
  0
SCALE
  5
1F45
102
{ACAD_REACTORS
330
1F2C
102
}
330
1F2C
100
AcDbScale
 70
     0
300
1/4" = 1'-0"
140
0.25
141
12.0
290
     0
  0
SCALE
  5
1F46
102
{ACAD_REACTORS
330
1F2C
102
}
330
1F2C
100
AcDbScale
 70
     0
300
3/8" = 1'-0"
140
0.375
141
12.0
290
     0
  0
SCALE
  5
1F47
102
{ACAD_REACTORS
330
1F2C
102
}
330
1F2C
100
AcDbScale
 70
     0
300
1/2" = 1'-0"
140
0.5
141
12.0
290
     0
  0
SCALE
  5
1F48
102
{ACAD_REACTORS
330
1F2C
102
}
330
1F2C
100
AcDbScale
 70
     0
300
3/4" = 1'-0"
140
0.75
141
12.0
290
     0
  0
SCALE
  5
1F49
102
{ACAD_REACTORS
330
1F2C
102
}
330
1F2C
100
AcDbScale
 70
     0
300
1" = 1'-0"
140
1.0
141
12.0
290
     0
  0
SCALE
  5
1F4A
102
{ACAD_REACTORS
330
1F2C
102
}
330
1F2C
100
AcDbScale
 70
     0
300
1-1/2" = 1'-0"
140
1.5
141
12.0
290
     0
  0
SCALE
  5
1F4B
102
{ACAD_REACTORS
330
1F2C
102
}
330
1F2C
100
AcDbScale
 70
     0
300
3" = 1'-0"
140
3.0
141
12.0
290
     0
  0
SCALE
  5
1F4C
102
{ACAD_REACTORS
330
1F2C
102
}
330
1F2C
100
AcDbScale
 70
     0
300
6" = 1'-0"
140
6.0
141
12.0
290
     0
  0
SCALE
  5
1F4D
102
{ACAD_REACTORS
330
1F2C
102
}
330
1F2C
100
AcDbScale
 70
     0
300
1'-0" = 1'-0"
140
12.0
141
12.0
290
     0
  0
TABLESTYLE
  5
1CDA
102
{ACAD_XDICTIONARY
360
1F61
102
}
102
{ACAD_REACTORS
330
1CD9
102
}
330
1CD9
100
AcDbTableStyle
  3
Standard
 70
     0
 71
     0
 40
0.06
 41
0.06
280
     0
281
     0
  7
STANDARD
140
0.18
170
     2
 62
     0
 63
     7
283
     0
274
    -2
284
     1
 64
     0
275
    -2
285
     1
 65
     0
276
    -2
286
     1
 66
     0
277
    -2
287
     1
 67
     0
278
    -2
288
     1
 68
     0
279
    -2
289
     1
 69
     0
  7
STANDARD
140
0.25
170
     5
 62
     0
 63
     7
283
     0
274
    -2
284
     1
 64
     0
275
    -2
285
     1
 65
     0
276
    -2
286
     1
 66
     0
277
    -2
287
     1
 67
     0
278
    -2
288
     1
 68
     0
279
    -2
289
     1
 69
     0
  7
STANDARD
140
0.18
170
     5
 62
     0
 63
     7
283
     0
274
    -2
284
     1
 64
     0
275
    -2
285
     1
 65
     0
276
    -2
286
     1
 66
     0
277
    -2
287
     1
 67
     0
278
    -2
288
     1
 68
     0
279
    -2
289
     1
 69
     0
  0
VISUALSTYLE
  5
1F21
102
{ACAD_REACTORS
330
1F1B
102
}
330
1F1B
100
AcDbVisualStyle
  2
2dWireframe
 70
     4
 71
     0
 72
     2
 73
     0
 90
        0
 40
-0.6
 41
-30.0
 62
     5
 63
     7
 74
     1
 91
        4
 64
     7
 65
   257
 75
     1
175
     1
 42
1.0
 92
        0
 66
   257
 43
1.0
 76
     1
 77
     6
 78
     2
 67
     7
 79
     5
170
     0
171
     0
290
     0
174
     0
 93
        1
 44
0.0
173
     0
291
     0
 45
0.0
1001
ACAD
1000
AcDbSavedByObjectVersion
1070
     0
  0
VISUALSTYLE
  5
1F23
102
{ACAD_REACTORS
330
1F1B
102
}
330
1F1B
100
AcDbVisualStyle
  2
3D Hidden
 70
     6
 71
     1
 72
     2
 73
     2
 90
        0
 40
-0.6
 41
-30.0
 62
     5
 63
     7
 74
     2
 91
        2
 64
     7
 65
   257
 75
     2
175
     1
 42
40.0
 92
        0
 66
   257
 43
1.0
 76
     1
 77
     6
 78
     2
 67
     7
 79
     3
170
     0
171
     0
290
     0
174
     0
 93
        1
 44
0.0
173
     0
291
     0
 45
0.0
1001
ACAD
1000
AcDbSavedByObjectVersion
1070
     0
  0
VISUALSTYLE
  5
1F22
102
{ACAD_REACTORS
330
1F1B
102
}
330
1F1B
100
AcDbVisualStyle
  2
3dWireframe
 70
     5
 71
     0
 72
     2
 73
     0
 90
        0
 40
-0.6
 41
-30.0
 62
     5
 63
     7
 74
     1
 91
        4
 64
     7
 65
   257
 75
     1
175
     1
 42
1.0
 92
        0
 66
   257
 43
1.0
 76
     1
 77
     6
 78
     2
 67
     7
 79
     5
170
     0
171
     0
290
     0
174
     0
 93
        1
 44
0.0
173
     0
291
     0
 45
0.0
1001
ACAD
1000
AcDbSavedByObjectVersion
1070
     0
  0
VISUALSTYLE
  5
1F20
102
{ACAD_REACTORS
330
1F1B
102
}
330
1F1B
100
AcDbVisualStyle
  2
Basic
 70
     7
 71
     1
 72
     0
 73
     1
 90
        0
 40
-0.6
 41
-30.0
 62
     5
 63
     7
 74
     0
 91
        4
 64
     7
 65
   257
 75
     1
175
     1
 42
1.0
 92
        8
 66
     7
 43
1.0
 76
     1
 77
     6
 78
     2
 67
     7
 79
     5
170
     0
171
     0
290
     0
174
     0
 93
        1
 44
0.0
173
     0
291
     1
 45
0.0
1001
ACAD
1000
AcDbSavedByObjectVersion
1070
     0
  0
VISUALSTYLE
  5
1F27
102
{ACAD_REACTORS
330
1F1B
102
}
330
1F1B
100
AcDbVisualStyle
  2
Brighten
 70
    12
 71
     2
 72
     2
 73
     0
 90
        0
 40
-0.6
 41
-30.0
 62
     5
 63
     7
 74
     1
 91
        4
 64
     7
 65
   257
 75
     1
175
     1
 42
1.0
 92
        8
 66
     7
 43
1.0
 76
     1
 77
     6
 78
     2
 67
     7
 79
     5
170
     0
171
     0
290
     0
174
     0
 93
        1
 44
50.0
173
     0
291
     1
 45
0.0
1001
ACAD
1000
AcDbSavedByObjectVersion
1070
     0
  0
VISUALSTYLE
  5
1F2B
102
{ACAD_REACTORS
330
1F1B
102
}
330
1F1B
100
AcDbVisualStyle
  2
ColorChange
 70
    16
 71
     2
 72
     2
 73
     3
 90
        0
 40
-0.6
 41
-30.0
 62
     5
 63
     8
 74
     1
 91
        4
 64
     7
 65
   257
 75
     1
175
     1
 42
1.0
 92
        8
 66
     8
 43
1.0
 76
     1
 77
     6
 78
     2
 67
     7
 79
     5
170
     0
171
     0
290
     0
174
     0
 93
        1
 44
0.0
173
     0
291
     1
 45
0.0
1001
ACAD
1000
AcDbSavedByObjectVersion
1070
     0
  0
VISUALSTYLE
  5
1F24
102
{ACAD_REACTORS
330
1F1B
102
}
330
1F1B
100
AcDbVisualStyle
  2
Conceptual
 70
     9
 71
     3
 72
     2
 73
     0
 90
        0
 40
-0.6
 41
-30.0
 62
     5
 63
     7
 74
     2
 91
        2
 64
     7
 65
   257
 75
     1
175
     1
 42
40.0
 92
        8
 66
     7
 43
1.0
 76
     1
 77
     6
 78
     2
 67
     7
 79
     3
170
     0
171
     0
290
     0
174
     0
 93
        1
 44
0.0
173
     0
291
     0
 45
0.0
1001
ACAD
1000
AcDbSavedByObjectVersion
1070
     0
  0
VISUALSTYLE
  5
1F26
102
{ACAD_REACTORS
330
1F1B
102
}
330
1F1B
100
AcDbVisualStyle
  2
Dim
 70
    11
 71
     2
 72
     2
 73
     0
 90
        0
 40
-0.6
 41
-30.0
 62
     5
 63
     7
 74
     1
 91
        4
 64
     7
 65
   257
 75
     1
175
     1
 42
1.0
 92
        8
 66
     7
 43
1.0
 76
     1
 77
     6
 78
     2
 67
     7
 79
     5
170
     0
171
     0
290
     0
174
     0
 93
        1
 44
-50.0
173
     0
291
     1
 45
0.0
1001
ACAD
1000
AcDbSavedByObjectVersion
1070
     0
  0
VISUALSTYLE
  5
1F2A
102
{ACAD_REACTORS
330
1F1B
102
}
330
1F1B
100
AcDbVisualStyle
  2
Facepattern
 70
    15
 71
     2
 72
     2
 73
     0
 90
        0
 40
-0.6
 41
-30.0
 62
     5
 63
     7
 74
     1
 91
        4
 64
     7
 65
   257
 75
     1
175
     1
 42
1.0
 92
        8
 66
     7
 43
1.0
 76
     1
 77
     6
 78
     2
 67
     7
 79
     5
170
     0
171
     0
290
     0
174
     0
 93
        1
 44
0.0
173
     0
291
     1
 45
0.0
1001
ACAD
1000
AcDbSavedByObjectVersion
1070
     0
  0
VISUALSTYLE
  5
1F1C
102
{ACAD_REACTORS
330
1F1B
102
}
330
1F1B
100
AcDbVisualStyle
  2
Flat
 70
     0
 71
     2
 72
     1
 73
     1
 90
        2
 40
-0.6
 41
30.0
 62
     5
 63
     7
 74
     0
 91
        4
 64
     7
 65
   257
 75
     1
175
     1
 42
1.0
 92
        8
 66
     7
 43
1.0
 76
     1
 77
     6
 78
     2
 67
     7
 79
     5
170
     0
171
     0
290
     0
174
     0
 93
       13
 44
0.0
173
     0
291
     1
 45
0.0
1001
ACAD
1000
AcDbSavedByObjectVersion
1070
     0
  0
VISUALSTYLE
  5
1F1D
102
{ACAD_REACTORS
330
1F1B
102
}
330
1F1B
100
AcDbVisualStyle
  2
FlatWithEdges
 70
     1
 71
     2
 72
     1
 73
     1
 90
        2
 40
-0.6
 41
30.0
 62
     5
 63
     7
 74
     1
 91
        4
 64
     7
 65
   257
 75
     1
175
     1
 42
1.0
 92
        0
 66
   257
 43
1.0
 76
     1
 77
     6
 78
     2
 67
     7
 79
     5
170
     0
171
     0
290
     0
174
     0
 93
       13
 44
0.0
173
     0
291
     1
 45
0.0
1001
ACAD
1000
AcDbSavedByObjectVersion
1070
     0
  0
VISUALSTYLE
  5
1F1E
102
{ACAD_REACTORS
330
1F1B
102
}
330
1F1B
100
AcDbVisualStyle
  2
Gouraud
 70
     2
 71
     2
 72
     2
 73
     1
 90
        2
 40
-0.6
 41
30.0
 62
     5
 63
     7
 74
     0
 91
        4
 64
     7
 65
   257
 75
     1
175
     1
 42
1.0
 92
        0
 66
     7
 43
1.0
 76
     1
 77
     6
 78
     2
 67
     7
 79
     5
170
     0
171
     0
290
     0
174
     0
 93
       13
 44
0.0
173
     0
291
     1
 45
0.0
1001
ACAD
1000
AcDbSavedByObjectVersion
1070
     0
  0
VISUALSTYLE
  5
1F1F
102
{ACAD_REACTORS
330
1F1B
102
}
330
1F1B
100
AcDbVisualStyle
  2
GouraudWithEdges
 70
     3
 71
     2
 72
     2
 73
     1
 90
        2
 40
-0.6
 41
30.0
 62
     5
 63
     7
 74
     1
 91
        4
 64
     7
 65
   257
 75
     1
175
     1
 42
1.0
 92
        0
 66
   257
 43
1.0
 76
     1
 77
     6
 78
     2
 67
     7
 79
     5
170
     0
171
     0
290
     0
174
     0
 93
       13
 44
0.0
173
     0
291
     1
 45
0.0
1001
ACAD
1000
AcDbSavedByObjectVersion
1070
     0
  0
VISUALSTYLE
  5
1F29
102
{ACAD_REACTORS
330
1F1B
102
}
330
1F1B
100
AcDbVisualStyle
  2
Linepattern
 70
    14
 71
     2
 72
     2
 73
     0
 90
        0
 40
-0.6
 41
-30.0
 62
     5
 63
     7
 74
     1
 91
        4
 64
     7
 65
   257
 75
     7
175
     7
 42
1.0
 92
        8
 66
     7
 43
1.0
 76
     1
 77
     6
 78
     2
 67
     7
 79
     5
170
     0
171
     0
290
     0
174
     0
 93
        1
 44
0.0
173
     0
291
     1
 45
0.0
1001
ACAD
1000
AcDbSavedByObjectVersion
1070
     0
  0
VISUALSTYLE
  5
1F25
102
{ACAD_REACTORS
330
1F1B
102
}
330
1F1B
100
AcDbVisualStyle
  2
Realistic
 70
     8
 71
     2
 72
     2
 73
     0
 90
        0
 40
-0.6
 41
-30.0
 62
     5
 63
     7
 74
     1
 91
        0
 64
     7
 65
   257
 75
     1
175
     1
 42
1.0
 92
        8
 66
     8
 43
1.0
 76
     1
 77
     6
 78
     2
 67
     7
 79
     5
170
     0
171
     0
290
     0
174
     0
 93
       13
 44
0.0
173
     0
291
     0
 45
0.0
1001
ACAD
1000
AcDbSavedByObjectVersion
1070
     0
  0
VISUALSTYLE
  5
1F28
102
{ACAD_REACTORS
330
1F1B
102
}
330
1F1B
100
AcDbVisualStyle
  2
Thicken
 70
    13
 71
     2
 72
     2
 73
     0
 90
        0
 40
-0.6
 41
-30.0
 62
     5
 63
     7
 74
     1
 91
        4
 64
     7
 65
   257
 75
     1
175
     1
 42
1.0
 92
       12
 66
     7
 43
1.0
 76
     1
 77
     6
 78
     2
 67
     7
 79
     5
170
     0
171
     0
290
     0
174
     0
 93
        1
 44
0.0
173
     0
291
     1
 45
0.0
1001
ACAD
1000
AcDbSavedByObjectVersion
1070
     0
  0
DICTIONARYVAR
  5
1F77
102
{ACAD_REACTORS
330
1D75
102
}
330
1D75
100
DictionaryVariables
280
     0
  1
1:1
  0
DICTIONARYVAR
  5
1F76
102
{ACAD_REACTORS
330
1D75
102
}
330
1D75
100
DictionaryVariables
280
     0
  1
STANDARD
  0
DICTIONARYVAR
  5
1D76
102
{ACAD_REACTORS
330
1D75
102
}
330
1D75
100
DictionaryVariables
280
     0
  1
STANDARD
  0
DICTIONARYVAR
  5
1D77
102
{ACAD_REACTORS
330
1D75
102
}
330
1D75
100
DictionaryVariables
280
     0
  1
1
  0
DICTIONARYVAR
  5
1F79
102
{ACAD_REACTORS
330
1D75
102
}
330
1D75
100
DictionaryVariables
280
     0
  1
0
  0
DICTIONARYVAR
  5
1FB8
102
{ACAD_REACTORS
330
1D75
102
}
330
1D75
100
DictionaryVariables
280
     0
  1
0
  0
DICTIONARYVAR
  5
1FB7
102
{ACAD_REACTORS
330
1D75
102
}
330
1D75
100
DictionaryVariables
280
     0
  1
0
  0
DICTIONARYVAR
  5
1D78
102
{ACAD_REACTORS
330
1D75
102
}
330
1D75
100
DictionaryVariables
280
     0
  1

  0
DICTIONARYVAR
  5
1F78
102
{ACAD_REACTORS
330
1D75
102
}
330
1D75
100
DictionaryVariables
280
     0
  1
127
  0
DICTIONARY
  5
1FC6
330
1CE2
100
AcDbDictionary
280
     1
281
     1
  3
ACAD_XREC_ROUNDTRIP
360
1FC7
  0
DICTIONARY
  5
1FC4
330
1CDE
100
AcDbDictionary
280
     1
281
     1
  3
ACAD_XREC_ROUNDTRIP
360
1FC5
  0
DICTIONARY
  5
1F0C
330
1F0B
100
AcDbDictionary
280
     1
281
     1
  3
ACAD_XREC_ROUNDTRIP
360
1FC9
  3
BUMPTILE
360
1F0E
  3
DIFFUSETILE
360
1F0D
  3
OPACITYTILE
360
1F11
  3
REFLECTIONTILE
360
1F10
  3
REFRACTIONTILE
360
1F12
  3
SPECULARTILE
360
1F0F
  0
DICTIONARY
  5
1F04
330
1F03
100
AcDbDictionary
280
     1
281
     1
  3
ACAD_XREC_ROUNDTRIP
360
1FC8
  3
BUMPTILE
360
1F06
  3
DIFFUSETILE
360
1F05
  3
OPACITYTILE
360
1F09
  3
REFLECTIONTILE
360
1F08
  3
REFRACTIONTILE
360
1F0A
  3
SPECULARTILE
360
1F07
  0
DICTIONARY
  5
1F14
330
1F13
100
AcDbDictionary
280
     1
281
     1
  3
ACAD_XREC_ROUNDTRIP
360
1FCA
  3
BUMPTILE
360
1F16
  3
DIFFUSETILE
360
1F15
  3
OPACITYTILE
360
1F19
  3
REFLECTIONTILE
360
1F18
  3
REFRACTIONTILE
360
1F1A
  3
SPECULARTILE
360
1F17
  0
DICTIONARY
  5
1F61
330
1CDA
100
AcDbDictionary
280
     1
281
     1
  3
ACAD_ROUNDTRIP_2008_TABLESTYLE_CELLSTYLEMAP
360
1FC1
  3
ACAD_XREC_ROUNDTRIP
360
1FC3
  0
XRECORD
  5
1FC7
102
{ACAD_REACTORS
330
1FC6
102
}
330
1FC6
100
AcDbXrecord
280
     1
102
SHADEPLOT
 70
     0
102
SHADEPLOTRESLEVEL
 70
     2
102
SHADEPLOTCUSTOMDPI
 70
   300
  0
XRECORD
  5
1FC5
102
{ACAD_REACTORS
330
1FC4
102
}
330
1FC4
100
AcDbXrecord
280
     1
102
SHADEPLOT
 70
     0
102
SHADEPLOTRESLEVEL
 70
     2
102
SHADEPLOTCUSTOMDPI
 70
   300
  0
XRECORD
  5
1FC9
102
{ACAD_REACTORS
330
1F0C
102
}
330
1F0C
100
AcDbXrecord
280
     1
102
MATERIAL
148
0.0
149
0.0
149
0.0
 93
        0
 94
      127
282
     0
 72
     0
 77
     0
171
     0
175
     0
179
     0
273
     0
  0
XRECORD
  5
1F0E
102
{ACAD_REACTORS
330
1F0C
102
}
330
1F0C
100
AcDbXrecord
280
     1
270
     1
271
     1
  0
XRECORD
  5
1F0D
102
{ACAD_REACTORS
330
1F0C
102
}
330
1F0C
100
AcDbXrecord
280
     1
270
     1
271
     1
  0
XRECORD
  5
1F11
102
{ACAD_REACTORS
330
1F0C
102
}
330
1F0C
100
AcDbXrecord
280
     1
270
     1
271
     1
  0
XRECORD
  5
1F10
102
{ACAD_REACTORS
330
1F0C
102
}
330
1F0C
100
AcDbXrecord
280
     1
270
     1
271
     1
  0
XRECORD
  5
1F12
102
{ACAD_REACTORS
330
1F0C
102
}
330
1F0C
100
AcDbXrecord
280
     1
270
     1
271
     1
  0
XRECORD
  5
1F0F
102
{ACAD_REACTORS
330
1F0C
102
}
330
1F0C
100
AcDbXrecord
280
     1
270
     1
271
     1
  0
XRECORD
  5
1FC8
102
{ACAD_REACTORS
330
1F04
102
}
330
1F04
100
AcDbXrecord
280
     1
102
MATERIAL
148
0.0
149
0.0
149
0.0
 93
        0
 94
      127
282
     0
 72
     0
 77
     0
171
     0
175
     0
179
     0
273
     0
  0
XRECORD
  5
1F06
102
{ACAD_REACTORS
330
1F04
102
}
330
1F04
100
AcDbXrecord
280
     1
270
     1
271
     1
  0
XRECORD
  5
1F05
102
{ACAD_REACTORS
330
1F04
102
}
330
1F04
100
AcDbXrecord
280
     1
270
     1
271
     1
  0
XRECORD
  5
1F09
102
{ACAD_REACTORS
330
1F04
102
}
330
1F04
100
AcDbXrecord
280
     1
270
     1
271
     1
  0
XRECORD
  5
1F08
102
{ACAD_REACTORS
330
1F04
102
}
330
1F04
100
AcDbXrecord
280
     1
270
     1
271
     1
  0
XRECORD
  5
1F0A
102
{ACAD_REACTORS
330
1F04
102
}
330
1F04
100
AcDbXrecord
280
     1
270
     1
271
     1
  0
XRECORD
  5
1F07
102
{ACAD_REACTORS
330
1F04
102
}
330
1F04
100
AcDbXrecord
280
     1
270
     1
271
     1
  0
XRECORD
  5
1FCA
102
{ACAD_REACTORS
330
1F14
102
}
330
1F14
100
AcDbXrecord
280
     1
102
MATERIAL
148
0.0
149
0.0
149
0.0
 93
        0
 94
      127
282
     0
 72
     0
 77
     0
171
     0
175
     0
179
     0
273
     0
  0
XRECORD
  5
1F16
102
{ACAD_REACTORS
330
1F14
102
}
330
1F14
100
AcDbXrecord
280
     1
270
     1
271
     1
  0
XRECORD
  5
1F15
102
{ACAD_REACTORS
330
1F14
102
}
330
1F14
100
AcDbXrecord
280
     1
270
     1
271
     1
  0
XRECORD
  5
1F19
102
{ACAD_REACTORS
330
1F14
102
}
330
1F14
100
AcDbXrecord
280
     1
270
     1
271
     1
  0
XRECORD
  5
1F18
102
{ACAD_REACTORS
330
1F14
102
}
330
1F14
100
AcDbXrecord
280
     1
270
     1
271
     1
  0
XRECORD
  5
1F1A
102
{ACAD_REACTORS
330
1F14
102
}
330
1F14
100
AcDbXrecord
280
     1
270
     1
271
     1
  0
XRECORD
  5
1F17
102
{ACAD_REACTORS
330
1F14
102
}
330
1F14
100
AcDbXrecord
280
     1
270
     1
271
     1
  0
CELLSTYLEMAP
  5
1FC1
102
{ACAD_REACTORS
330
1F61
102
}
330
1F61
100
AcDbCellStyleMap
 90
        3
300
CELLSTYLE
  1
TABLEFORMAT_BEGIN
 90
        5
170
     1
 91
        0
 92
    32768
 62
   257
 93
        1
300
CONTENTFORMAT
  1
CONTENTFORMAT_BEGIN
 90
        0
 91
        0
 92
        4
 93
        0
300

 40
0.0
140
1.0
 94
        5
 62
     0
340
1CCE
144
0.25
309
CONTENTFORMAT_END
171
     0
 94
        6
 95
        1
302
GRIDFORMAT
  1
GRIDFORMAT_BEGIN
 90
        0
 91
        1
 62
     0
 92
       -2
340
0
 93
        0
 40
0.045
309
GRIDFORMAT_END
 95
        2
302
GRIDFORMAT
  1
GRIDFORMAT_BEGIN
 90
        0
 91
        1
 62
     0
 92
       -2
340
0
 93
        0
 40
0.045
309
GRIDFORMAT_END
 95
        4
302
GRIDFORMAT
  1
GRIDFORMAT_BEGIN
 90
        0
 91
        1
 62
     0
 92
       -2
340
0
 93
        0
 40
0.045
309
GRIDFORMAT_END
 95
        8
302
GRIDFORMAT
  1
GRIDFORMAT_BEGIN
 90
        0
 91
        1
 62
     0
 92
       -2
340
0
 93
        0
 40
0.045
309
GRIDFORMAT_END
 95
       16
302
GRIDFORMAT
  1
GRIDFORMAT_BEGIN
 90
        0
 91
        1
 62
     0
 92
       -2
340
0
 93
        0
 40
0.045
309
GRIDFORMAT_END
 95
       32
302
GRIDFORMAT
  1
GRIDFORMAT_BEGIN
 90
        0
 91
        1
 62
     0
 92
       -2
340
0
 93
        0
 40
0.045
309
GRIDFORMAT_END
309
TABLEFORMAT_END
  1
CELLSTYLE_BEGIN
 90
        1
 91
        1
300
_TITLE
309
CELLSTYLE_END
300
CELLSTYLE
  1
TABLEFORMAT_BEGIN
 90
        5
170
     1
 91
        0
 92
        0
 62
   257
 93
        1
300
CONTENTFORMAT
  1
CONTENTFORMAT_BEGIN
 90
        0
 91
        0
 92
        4
 93
        0
300

 40
0.0
140
1.0
 94
        5
 62
     0
340
1CCE
144
0.18
309
CONTENTFORMAT_END
171
     0
 94
        6
 95
        1
302
GRIDFORMAT
  1
GRIDFORMAT_BEGIN
 90
        0
 91
        1
 62
     0
 92
       -2
340
0
 93
        0
 40
0.045
309
GRIDFORMAT_END
 95
        2
302
GRIDFORMAT
  1
GRIDFORMAT_BEGIN
 90
        0
 91
        1
 62
     0
 92
       -2
340
0
 93
        0
 40
0.045
309
GRIDFORMAT_END
 95
        4
302
GRIDFORMAT
  1
GRIDFORMAT_BEGIN
 90
        0
 91
        1
 62
     0
 92
       -2
340
0
 93
        0
 40
0.045
309
GRIDFORMAT_END
 95
        8
302
GRIDFORMAT
  1
GRIDFORMAT_BEGIN
 90
        0
 91
        1
 62
     0
 92
       -2
340
0
 93
        0
 40
0.045
309
GRIDFORMAT_END
 95
       16
302
GRIDFORMAT
  1
GRIDFORMAT_BEGIN
 90
        0
 91
        1
 62
     0
 92
       -2
340
0
 93
        0
 40
0.045
309
GRIDFORMAT_END
 95
       32
302
GRIDFORMAT
  1
GRIDFORMAT_BEGIN
 90
        0
 91
        1
 62
     0
 92
       -2
340
0
 93
        0
 40
0.045
309
GRIDFORMAT_END
309
TABLEFORMAT_END
  1
CELLSTYLE_BEGIN
 90
        2
 91
        1
300
_HEADER
309
CELLSTYLE_END
300
CELLSTYLE
  1
TABLEFORMAT_BEGIN
 90
        5
170
     1
 91
        0
 92
        0
 62
   257
 93
        1
300
CONTENTFORMAT
  1
CONTENTFORMAT_BEGIN
 90
        0
 91
        0
 92
        4
 93
        0
300

 40
0.0
140
1.0
 94
        2
 62
     0
340
1CCE
144
0.18
309
CONTENTFORMAT_END
171
     0
 94
        6
 95
        1
302
GRIDFORMAT
  1
GRIDFORMAT_BEGIN
 90
        0
 91
        1
 62
     0
 92
       -2
340
0
 93
        0
 40
0.045
309
GRIDFORMAT_END
 95
        2
302
GRIDFORMAT
  1
GRIDFORMAT_BEGIN
 90
        0
 91
        1
 62
     0
 92
       -2
340
0
 93
        0
 40
0.045
309
GRIDFORMAT_END
 95
        4
302
GRIDFORMAT
  1
GRIDFORMAT_BEGIN
 90
        0
 91
        1
 62
     0
 92
       -2
340
0
 93
        0
 40
0.045
309
GRIDFORMAT_END
 95
        8
302
GRIDFORMAT
  1
GRIDFORMAT_BEGIN
 90
        0
 91
        1
 62
     0
 92
       -2
340
0
 93
        0
 40
0.045
309
GRIDFORMAT_END
 95
       16
302
GRIDFORMAT
  1
GRIDFORMAT_BEGIN
 90
        0
 91
        1
 62
     0
 92
       -2
340
0
 93
        0
 40
0.045
309
GRIDFORMAT_END
 95
       32
302
GRIDFORMAT
  1
GRIDFORMAT_BEGIN
 90
        0
 91
        1
 62
     0
 92
       -2
340
0
 93
        0
 40
0.045
309
GRIDFORMAT_END
309
TABLEFORMAT_END
  1
CELLSTYLE_BEGIN
 90
        3
 91
        2
300
_DATA
309
CELLSTYLE_END
  0
XRECORD
  5
1FC3
102
{ACAD_REACTORS
330
1F61
102
}
330
1F61
100
AcDbXrecord
280
     1
102
ACAD_ROUNDTRIP_PRE2007_TABLESTYLE
 90
        4
 91
        0
  1

 92
        4
 93
        0
  2

 94
        4
 95
        0
  3

  0
ENDSEC
  0
EOF
