  0
SECTION
  2
HEADER
  9
$ACADVER
  1
AC1015
  9
$ACADMAINTVER
 70
    20
  9
$DWGCODEPAGE
  3
ANSI_932
  9
$INSBASE
 10
0.0
 20
0.0
 30
0.0
  9
$EXTMIN
 10
4.199999999999954
 20
8.274999999999977
 30
0.0
  9
$EXTMAX
 10
189.4249999999999
 20
280.0749999999999
 30
0.0
  9
$LIMMIN
 10
0.0
 20
0.0
  9
$LIMMAX
 10
194.0
 20
282.0
  9
$ORTHOMODE
 70
     0
  9
$REGENMODE
 70
     1
  9
$FILLMODE
 70
     1
  9
$QTEXTMODE
 70
     0
  9
$MIRRTEXT
 70
     0
  9
$LTSCALE
 40
1.0
  9
$ATTMODE
 70
     1
  9
$TEXTSIZE
 40
0.2
  9
$TRACEWID
 40
0.05
  9
$TEXTSTYLE
  7
BIGFONT
  9
$CLAYER
  8
0
  9
$CELTYPE
  6
CONTINUOUS
  9
$CECOLOR
 62
   256
  9
$CELTSCALE
 40
1.0
  9
$DISPSILH
 70
     0
  9
$DIMSCALE
 40
1.0
  9
$DIMASZ
 40
3.0
  9
$DIMEXO
 40
0.0625
  9
$DIMDLI
 40
0.38
  9
$DIMRND
 40
0.0
  9
$DIMDLE
 40
0.0
  9
$DIMEXE
 40
1.0
  9
$DIMTP
 40
0.0
  9
$DIMTM
 40
0.0
  9
$DIMTXT
 40
3.5
  9
$DIMCEN
 40
0.09
  9
$DIMTSZ
 40
0.0
  9
$DIMTOL
 70
     0
  9
$DIMLIM
 70
     0
  9
$DIMTIH
 70
     0
  9
$DIMTOH
 70
     0
  9
$DIMSE1
 70
     0
  9
$DIMSE2
 70
     0
  9
$DIMTAD
 70
     1
  9
$DIMZIN
 70
     0
  9
$DIMBLK
  1

  9
$DIMASO
 70
     1
  9
$DIMSHO
 70
     1
  9
$DIMPOST
  1

  9
$DIMAPOST
  1

  9
$DIMALT
 70
     0
  9
$DIMALTD
 70
     2
  9
$DIMALTF
 40
25.4
  9
$DIMLFAC
 40
1.0
  9
$DIMTOFL
 70
     1
  9
$DIMTVP
 40
0.0
  9
$DIMTIX
 70
     0
  9
$DIMSOXD
 70
     0
  9
$DIMSAH
 70
     0
  9
$DIMBLK1
  1

  9
$DIMBLK2
  1

  9
$DIMSTYLE
  2
STANDARD
  9
$DIMCLRD
 70
     0
  9
$DIMCLRE
 70
     0
  9
$DIMCLRT
 70
     0
  9
$DIMTFAC
 40
1.0
  9
$DIMGAP
 40
1.0
  9
$DIMJUST
 70
     0
  9
$DIMSD1
 70
     0
  9
$DIMSD2
 70
     0
  9
$DIMTOLJ
 70
     1
  9
$DIMTZIN
 70
     0
  9
$DIMALTZ
 70
     0
  9
$DIMALTTZ
 70
     0
  9
$DIMUPT
 70
     0
  9
$DIMDEC
 70
     4
  9
$DIMTDEC
 70
     4
  9
$DIMALTU
 70
     2
  9
$DIMALTTD
 70
     2
  9
$DIMTXSTY
  7
STANDARD
  9
$DIMAUNIT
 70
     0
  9
$DIMADEC
 70
     0
  9
$DIMALTRND
 40
0.0
  9
$DIMAZIN
 70
     0
  9
$DIMDSEP
 70
    46
  9
$DIMATFIT
 70
     3
  9
$DIMFRAC
 70
     0
  9
$DIMLDRBLK
  1

  9
$DIMLUNIT
 70
     2
  9
$DIMLWD
 70
    -2
  9
$DIMLWE
 70
    -2
  9
$DIMTMOVE
 70
     0
  9
$LUNITS
 70
     2
  9
$LUPREC
 70
     4
  9
$SKETCHINC
 40
0.1
  9
$FILLETRAD
 40
0.0
  9
$AUNITS
 70
     0
  9
$AUPREC
 70
     0
  9
$MENU
  1
.
  9
$ELEVATION
 40
0.0
  9
$PELEVATION
 40
0.0
  9
$THICKNESS
 40
0.0
  9
$LIMCHECK
 70
     0
  9
$CHAMFERA
 40
0.0
  9
$CHAMFERB
 40
0.0
  9
$CHAMFERC
 40
0.0
  9
$CHAMFERD
 40
0.0
  9
$SKPOLY
 70
     0
  9
$TDCREATE
 40
2453573.411721273
  9
$TDUCREATE
 40
2453573.036721274
  9
$TDUPDATE
 40
2456553.551399839
  9
$TDUUPDATE
 40
2456553.176399838
  9
$TDINDWG
 40
0.3263254630
  9
$TDUSRTIMER
 40
0.3263252778
  9
$USRTIMER
 70
     1
  9
$ANGBASE
 50
0.0
  9
$ANGDIR
 70
     0
  9
$PDMODE
 70
     0
  9
$PDSIZE
 40
0.0
  9
$PLINEWID
 40
0.0
  9
$SPLFRAME
 70
     0
  9
$SPLINETYPE
 70
     6
  9
$SPLINESEGS
 70
     8
  9
$HANDSEED
  5
1A79
  9
$SURFTAB1
 70
     6
  9
$SURFTAB2
 70
     6
  9
$SURFTYPE
 70
     6
  9
$SURFU
 70
     6
  9
$SURFV
 70
     6
  9
$UCSBASE
  2

  9
$UCSNAME
  2

  9
$UCSORG
 10
0.0
 20
0.0
 30
0.0
  9
$UCSXDIR
 10
1.0
 20
0.0
 30
0.0
  9
$UCSYDIR
 10
0.0
 20
1.0
 30
0.0
  9
$UCSORTHOREF
  2

  9
$UCSORTHOVIEW
 70
     0
  9
$UCSORGTOP
 10
0.0
 20
0.0
 30
0.0
  9
$UCSORGBOTTOM
 10
0.0
 20
0.0
 30
0.0
  9
$UCSORGLEFT
 10
0.0
 20
0.0
 30
0.0
  9
$UCSORGRIGHT
 10
0.0
 20
0.0
 30
0.0
  9
$UCSORGFRONT
 10
0.0
 20
0.0
 30
0.0
  9
$UCSORGBACK
 10
0.0
 20
0.0
 30
0.0
  9
$PUCSBASE
  2

  9
$PUCSNAME
  2

  9
$PUCSORG
 10
0.0
 20
0.0
 30
0.0
  9
$PUCSXDIR
 10
1.0
 20
0.0
 30
0.0
  9
$PUCSYDIR
 10
0.0
 20
1.0
 30
0.0
  9
$PUCSORTHOREF
  2

  9
$PUCSORTHOVIEW
 70
     0
  9
$PUCSORGTOP
 10
0.0
 20
0.0
 30
0.0
  9
$PUCSORGBOTTOM
 10
0.0
 20
0.0
 30
0.0
  9
$PUCSORGLEFT
 10
0.0
 20
0.0
 30
0.0
  9
$PUCSORGRIGHT
 10
0.0
 20
0.0
 30
0.0
  9
$PUCSORGFRONT
 10
0.0
 20
0.0
 30
0.0
  9
$PUCSORGBACK
 10
0.0
 20
0.0
 30
0.0
  9
$USERI1
 70
     0
  9
$USERI2
 70
     0
  9
$USERI3
 70
     0
  9
$USERI4
 70
     0
  9
$USERI5
 70
     0
  9
$USERR1
 40
0.0
  9
$USERR2
 40
0.0
  9
$USERR3
 40
0.0
  9
$USERR4
 40
0.0
  9
$USERR5
 40
0.0
  9
$WORLDVIEW
 70
     1
  9
$SHADEDGE
 70
     3
  9
$SHADEDIF
 70
    70
  9
$TILEMODE
 70
     1
  9
$MAXACTVP
 70
    64
  9
$PINSBASE
 10
0.0
 20
0.0
 30
0.0
  9
$PLIMCHECK
 70
     0
  9
$PEXTMIN
 10
1.000000000000000E+20
 20
1.000000000000000E+20
 30
1.000000000000000E+20
  9
$PEXTMAX
 10
-1.000000000000000E+20
 20
-1.000000000000000E+20
 30
-1.000000000000000E+20
  9
$PLIMMIN
 10
0.0
 20
0.0
  9
$PLIMMAX
 10
12.0
 20
9.0
  9
$UNITMODE
 70
     0
  9
$VISRETAIN
 70
     1
  9
$PLINEGEN
 70
     0
  9
$PSLTSCALE
 70
     1
  9
$TREEDEPTH
 70
  3020
  9
$CMLSTYLE
  2
Standard
  9
$CMLJUST
 70
     0
  9
$CMLSCALE
 40
1.0
  9
$PROXYGRAPHICS
 70
     1
  9
$MEASUREMENT
 70
     0
  9
$CELWEIGHT
370
    -1
  9
$ENDCAPS
280
     0
  9
$JOINSTYLE
280
     0
  9
$LWDISPLAY
290
     0
  9
$INSUNITS
 70
     0
  9
$HYPERLINKBASE
  1

  9
$STYLESHEET
  1

  9
$XEDIT
290
     1
  9
$CEPSNTYPE
380
     0
  9
$PSTYLEMODE
290
     1
  9
$FINGERPRINTGUID
  2
{CE7BA9B8-8233-4973-A0D0-3947EFE1A56D}
  9
$VERSIONGUID
  2
{919C9B4C-4000-483C-8721-8FC199C688A2}
  9
$EXTNAMES
290
     1
  9
$PSVPSCALE
 40
0.0
  9
$OLESTARTUP
290
     0
  0
ENDSEC
  0
SECTION
  2
CLASSES
  0
CLASS
  1
ACDBDICTIONARYWDFLT
  2
AcDbDictionaryWithDefault
  3
ObjectDBX Classes
 90
        0
280
     0
281
     0
  0
CLASS
  1
TABLESTYLE
  2
AcDbTableStyle
  3
ObjectDBX Classes
 90
     4095
280
     0
281
     0
  0
CLASS
  1
SORTENTSTABLE
  2
AcDbSortentsTable
  3
ObjectDBX Classes
 90
    32768
280
     0
281
     0
  0
CLASS
  1
DICTIONARYVAR
  2
AcDbDictionaryVar
  3
ObjectDBX Classes
 90
        0
280
     0
281
     0
  0
CLASS
  1
ACDBPLACEHOLDER
  2
AcDbPlaceHolder
  3
ObjectDBX Classes
 90
        0
280
     0
281
     0
  0
CLASS
  1
LAYOUT
  2
AcDbLayout
  3
ObjectDBX Classes
 90
        0
280
     0
281
     0
  0
CLASS
  1
MATERIAL
  2
AcDbMaterial
  3
ObjectDBX Classes
 90
     1153
280
     0
281
     0
  0
CLASS
  1
VISUALSTYLE
  2
AcDbVisualStyle
  3
ObjectDBX Classes
 90
     4095
280
     0
281
     0
  0
CLASS
  1
SCALE
  2
AcDbScale
  3
ObjectDBX Classes
 90
     1153
280
     0
281
     0
  0
CLASS
  1
MLEADERSTYLE
  2
AcDbMLeaderStyle
  3
ACDB_MLEADERSTYLE_CLASS
 90
     4095
280
     0
281
     0
  0
CLASS
  1
CELLSTYLEMAP
  2
AcDbCellStyleMap
  3
ObjectDBX Classes
 90
     1152
280
     0
281
     0
  0
ENDSEC
  0
SECTION
  2
TABLES
  0
TABLE
  2
VPORT
  5
1804
102
{ACAD_XDICTIONARY
360
1A47
102
}
330
0
100
AcDbSymbolTable
 70
     1
  0
VPORT
  5
19DF
330
1804
100
AcDbSymbolTableRecord
100
AcDbViewportTableRecord
  2
*Active
 70
     0
 10
0.0
 20
0.0
 11
1.0
 21
1.0
 12
235.0761550082691
 22
144.1842047618518
 13
0.0
 23
0.0
 14
5.0
 24
5.0
 15
0.0
 25
0.0
 16
0.0
 26
0.0
 36
1.0
 17
0.0
 27
0.0
 37
0.0
 40
273.9380036344416
 41
1.779141104294478
 42
50.0
 43
0.0
 44
0.0
 50
0.0
 51
0.0
 71
     0
 72
   100
 73
     1
 74
     1
 75
     0
 76
     0
 77
     0
 78
     0
281
     0
 65
     1
110
0.0
120
0.0
130
0.0
111
1.0
121
0.0
131
0.0
112
0.0
122
1.0
132
0.0
 79
     0
146
0.0
  0
ENDTAB
  0
TABLE
  2
LTYPE
  5
1801
330
0
100
AcDbSymbolTable
 70
     9
  0
LTYPE
  5
180F
330
1801
100
AcDbSymbolTableRecord
100
AcDbLinetypeTableRecord
  2
ByBlock
 70
     0
  3

 72
    65
 73
     0
 40
0.0
  0
LTYPE
  5
1810
330
1801
100
AcDbSymbolTableRecord
100
AcDbLinetypeTableRecord
  2
ByLayer
 70
     0
  3

 72
    65
 73
     0
 40
0.0
  0
LTYPE
  5
1811
330
1801
100
AcDbSymbolTableRecord
100
AcDbLinetypeTableRecord
  2
CONTINUOUS
 70
     0
  3
実線
 72
    65
 73
     0
 40
0.0
  0
LTYPE
  5
1824
330
1801
100
AcDbSymbolTableRecord
100
AcDbLinetypeTableRecord
  2
DASHED
 70
     0
  3
__ __ __ __ __ __ __ __ __ __ __ __ __ __ __
 72
    65
 73
     2
 40
0.75
 49
0.5
 74
     0
 49
-0.25
 74
     0
  0
LTYPE
  5
1825
330
1801
100
AcDbSymbolTableRecord
100
AcDbLinetypeTableRecord
  2
HIDDEN
 70
     0
  3
_ _ _ _ _ _ _ _ _ _ _ _ _ _ _ _ _ _ _ _ _ _ _
 72
    65
 73
     2
 40
0.375
 49
0.25
 74
     0
 49
-0.125
 74
     0
  0
LTYPE
  5
1826
330
1801
100
AcDbSymbolTableRecord
100
AcDbLinetypeTableRecord
  2
CENTER
 70
     0
  3
____ _ ____ _ ____ _ ____ _ ____ _ ____ _ ____
 72
    65
 73
     4
 40
2.0
 49
1.25
 74
     0
 49
-0.25
 74
     0
 49
0.25
 74
     0
 49
-0.25
 74
     0
  0
LTYPE
  5
1827
330
1801
100
AcDbSymbolTableRecord
100
AcDbLinetypeTableRecord
  2
PHANTOM
 70
     0
  3
_____ _ _ _____ _ _ _____ _ _ _____ _ _ ____
 72
    65
 73
     6
 40
2.5
 49
1.25
 74
     0
 49
-0.25
 74
     0
 49
0.25
 74
     0
 49
-0.25
 74
     0
 49
0.25
 74
     0
 49
-0.25
 74
     0
  0
LTYPE
  5
1828
330
1801
100
AcDbSymbolTableRecord
100
AcDbLinetypeTableRecord
  2
DOT
 70
     0
  3
...............................................
 72
    65
 73
     2
 40
0.25
 49
0.0
 74
     0
 49
-0.25
 74
     0
  0
LTYPE
  5
1829
330
1801
100
AcDbSymbolTableRecord
100
AcDbLinetypeTableRecord
  2
DASHDOT
 70
     0
  3
__ . __ . __ . __ . __ . __ . __ . __ . __ . __
 72
    65
 73
     4
 40
1.0
 49
0.5
 74
     0
 49
-0.25
 74
     0
 49
0.0
 74
     0
 49
-0.25
 74
     0
  0
LTYPE
  5
182A
330
1801
100
AcDbSymbolTableRecord
100
AcDbLinetypeTableRecord
  2
BORDER
 70
     0
  3
__ __ . __ __ . __ __ . __ __ . __ __ . __ __
 72
    65
 73
     6
 40
1.75
 49
0.5
 74
     0
 49
-0.25
 74
     0
 49
0.5
 74
     0
 49
-0.25
 74
     0
 49
0.0
 74
     0
 49
-0.25
 74
     0
  0
LTYPE
  5
182B
330
1801
100
AcDbSymbolTableRecord
100
AcDbLinetypeTableRecord
  2
DIVIDE
 70
     0
  3
__ . . __ . . __ . . __ . . __ . . __ . . __
 72
    65
 73
     6
 40
1.25
 49
0.5
 74
     0
 49
-0.25
 74
     0
 49
0.0
 74
     0
 49
-0.25
 74
     0
 49
0.0
 74
     0
 49
-0.25
 74
     0
  0
ENDTAB
  0
TABLE
  2
LAYER
  5
17FE
102
{ACAD_XDICTIONARY
360
194D
102
}
330
0
100
AcDbSymbolTable
 70
     6
  0
LAYER
  5
180C
102
{ACAD_XDICTIONARY
360
1A39
102
}
330
17FE
100
AcDbSymbolTableRecord
100
AcDbLayerTableRecord
  2
0
 70
     0
 62
     7
  6
CONTINUOUS
370
    -3
390
180B
  0
LAYER
  5
182C
330
17FE
100
AcDbSymbolTableRecord
100
AcDbLayerTableRecord
  2
DEFPOINTS
 70
     0
 62
     7
  6
CONTINUOUS
290
     0
370
    -3
390
180B
  0
LAYER
  5
182D
102
{ACAD_XDICTIONARY
360
1A3B
102
}
330
17FE
100
AcDbSymbolTableRecord
100
AcDbLayerTableRecord
  2
ED
 70
     0
 62
     7
  6
CONTINUOUS
370
    -3
390
180B
  0
LAYER
  5
182E
102
{ACAD_XDICTIONARY
360
1A3D
102
}
330
17FE
100
AcDbSymbolTableRecord
100
AcDbLayerTableRecord
  2
MO
 70
     0
 62
     7
  6
CONTINUOUS
370
    -3
390
180B
  0
LAYER
  5
182F
102
{ACAD_XDICTIONARY
360
1A3F
102
}
330
17FE
100
AcDbSymbolTableRecord
100
AcDbLayerTableRecord
  2
1
 70
     0
 62
     7
  6
CONTINUOUS
370
    -3
390
180B
  0
LAYER
  5
1830
102
{ACAD_XDICTIONARY
360
1A41
102
}
330
17FE
100
AcDbSymbolTableRecord
100
AcDbLayerTableRecord
  2
SUNPO
 70
     0
 62
     7
  6
CONTINUOUS
370
    -3
390
180B
  0
ENDTAB
  0
TABLE
  2
STYLE
  5
17FF
330
0
100
AcDbSymbolTable
 70
     2
  0
STYLE
  5
180D
330
17FF
100
AcDbSymbolTableRecord
100
AcDbTextStyleTableRecord
  2
STANDARD
 70
     0
 40
0.0
 41
0.5
 50
0.0
 71
     0
 42
0.3
  3
txt.shx
  4
bigfont.shx
  0
STYLE
  5
1822
330
17FF
100
AcDbSymbolTableRecord
100
AcDbTextStyleTableRecord
  2
BIGFONT
 70
     0
 40
0.0
 41
1.0
 50
0.0
 71
     0
 42
0.2
  3
MS PMincho.ttf
  4

1001
ACAD
1000
MS PMincho
1071
    32786
  0
ENDTAB
  0
TABLE
  2
VIEW
  5
1802
330
0
100
AcDbSymbolTable
 70
     0
  0
ENDTAB
  0
TABLE
  2
UCS
  5
1803
330
0
100
AcDbSymbolTable
 70
     0
  0
ENDTAB
  0
TABLE
  2
APPID
  5
1805
330
0
100
AcDbSymbolTable
 70
     4
  0
APPID
  5
180E
330
1805
100
AcDbSymbolTableRecord
100
AcDbRegAppTableRecord
  2
ACAD
 70
     0
  0
APPID
  5
1831
330
1805
100
AcDbSymbolTableRecord
100
AcDbRegAppTableRecord
  2
ACAD_DSTYLE_DIMTEXT_FILL
 70
     0
  0
APPID
  5
1832
330
1805
100
AcDbSymbolTableRecord
100
AcDbRegAppTableRecord
  2
ACAD_PSEXT
 70
     0
  0
APPID
  5
1A33
330
1805
100
AcDbSymbolTableRecord
100
AcDbRegAppTableRecord
  2
ACAD_MLEADERVER
 70
     0
  0
ENDTAB
  0
TABLE
  2
DIMSTYLE
  5
1806
330
0
100
AcDbSymbolTable
 70
     2
100
AcDbDimStyleTable
 71
     0
  0
DIMSTYLE
105
1833
102
{ACAD_REACTORS
330
135B
330
135C
330
135E
330
136B
330
136F
330
1371
330
1376
330
1568
102
}
330
1806
100
AcDbSymbolTableRecord
100
AcDbDimStyleTableRecord
  2
STANDARD
 70
     0
 41
3.0
 44
1.0
 73
     0
 74
     0
 77
     1
140
3.5
147
1.0
172
     1
279
     2
340
1822
  0
DIMSTYLE
105
1834
330
1806
100
AcDbSymbolTableRecord
100
AcDbDimStyleTableRecord
  2
ISO-25
 70
     0
 41
1.5
 42
0.625
 43
3.75
 44
0.0
 73
     0
 74
     0
 77
     1
 78
     8
140
1.5
141
1.5
143
0.03937007874016
147
0.625
171
     3
172
     1
174
     1
279
     2
340
1822
  0
ENDTAB
  0
TABLE
  2
BLOCK_RECORD
  5
17FD
330
0
100
AcDbSymbolTable
 70
    13
  0
BLOCK_RECORD
  5
181E
330
17FD
100
AcDbSymbolTableRecord
100
AcDbBlockTableRecord
  2
*Model_Space
340
1821
  0
BLOCK_RECORD
  5
181A
330
17FD
100
AcDbSymbolTableRecord
100
AcDbBlockTableRecord
  2
*Paper_Space
340
181D
  0
BLOCK_RECORD
  5
1837
330
17FD
100
AcDbSymbolTableRecord
100
AcDbBlockTableRecord
  2
$MODEL_SPACE
340
0
  0
BLOCK_RECORD
  5
1839
330
17FD
100
AcDbSymbolTableRecord
100
AcDbBlockTableRecord
  2
$PAPER_SPACE
340
0
  0
BLOCK_RECORD
  5
183B
330
17FD
100
AcDbSymbolTableRecord
100
AcDbBlockTableRecord
  2
_OPEN30
340
0
  0
BLOCK_RECORD
  5
183D
330
17FD
100
AcDbSymbolTableRecord
100
AcDbBlockTableRecord
  2
_NONE
340
0
  0
BLOCK_RECORD
  5
1855
330
17FD
100
AcDbSymbolTableRecord
100
AcDbBlockTableRecord
  2
waku
340
0
310
2800000020000000200000000100080000000000000400000000000000000000000000000000000000000000000080000080000000808000800000008000800080800000C0C0C000C0DCC000F0CAA6000020400000206000002080000020A0000020C0000020E00000400000004020000040400000406000004080000040A0
310
000040C0000040E00000600000006020000060400000606000006080000060A0000060C0000060E00000800000008020000080400000806000008080000080A0000080C0000080E00000A0000000A0200000A0400000A0600000A0800000A0A00000A0C00000A0E00000C0000000C0200000C0400000C0600000C0800000C0
310
A00000C0C00000C0E00000E0000000E0200000E0400000E0600000E0800000E0A00000E0C00000E0E00040000000400020004000400040006000400080004000A0004000C0004000E00040200000402020004020400040206000402080004020A0004020C0004020E000404000004040200040404000404060004040800040
310
40A0004040C0004040E00040600000406020004060400040606000406080004060A0004060C0004060E00040800000408020004080400040806000408080004080A0004080C0004080E00040A0000040A0200040A0400040A0600040A0800040A0A00040A0C00040A0E00040C0000040C0200040C0400040C0600040C08000
310
40C0A00040C0C00040C0E00040E0000040E0200040E0400040E0600040E0800040E0A00040E0C00040E0E00080000000800020008000400080006000800080008000A0008000C0008000E00080200000802020008020400080206000802080008020A0008020C0008020E00080400000804020008040400080406000804080
310
008040A0008040C0008040E00080600000806020008060400080606000806080008060A0008060C0008060E00080800000808020008080400080806000808080008080A0008080C0008080E00080A0000080A0200080A0400080A0600080A0800080A0A00080A0C00080A0E00080C0000080C0200080C0400080C0600080C0
310
800080C0A00080C0C00080C0E00080E0000080E0200080E0400080E0600080E0800080E0A00080E0C00080E0E000C0000000C0002000C0004000C0006000C0008000C000A000C000C000C000E000C0200000C0202000C0204000C0206000C0208000C020A000C020C000C020E000C0400000C0402000C0404000C0406000C0
310
408000C040A000C040C000C040E000C0600000C0602000C0604000C0606000C0608000C060A000C060C000C060E000C0800000C0802000C0804000C0806000C0808000C080A000C080C000C080E000C0A00000C0A02000C0A04000C0A06000C0A08000C0A0A000C0A0C000C0A0E000C0C00000C0C02000C0C04000C0C06000
310
C0C08000C0C0A000F0FBFF00A4A0A000808080000000FF0000FF000000FFFF00FF000000FF00FF00FFFF0000FFFFFF00FFFFFFFFFFFFFFFFFFFFFFFFFFFFFFFFFFFFFFFFFFFFFFFFFFFFFFFFFFFFFFFFFFFFFFFFFFFF0000000000000000000000000000000000000000FFFFFFFFFFFFFFFFFFFFFFFF00FFFFFFFFFFFFFFFF
310
FFFFFFFFFFFFFFFFFFFF00FFFFFFFFFFFFFFFFFFFFFFFF00FFFFFFFFFFFFFFFFFFFFFFFFFFFFFFFFFFFF00FFFFFFFFFFFFFFFFFFFFFFFF00FFFFFFFFFFFFFFFFFFFFFFFFFFFFFFFFFFFF00FFFFFFFFFFFFFFFFFFFFFFFF00FFFFFFFFFFFFFFFFFFFFFFFFFFFFFFFFFFFF00FFFFFFFFFFFFFFFFFFFFFFFF00FFFFFFFFFFFFFF
310
FFFFFFFFFFFFFFFFFFFFFF00FFFFFFFFFFFFFFFFFFFFFFFF00FFFFFFFFFFFFFFFFFFFFFFFFFFFFFFFFFFFF00FFFFFFFFFFFFFFFFFFFFFFFF00FFFFFFFFFFFFFFFFFFFFFFFFFFFFFFFFFFFF00FFFFFFFFFFFFFFFFFFFFFFFF00FFFFFFFFFFFFFFFFFFFFFFFFFFFFFFFFFFFF00FFFFFFFFFFFFFFFFFFFFFFFF00FFFFFFFFFFFF
310
FFFFFFFFFFFFFFFFFFFFFFFF00FFFFFFFFFFFFFFFFFFFFFFFF00FFFFFFFFFFFFFFFFFFFFFFFFFFFFFFFFFFFF00FFFFFFFFFFFFFFFFFFFFFFFF00FFFFFFFFFFFFFFFFFFFFFFFFFFFFFFFFFFFF00FFFFFFFFFFFFFFFFFFFFFFFF00FFFFFFFFFFFFFFFFFFFFFFFFFFFFFFFFFFFF00FFFFFFFFFFFFFFFFFFFFFFFF00FFFFFFFFFF
310
FFFFFFFFFFFFFFFFFFFFFFFFFF00FFFFFFFFFFFFFFFFFFFFFFFF00FFFFFFFFFFFFFFFFFFFFFFFFFFFFFFFFFFFF00FFFFFFFFFFFFFFFFFFFFFFFF00FFFFFFFFFFFFFFFFFFFFFFFFFFFFFFFFFFFF00FFFFFFFFFFFFFFFFFFFFFFFF00FFFFFFFFFFFFFFFFFFFFFFFFFFFFFFFFFFFF00FFFFFFFFFFFFFFFFFFFFFFFF00FFFFFFFF
310
FFFFFFFFFFFFFFFFFFFFFFFFFFFF00FFFFFFFFFFFFFFFFFFFFFFFF00FFFFFFFFFFFFFFFFFFFFFFFFFFFFFFFFFFFF00FFFFFFFFFFFFFFFFFFFFFFFF00FFFFFFFFFFFFFFFFFFFFFFFFFFFFFFFFFFFF00FFFFFFFFFFFFFFFFFFFFFFFF00FFFFFFFFFFFFFFFFFFFFFFFFFFFFFFFFFFFF00FFFFFFFFFFFFFFFFFFFFFFFF00FFFFFF
310
FFFFFFFFFFFFFFFFFFFFFFFFFFFFFF00FFFFFFFFFFFFFFFFFFFFFFFF00FFFFFFFFFFFFFFFFFFFFFFFFFFFFFFFFFFFF00FFFFFFFFFFFFFFFFFFFFFFFF00FFFFFFFFFFFFFFFFFFFFFFFFFFFFFFFFFFFF00FFFFFFFFFFFFFFFFFFFFFFFF00FFFFFFFFFFFFFFFFFFFFFFFFFFFFFFFFFFFF00FFFFFFFFFFFFFFFFFFFFFFFF00FFFF
310
FFFFFFFFFFFFFFFFFFFFFFFFFFFFFFFF00FFFFFFFFFFFFFFFFFFFFFFFF00FFFFFFFFFFFFFFFFFFFFFFFFFFFFFFFFFFFF00FFFFFFFFFFFFFFFFFFFFFFFF00FFFFFFFFFFFFFFFFFFFFFFFFFFFFFFFFFFFF00FFFFFFFFFFFFFFFFFFFFFFFF00FFFFFFFFFFFFFFFFFFFFFFFFFFFFFFFFFFFF00FFFFFFFFFFFFFFFFFFFFFFFF0000
310
000000000000000000000000000000000000FFFFFFFFFFFFFFFFFFFFFFFFFFFFFFFFFFFFFFFFFFFFFFFFFFFFFFFFFFFFFFFFFFFFFFFFFFFF
102
{BLKREFS
331
1878
102
}
  0
BLOCK_RECORD
  5
18D0
330
17FD
100
AcDbSymbolTableRecord
100
AcDbBlockTableRecord
  2
*D5
340
0
  0
BLOCK_RECORD
  5
18DC
330
17FD
100
AcDbSymbolTableRecord
100
AcDbBlockTableRecord
  2
*D6
340
0
  0
BLOCK_RECORD
  5
18E8
330
17FD
100
AcDbSymbolTableRecord
100
AcDbBlockTableRecord
  2
*D7
340
0
  0
BLOCK_RECORD
  5
18FD
330
17FD
100
AcDbSymbolTableRecord
100
AcDbBlockTableRecord
  2
*D8
340
0
  0
BLOCK_RECORD
  5
1909
330
17FD
100
AcDbSymbolTableRecord
100
AcDbBlockTableRecord
  2
*D9
340
0
  0
BLOCK_RECORD
  5
1915
330
17FD
100
AcDbSymbolTableRecord
100
AcDbBlockTableRecord
  2
*D10
340
0
  0
BLOCK_RECORD
  5
1921
330
17FD
100
AcDbSymbolTableRecord
100
AcDbBlockTableRecord
  2
*D11
340
0
  0
BLOCK_RECORD
  5
192D
330
17FD
100
AcDbSymbolTableRecord
100
AcDbBlockTableRecord
  2
*D12
340
0
  0
ENDTAB
  0
ENDSEC
  0
SECTION
  2
BLOCKS
  0
BLOCK
  5
181F
330
181E
100
AcDbEntity
  8
0
100
AcDbBlockBegin
  2
*Model_Space
 70
     0
 10
0.0
 20
0.0
 30
0.0
  3
*Model_Space
  1

  0
ENDBLK
  5
1820
330
181E
100
AcDbEntity
  8
0
100
AcDbBlockEnd
  0
BLOCK
  5
181B
330
181A
100
AcDbEntity
 67
     1
  8
0
100
AcDbBlockBegin
  2
*Paper_Space
 70
     0
 10
0.0
 20
0.0
 30
0.0
  3
*Paper_Space
  1

  0
ENDBLK
  5
181C
330
181A
100
AcDbEntity
 67
     1
  8
0
100
AcDbBlockEnd
  0
BLOCK
  5
1838
330
1837
100
AcDbEntity
  8
0
100
AcDbBlockBegin
  2
$MODEL_SPACE
 70
     0
 10
0.0
 20
0.0
 30
0.0
  3
$MODEL_SPACE
  1

  0
ENDBLK
  5
17B6
330
1837
100
AcDbEntity
  8
0
100
AcDbBlockEnd
  0
BLOCK
  5
183A
330
1839
100
AcDbEntity
  8
0
100
AcDbBlockBegin
  2
$PAPER_SPACE
 70
     0
 10
0.0
 20
0.0
 30
0.0
  3
$PAPER_SPACE
  1

  0
ENDBLK
  5
17B2
330
1839
100
AcDbEntity
  8
0
100
AcDbBlockEnd
  0
BLOCK
  5
183C
330
183B
100
AcDbEntity
  8
0
100
AcDbBlockBegin
  2
_OPEN30
 70
     0
 10
0.0
 20
0.0
 30
0.0
  3
_OPEN30
  1

  0
LINE
  5
9B7
330
183B
100
AcDbEntity
  8
0
 62
     0
100
AcDbLine
 10
-1.0
 20
0.26794919
 30
0.0
 11
0.0
 21
0.0
 31
0.0
  0
LINE
  5
9B8
330
183B
100
AcDbEntity
  8
0
 62
     0
100
AcDbLine
 10
0.0
 20
0.0
 30
0.0
 11
-1.0
 21
-0.26794919
 31
0.0
  0
LINE
  5
9B9
330
183B
100
AcDbEntity
  8
0
 62
     0
100
AcDbLine
 10
0.0
 20
0.0
 30
0.0
 11
-1.0
 21
0.0
 31
0.0
  0
ENDBLK
  5
9BA
330
183B
100
AcDbEntity
  8
0
100
AcDbBlockEnd
  0
BLOCK
  5
183E
330
183D
100
AcDbEntity
  8
0
100
AcDbBlockBegin
  2
_NONE
 70
     0
 10
0.0
 20
0.0
 30
0.0
  3
_NONE
  1

  0
ENDBLK
  5
9BD
330
183D
100
AcDbEntity
  8
0
100
AcDbBlockEnd
  0
BLOCK
  5
1856
330
1855
100
AcDbEntity
  8
0
100
AcDbBlockBegin
  2
waku
 70
     0
 10
0.0
 20
0.0
 30
0.0
  3
waku
  1

  0
LINE
  5
1857
330
1855
100
AcDbEntity
  8
0
100
AcDbLine
 10
4.15
 20
8.274999999999998
 30
0.0
 11
189.375
 21
8.274999999999998
 31
0.0
  0
LINE
  5
1858
330
1855
100
AcDbEntity
  8
0
100
AcDbLine
 10
189.375
 20
8.274999999999998
 30
0.0
 11
189.375
 21
280.0749999999999
 31
0.0
  0
LINE
  5
1859
330
1855
100
AcDbEntity
  8
0
100
AcDbLine
 10
189.375
 20
280.0749999999999
 30
0.0
 11
4.15
 21
280.0749999999999
 31
0.0
  0
LINE
  5
185A
330
1855
100
AcDbEntity
  8
0
100
AcDbLine
 10
4.15
 20
280.0749999999999
 30
0.0
 11
4.15
 21
8.274999999999998
 31
0.0
  0
ENDBLK
  5
185B
330
1855
100
AcDbEntity
  8
0
100
AcDbBlockEnd
  0
BLOCK
  5
18DA
330
18D0
100
AcDbEntity
  8
0
100
AcDbBlockBegin
  2
*D5
 70
     1
 10
0.0
 20
0.0
 30
0.0
  3
*D5
  1

  0
LINE
  5
19A2
330
18D0
100
AcDbEntity
  8
SUNPO
  6
Continuous
 62
     0
370
    -2
100
AcDbLine
 10
25.12499999999999
 20
134.4624999999997
 30
0.0
 11
25.12499999999999
 21
118.6249999999998
 31
0.0
  0
LINE
  5
19A3
330
18D0
100
AcDbEntity
  8
SUNPO
  6
Continuous
 62
     0
370
    -2
100
AcDbLine
 10
95.09999999999987
 20
134.4874999999999
 30
0.0
 11
95.09999999999987
 21
118.6249999999998
 31
0.0
  0
LINE
  5
19A4
330
18D0
100
AcDbEntity
  8
SUNPO
  6
Continuous
 62
     0
370
    -2
100
AcDbLine
 10
28.12499999999999
 20
119.6249999999998
 30
0.0
 11
92.09999999999986
 21
119.6249999999998
 31
0.0
  0
SOLID
  5
19A5
330
18D0
100
AcDbEntity
  8
SUNPO
  6
Continuous
 62
     0
100
AcDbTrace
 10
28.12499999999999
 20
120.1249999999998
 30
0.0
 11
28.12499999999999
 21
119.1249999999998
 31
0.0
 12
25.12499999999999
 22
119.6249999999998
 32
0.0
 13
25.12499999999999
 23
119.6249999999998
 33
0.0
  0
SOLID
  5
19A6
330
18D0
100
AcDbEntity
  8
SUNPO
  6
Continuous
 62
     0
100
AcDbTrace
 10
92.09999999999986
 20
120.1249999999998
 30
0.0
 11
92.09999999999986
 21
119.1249999999998
 31
0.0
 12
95.09999999999987
 22
119.6249999999998
 32
0.0
 13
95.09999999999987
 23
119.6249999999998
 33
0.0
  0
MTEXT
  5
19A7
330
18D0
100
AcDbEntity
  8
SUNPO
  6
Continuous
 62
     0
100
AcDbMText
 10
60.11249999999993
 20
122.3749999999998
 30
0.0
 40
3.5
 41
0.0
 71
     5
 72
     1
  1
\A1;70
  7
BIGFONT
 73
     1
 44
1.0
1001
ACAD
1000
MTEXTBEGIN
1070
    73
1070
     1
1070
    44
1040
1.0
1070
    74
1070
     0
1000
MTEXTEND
  0
POINT
  5
19A8
330
18D0
100
AcDbEntity
  8
DEFPOINTS
  6
Continuous
 62
     0
100
AcDbPoint
 10
25.12499999999999
 20
134.5249999999998
 30
0.0
  0
POINT
  5
19A9
330
18D0
100
AcDbEntity
  8
DEFPOINTS
  6
Continuous
 62
     0
100
AcDbPoint
 10
95.09999999999987
 20
134.5499999999999
 30
0.0
  0
POINT
  5
19AA
330
18D0
100
AcDbEntity
  8
DEFPOINTS
  6
Continuous
 62
     0
100
AcDbPoint
 10
95.09999999999987
 20
119.6249999999998
 30
0.0
  0
ENDBLK
  5
18DB
330
18D0
100
AcDbEntity
  8
0
100
AcDbBlockEnd
  0
BLOCK
  5
18E6
330
18DC
100
AcDbEntity
  8
0
100
AcDbBlockBegin
  2
*D6
 70
     1
 10
0.0
 20
0.0
 30
0.0
  3
*D6
  1

  0
LINE
  5
19AB
330
18DC
100
AcDbEntity
  8
SUNPO
  6
Continuous
 62
     0
370
    -2
100
AcDbLine
 10
48.20000000000002
 20
164.6249999999998
 30
0.0
 11
48.20000000000002
 21
152.5587163341906
 31
0.0
  0
LINE
  5
19AC
330
18DC
100
AcDbEntity
  8
SUNPO
  6
Continuous
 62
     0
370
    -2
100
AcDbLine
 10
72.19999999999997
 20
164.6249999999998
 30
0.0
 11
72.19999999999997
 21
152.5587163341906
 31
0.0
  0
LINE
  5
19AD
330
18DC
100
AcDbEntity
  8
SUNPO
  6
Continuous
 62
     0
370
    -2
100
AcDbLine
 10
51.20000000000001
 20
153.5587163341906
 30
0.0
 11
69.19999999999998
 21
153.5587163341906
 31
0.0
  0
SOLID
  5
19AE
330
18DC
100
AcDbEntity
  8
SUNPO
  6
Continuous
 62
     0
100
AcDbTrace
 10
51.20000000000001
 20
154.0587163341906
 30
0.0
 11
51.20000000000001
 21
153.0587163341906
 31
0.0
 12
48.20000000000002
 22
153.5587163341906
 32
0.0
 13
48.20000000000002
 23
153.5587163341906
 33
0.0
  0
SOLID
  5
19AF
330
18DC
100
AcDbEntity
  8
SUNPO
  6
Continuous
 62
     0
100
AcDbTrace
 10
69.19999999999998
 20
154.0587163341906
 30
0.0
 11
69.19999999999998
 21
153.0587163341906
 31
0.0
 12
72.19999999999997
 22
153.5587163341906
 32
0.0
 13
72.19999999999997
 23
153.5587163341906
 33
0.0
  0
MTEXT
  5
19B0
330
18DC
100
AcDbEntity
  8
SUNPO
  6
Continuous
 62
     0
100
AcDbMText
 10
60.19999999999999
 20
156.3087163341906
 30
0.0
 40
3.5
 41
0.0
 71
     5
 72
     1
  1
\A1;24
  7
BIGFONT
 73
     1
 44
1.0
1001
ACAD
1000
MTEXTBEGIN
1070
    73
1070
     1
1070
    44
1040
1.0
1070
    74
1070
     0
1000
MTEXTEND
  0
POINT
  5
19B1
330
18DC
100
AcDbEntity
  8
DEFPOINTS
  6
Continuous
 62
     0
100
AcDbPoint
 10
48.20000000000002
 20
164.6874999999998
 30
0.0
  0
POINT
  5
19B2
330
18DC
100
AcDbEntity
  8
DEFPOINTS
  6
Continuous
 62
     0
100
AcDbPoint
 10
72.19999999999997
 20
164.6874999999998
 30
0.0
  0
POINT
  5
19B3
330
18DC
100
AcDbEntity
  8
DEFPOINTS
  6
Continuous
 62
     0
100
AcDbPoint
 10
72.19999999999997
 20
153.5587163341906
 30
0.0
  0
ENDBLK
  5
18E7
330
18DC
100
AcDbEntity
  8
0
100
AcDbBlockEnd
  0
BLOCK
  5
18F2
330
18E8
100
AcDbEntity
  8
0
100
AcDbBlockBegin
  2
*D7
 70
     1
 10
0.0
 20
0.0
 30
0.0
  3
*D7
  1

  0
LINE
  5
19B4
330
18E8
100
AcDbEntity
  8
SUNPO
  6
Continuous
 62
     0
370
    -2
100
AcDbLine
 10
26.9625
 20
132.6249999999998
 30
0.0
 11
14.12499999999998
 21
132.6249999999998
 31
0.0
  0
LINE
  5
19B5
330
18E8
100
AcDbEntity
  8
SUNPO
  6
Continuous
 62
     0
370
    -2
100
AcDbLine
 10
26.9625
 20
252.6249999999999
 30
0.0
 11
14.125
 21
252.6249999999999
 31
0.0
  0
LINE
  5
19B6
330
18E8
100
AcDbEntity
  8
SUNPO
  6
Continuous
 62
     0
370
    -2
100
AcDbLine
 10
15.12499999999998
 20
135.6249999999998
 30
0.0
 11
15.125
 21
249.6249999999999
 31
0.0
  0
SOLID
  5
19B7
330
18E8
100
AcDbEntity
  8
SUNPO
  6
Continuous
 62
     0
100
AcDbTrace
 10
14.62499999999998
 20
135.6249999999998
 30
0.0
 11
15.62499999999998
 21
135.6249999999998
 31
0.0
 12
15.12499999999998
 22
132.6249999999998
 32
0.0
 13
15.12499999999998
 23
132.6249999999998
 33
0.0
  0
SOLID
  5
19B8
330
18E8
100
AcDbEntity
  8
SUNPO
  6
Continuous
 62
     0
100
AcDbTrace
 10
14.625
 20
249.6249999999999
 30
0.0
 11
15.625
 21
249.6249999999999
 31
0.0
 12
15.12500000000001
 22
252.6249999999999
 32
0.0
 13
15.12500000000001
 23
252.6249999999999
 33
0.0
  0
MTEXT
  5
19B9
330
18E8
100
AcDbEntity
  8
SUNPO
  6
Continuous
 62
     0
100
AcDbMText
 10
12.37499999999996
 20
192.6249999999998
 30
0.0
 40
3.5
 41
0.0
 71
     5
 72
     1
  1
\A1;120
  7
BIGFONT
 11
0.0000000000000001
 21
1.0
 31
0.0
 73
     1
 44
1.0
1001
ACAD
1000
MTEXTBEGIN
1070
    73
1070
     1
1070
    44
1040
1.0
1070
    74
1070
     0
1000
MTEXTEND
  0
POINT
  5
19BA
330
18E8
100
AcDbEntity
  8
DEFPOINTS
  6
Continuous
 62
     0
100
AcDbPoint
 10
27.025
 20
132.6249999999998
 30
0.0
  0
POINT
  5
19BB
330
18E8
100
AcDbEntity
  8
DEFPOINTS
  6
Continuous
 62
     0
100
AcDbPoint
 10
27.025
 20
252.6249999999999
 30
0.0
  0
POINT
  5
19BC
330
18E8
100
AcDbEntity
  8
DEFPOINTS
  6
Continuous
 62
     0
100
AcDbPoint
 10
15.12500000000001
 20
252.6249999999999
 30
0.0
  0
ENDBLK
  5
18F3
330
18E8
100
AcDbEntity
  8
0
100
AcDbBlockEnd
  0
BLOCK
  5
1907
330
18FD
100
AcDbEntity
  8
0
100
AcDbBlockBegin
  2
*D8
 70
     1
 10
0.0
 20
0.0
 30
0.0
  3
*D8
  1

  0
LINE
  5
1973
330
18FD
100
AcDbEntity
  8
SUNPO
  6
Continuous
 62
     0
370
    -2
100
AcDbLine
 10
110.1374999999999
 20
164.6749999999998
 30
0.0
 11
103.6687499999999
 21
164.6749999999998
 31
0.0
  0
LINE
  5
1974
330
18FD
100
AcDbEntity
  8
SUNPO
  6
Continuous
 62
     0
370
    -2
100
AcDbLine
 10
110.1374999999999
 20
182.5749999999997
 30
0.0
 11
103.6687499999999
 21
182.5749999999997
 31
0.0
  0
LINE
  5
1975
330
18FD
100
AcDbEntity
  8
SUNPO
  6
Continuous
 62
     0
370
    -2
100
AcDbLine
 10
104.6687499999999
 20
167.6749999999998
 30
0.0
 11
104.6687499999999
 21
179.5749999999997
 31
0.0
  0
SOLID
  5
1976
330
18FD
100
AcDbEntity
  8
SUNPO
  6
Continuous
 62
     0
100
AcDbTrace
 10
104.1687499999999
 20
167.6749999999998
 30
0.0
 11
105.1687499999999
 21
167.6749999999998
 31
0.0
 12
104.6687499999999
 22
164.6749999999998
 32
0.0
 13
104.6687499999999
 23
164.6749999999998
 33
0.0
  0
SOLID
  5
1977
330
18FD
100
AcDbEntity
  8
SUNPO
  6
Continuous
 62
     0
100
AcDbTrace
 10
104.1687499999999
 20
179.5749999999997
 30
0.0
 11
105.1687499999999
 21
179.5749999999997
 31
0.0
 12
104.6687499999999
 22
182.5749999999997
 32
0.0
 13
104.6687499999999
 23
182.5749999999997
 33
0.0
  0
MTEXT
  5
1978
330
18FD
100
AcDbEntity
  8
SUNPO
  6
Continuous
 62
     0
100
AcDbMText
 10
101.9187499999999
 20
173.6249999999998
 30
0.0
 40
3.5
 41
0.0
 71
     5
 72
     1
  1
\A1;18
  7
BIGFONT
 11
0.0000000000000001
 21
1.0
 31
0.0
 73
     1
 44
1.0
1001
ACAD
1000
MTEXTBEGIN
1070
    73
1070
     1
1070
    44
1040
1.0
1070
    74
1070
     0
1000
MTEXTEND
  0
POINT
  5
1979
330
18FD
100
AcDbEntity
  8
DEFPOINTS
  6
Continuous
 62
     0
100
AcDbPoint
 10
110.1999999999999
 20
164.6749999999998
 30
0.0
  0
POINT
  5
197A
330
18FD
100
AcDbEntity
  8
DEFPOINTS
  6
Continuous
 62
     0
100
AcDbPoint
 10
110.1999999999999
 20
182.5749999999997
 30
0.0
  0
POINT
  5
197B
330
18FD
100
AcDbEntity
  8
DEFPOINTS
  6
Continuous
 62
     0
100
AcDbPoint
 10
104.6687499999999
 20
182.5749999999997
 30
0.0
  0
ENDBLK
  5
1908
330
18FD
100
AcDbEntity
  8
0
100
AcDbBlockEnd
  0
BLOCK
  5
1913
330
1909
100
AcDbEntity
  8
0
100
AcDbBlockBegin
  2
*D9
 70
     1
 10
0.0
 20
0.0
 30
0.0
  3
*D9
  1

  0
LINE
  5
197C
330
1909
100
AcDbEntity
  8
SUNPO
  6
Continuous
 62
     0
370
    -2
100
AcDbLine
 10
110.1374999999999
 20
201.6749999999998
 30
0.0
 11
103.6687499999999
 21
201.6749999999998
 31
0.0
  0
LINE
  5
197D
330
1909
100
AcDbEntity
  8
SUNPO
  6
Continuous
 62
     0
370
    -2
100
AcDbLine
 10
110.1374999999999
 20
219.5749999999997
 30
0.0
 11
103.6687499999999
 21
219.5749999999997
 31
0.0
  0
LINE
  5
197E
330
1909
100
AcDbEntity
  8
SUNPO
  6
Continuous
 62
     0
370
    -2
100
AcDbLine
 10
104.6687499999999
 20
204.6749999999998
 30
0.0
 11
104.6687499999999
 21
216.5749999999997
 31
0.0
  0
SOLID
  5
197F
330
1909
100
AcDbEntity
  8
SUNPO
  6
Continuous
 62
     0
100
AcDbTrace
 10
104.1687499999999
 20
204.6749999999998
 30
0.0
 11
105.1687499999999
 21
204.6749999999998
 31
0.0
 12
104.6687499999999
 22
201.6749999999998
 32
0.0
 13
104.6687499999999
 23
201.6749999999998
 33
0.0
  0
SOLID
  5
1980
330
1909
100
AcDbEntity
  8
SUNPO
  6
Continuous
 62
     0
100
AcDbTrace
 10
104.1687499999999
 20
216.5749999999997
 30
0.0
 11
105.1687499999999
 21
216.5749999999997
 31
0.0
 12
104.6687499999999
 22
219.5749999999997
 32
0.0
 13
104.6687499999999
 23
219.5749999999997
 33
0.0
  0
MTEXT
  5
1981
330
1909
100
AcDbEntity
  8
SUNPO
  6
Continuous
 62
     0
100
AcDbMText
 10
101.9187499999999
 20
210.6249999999998
 30
0.0
 40
3.5
 41
0.0
 71
     5
 72
     1
  1
\A1;18
  7
BIGFONT
 11
0.0000000000000001
 21
1.0
 31
0.0
 73
     1
 44
1.0
1001
ACAD
1000
MTEXTBEGIN
1070
    73
1070
     1
1070
    44
1040
1.0
1070
    74
1070
     0
1000
MTEXTEND
  0
POINT
  5
1982
330
1909
100
AcDbEntity
  8
DEFPOINTS
  6
Continuous
 62
     0
100
AcDbPoint
 10
110.1999999999999
 20
201.6749999999998
 30
0.0
  0
POINT
  5
1983
330
1909
100
AcDbEntity
  8
DEFPOINTS
  6
Continuous
 62
     0
100
AcDbPoint
 10
110.1999999999999
 20
219.5749999999997
 30
0.0
  0
POINT
  5
1984
330
1909
100
AcDbEntity
  8
DEFPOINTS
  6
Continuous
 62
     0
100
AcDbPoint
 10
104.6687499999999
 20
219.5749999999997
 30
0.0
  0
ENDBLK
  5
1914
330
1909
100
AcDbEntity
  8
0
100
AcDbBlockEnd
  0
BLOCK
  5
191F
330
1915
100
AcDbEntity
  8
0
100
AcDbBlockBegin
  2
*D10
 70
     1
 10
0.0
 20
0.0
 30
0.0
  3
*D10
  1

  0
LINE
  5
1999
330
1915
100
AcDbEntity
  8
SUNPO
  6
Continuous
 62
     0
370
    -2
100
AcDbLine
 10
119.125
 20
137.2124999999998
 30
0.0
 11
119.125
 21
118.1249999999997
 31
0.0
  0
LINE
  5
199A
330
1915
100
AcDbEntity
  8
SUNPO
  6
Continuous
 62
     0
370
    -2
100
AcDbLine
 10
110.1999999999999
 20
164.6124999999998
 30
0.0
 11
110.1999999999999
 21
118.1249999999997
 31
0.0
  0
LINE
  5
199B
330
1915
100
AcDbEntity
  8
SUNPO
  6
Continuous
 62
     0
370
    -2
100
AcDbLine
 10
116.125
 20
119.1249999999997
 30
0.0
 11
113.1999999999999
 21
119.1249999999997
 31
0.0
  0
SOLID
  5
199C
330
1915
100
AcDbEntity
  8
SUNPO
  6
Continuous
 62
     0
100
AcDbTrace
 10
116.125
 20
119.6249999999997
 30
0.0
 11
116.125
 21
118.6249999999997
 31
0.0
 12
119.125
 22
119.1249999999997
 32
0.0
 13
119.125
 23
119.1249999999997
 33
0.0
  0
SOLID
  5
199D
330
1915
100
AcDbEntity
  8
SUNPO
  6
Continuous
 62
     0
100
AcDbTrace
 10
113.1999999999999
 20
119.6249999999997
 30
0.0
 11
113.1999999999999
 21
118.6249999999997
 31
0.0
 12
110.1999999999999
 22
119.1249999999997
 32
0.0
 13
110.1999999999999
 23
119.1249999999997
 33
0.0
  0
MTEXT
  5
199E
330
1915
100
AcDbEntity
  8
SUNPO
  6
Continuous
 62
     0
100
AcDbMText
 10
114.6624999999999
 20
121.8749999999997
 30
0.0
 40
3.5
 41
0.0
 71
     5
 72
     1
  1
\A1;9
  7
BIGFONT
 73
     1
 44
1.0
1001
ACAD
1000
MTEXTBEGIN
1070
    73
1070
     1
1070
    44
1040
1.0
1070
    74
1070
     0
1000
MTEXTEND
  0
POINT
  5
199F
330
1915
100
AcDbEntity
  8
DEFPOINTS
  6
Continuous
 62
     0
100
AcDbPoint
 10
119.125
 20
137.2749999999998
 30
0.0
  0
POINT
  5
19A0
330
1915
100
AcDbEntity
  8
DEFPOINTS
  6
Continuous
 62
     0
100
AcDbPoint
 10
110.1999999999999
 20
164.6749999999998
 30
0.0
  0
POINT
  5
19A1
330
1915
100
AcDbEntity
  8
DEFPOINTS
  6
Continuous
 62
     0
100
AcDbPoint
 10
110.1999999999999
 20
119.1249999999997
 30
0.0
  0
ENDBLK
  5
1920
330
1915
100
AcDbEntity
  8
0
100
AcDbBlockEnd
  0
BLOCK
  5
192B
330
1921
100
AcDbEntity
  8
0
100
AcDbBlockBegin
  2
*D11
 70
     1
 10
0.0
 20
0.0
 30
0.0
  3
*D11
  1

  0
LINE
  5
1990
330
1921
100
AcDbEntity
  8
SUNPO
  6
Continuous
 62
     0
370
    -2
100
AcDbLine
 10
125.125
 20
132.4999999999998
 30
0.0
 11
125.125
 21
118.1249999999997
 31
0.0
  0
LINE
  5
1991
330
1921
100
AcDbEntity
  8
SUNPO
  6
Continuous
 62
     0
370
    -2
100
AcDbLine
 10
146.125
 20
165.5624999999998
 30
0.0
 11
146.125
 21
118.1249999999997
 31
0.0
  0
LINE
  5
1992
330
1921
100
AcDbEntity
  8
SUNPO
  6
Continuous
 62
     0
370
    -2
100
AcDbLine
 10
128.125
 20
119.1249999999997
 30
0.0
 11
143.125
 21
119.1249999999997
 31
0.0
  0
SOLID
  5
1993
330
1921
100
AcDbEntity
  8
SUNPO
  6
Continuous
 62
     0
100
AcDbTrace
 10
128.125
 20
119.6249999999997
 30
0.0
 11
128.125
 21
118.6249999999997
 31
0.0
 12
125.125
 22
119.1249999999997
 32
0.0
 13
125.125
 23
119.1249999999997
 33
0.0
  0
SOLID
  5
1994
330
1921
100
AcDbEntity
  8
SUNPO
  6
Continuous
 62
     0
100
AcDbTrace
 10
143.125
 20
119.6249999999997
 30
0.0
 11
143.125
 21
118.6249999999997
 31
0.0
 12
146.125
 22
119.1249999999997
 32
0.0
 13
146.125
 23
119.1249999999997
 33
0.0
  0
MTEXT
  5
1995
330
1921
100
AcDbEntity
  8
SUNPO
  6
Continuous
 62
     0
100
AcDbMText
 10
135.625
 20
121.8749999999997
 30
0.0
 40
3.5
 41
0.0
 71
     5
 72
     1
  1
\A1;21
  7
BIGFONT
 73
     1
 44
1.0
1001
ACAD
1000
MTEXTBEGIN
1070
    73
1070
     1
1070
    44
1040
1.0
1070
    74
1070
     0
1000
MTEXTEND
  0
POINT
  5
1996
330
1921
100
AcDbEntity
  8
DEFPOINTS
  6
Continuous
 62
     0
100
AcDbPoint
 10
125.125
 20
132.5624999999998
 30
0.0
  0
POINT
  5
1997
330
1921
100
AcDbEntity
  8
DEFPOINTS
  6
Continuous
 62
     0
100
AcDbPoint
 10
146.125
 20
165.6249999999998
 30
0.0
  0
POINT
  5
1998
330
1921
100
AcDbEntity
  8
DEFPOINTS
  6
Continuous
 62
     0
100
AcDbPoint
 10
146.125
 20
119.1249999999997
 30
0.0
  0
ENDBLK
  5
192C
330
1921
100
AcDbEntity
  8
0
100
AcDbBlockEnd
  0
BLOCK
  5
1939
330
192D
100
AcDbEntity
  8
0
100
AcDbBlockBegin
  2
*D12
 70
     1
 10
0.0
 20
0.0
 30
0.0
  3
*D12
  1

  0
LINE
  5
1985
330
192D
100
AcDbEntity
  8
SUNPO
  6
Continuous
 62
     0
370
    -2
100
AcDbLine
 10
119.125
 20
137.2124999999998
 30
0.0
 11
119.125
 21
118.1249999999997
 31
0.0
  0
LINE
  5
1986
330
192D
100
AcDbEntity
  8
SUNPO
  6
Continuous
 62
     0
370
    -2
100
AcDbLine
 10
125.125
 20
132.5624999999998
 30
0.0
 11
125.125
 21
118.1249999999997
 31
0.0
  0
LINE
  5
1987
330
192D
100
AcDbEntity
  8
SUNPO
  6
Continuous
 62
     0
370
    -2
100
AcDbLine
 10
116.125
 20
119.1249999999997
 30
0.0
 11
113.125
 21
119.1249999999997
 31
0.0
  0
LINE
  5
1988
330
192D
100
AcDbEntity
  8
SUNPO
  6
Continuous
 62
     0
370
    -2
100
AcDbLine
 10
128.125
 20
119.1249999999997
 30
0.0
 11
131.125
 21
119.1249999999997
 31
0.0
  0
LINE
  5
1989
330
192D
100
AcDbEntity
  8
SUNPO
  6
Continuous
 62
     0
370
    -2
100
AcDbLine
 10
119.125
 20
119.1249999999997
 30
0.0
 11
125.125
 21
119.1249999999997
 31
0.0
  0
SOLID
  5
198A
330
192D
100
AcDbEntity
  8
SUNPO
  6
Continuous
 62
     0
100
AcDbTrace
 10
116.125
 20
119.6249999999997
 30
0.0
 11
116.125
 21
118.6249999999997
 31
0.0
 12
119.125
 22
119.1249999999997
 32
0.0
 13
119.125
 23
119.1249999999997
 33
0.0
  0
SOLID
  5
198B
330
192D
100
AcDbEntity
  8
SUNPO
  6
Continuous
 62
     0
100
AcDbTrace
 10
128.125
 20
119.6249999999997
 30
0.0
 11
128.125
 21
118.6249999999997
 31
0.0
 12
125.125
 22
119.1249999999997
 32
0.0
 13
125.125
 23
119.1249999999997
 33
0.0
  0
MTEXT
  5
198C
330
192D
100
AcDbEntity
  8
SUNPO
  6
Continuous
 62
     0
100
AcDbMText
 10
122.125
 20
121.8749999999997
 30
0.0
 40
3.5
 41
0.0
 71
     5
 72
     1
  1
\A1;6
  7
BIGFONT
 73
     1
 44
1.0
1001
ACAD
1000
MTEXTBEGIN
1070
    73
1070
     1
1070
    44
1040
1.0
1070
    74
1070
     0
1000
MTEXTEND
  0
POINT
  5
198D
330
192D
100
AcDbEntity
  8
DEFPOINTS
  6
Continuous
 62
     0
100
AcDbPoint
 10
119.125
 20
137.2749999999998
 30
0.0
  0
POINT
  5
198E
330
192D
100
AcDbEntity
  8
DEFPOINTS
  6
Continuous
 62
     0
100
AcDbPoint
 10
125.125
 20
132.6249999999998
 30
0.0
  0
POINT
  5
198F
330
192D
100
AcDbEntity
  8
DEFPOINTS
  6
Continuous
 62
     0
100
AcDbPoint
 10
125.125
 20
119.1249999999997
 30
0.0
  0
ENDBLK
  5
193A
330
192D
100
AcDbEntity
  8
0
100
AcDbBlockEnd
  0
ENDSEC
  0
SECTION
  2
ENTITIES
  0
LINE
  5
979
330
181E
100
AcDbEntity
  8
0
100
AcDbLine
 10
14.775
 20
65.27500000000002
 30
0.0
 11
14.775
 21
35.27500000000003
 31
0.0
  0
LINE
  5
97A
330
181E
100
AcDbEntity
  8
0
100
AcDbLine
 10
14.775
 20
35.27500000000003
 30
0.0
 11
179.0249999999999
 21
35.27499999999993
 31
0.0
  0
LINE
  5
97E
330
181E
100
AcDbEntity
  8
0
100
AcDbLine
 10
14.775
 20
47.27500000000001
 30
0.0
 11
179.0249999999999
 21
47.27499999999993
 31
0.0
  0
LINE
  5
97F
330
181E
100
AcDbEntity
  8
0
100
AcDbLine
 10
14.775
 20
53.27500000000002
 30
0.0
 11
179.0249999999999
 21
53.27499999999997
 31
0.0
  0
LINE
  5
980
330
181E
100
AcDbEntity
  8
0
100
AcDbLine
 10
14.775
 20
59.27500000000001
 30
0.0
 11
179.0249999999999
 21
59.27499999999996
 31
0.0
  0
LINE
  5
981
330
181E
100
AcDbEntity
  8
0
100
AcDbLine
 10
14.775
 20
65.27500000000002
 30
0.0
 11
179.0249999999999
 21
65.27499999999993
 31
0.0
  0
LINE
  5
984
330
181E
100
AcDbEntity
  8
0
100
AcDbLine
 10
39.775
 20
65.27500000000002
 30
0.0
 11
39.775
 21
35.27500000000003
 31
0.0
  0
LINE
  5
985
330
181E
100
AcDbEntity
  8
0
100
AcDbLine
 10
179.0249999999999
 20
65.27499999999996
 30
0.0
 11
179.0249999999999
 21
35.27499999999997
 31
0.0
  0
TEXT
  5
9A6
330
181E
100
AcDbEntity
  8
0
100
AcDbText
 10
16.58002776698185
 20
66.85000000000002
 30
0.0
 40
3.5
  1
仕　　様
  7
BIGFONT
100
AcDbText
  0
TEXT
  5
9A7
330
181E
100
AcDbEntity
  8
0
100
AcDbText
 10
16.68002776698185
 20
60.575
 30
0.0
 40
3.5
  1
名　　称
  7
BIGFONT
100
AcDbText
  0
TEXT
  5
ED4
330
181E
100
AcDbEntity
  8
0
100
AcDbText
 10
56.68002776698185
 20
60.575
 30
0.0
 40
3.5
  1
規　　格
  7
BIGFONT
100
AcDbText
  0
TEXT
  5
ED5
330
181E
100
AcDbEntity
  8
0
100
AcDbText
 10
16.68002776698185
 20
54.57500000000002
 30
0.0
 40
3.5
  1
スイッチ
  7
BIGFONT
100
AcDbText
  0
TEXT
  5
ED6
330
181E
100
AcDbEntity
  8
0
100
AcDbText
 10
41.68002776698185
 20
54.57500000000002
 30
0.0
 40
3.5
  1
ノンロック・照光式
  7
BIGFONT
100
AcDbText
  0
TEXT
  5
ED7
330
181E
100
AcDbEntity
  8
0
100
AcDbText
 10
16.68002776698185
 20
48.57500000000001
 30
0.0
 40
3.5
  1
取　　付
  7
BIGFONT
100
AcDbText
  0
TEXT
  5
ED8
330
181E
100
AcDbEntity
  8
0
100
AcDbText
 10
41.68002776698185
 20
48.57500000000001
 30
0.0
 40
3.5
  1
１個用スイッチＢＯＸ対応
  7
BIGFONT
100
AcDbText
  0
TEXT
  5
ED9
330
181E
100
AcDbEntity
  8
0
100
AcDbText
 10
16.68002776698185
 20
42.57500000000001
 30
0.0
 40
3.5
  1
枠プレート
  7
BIGFONT
100
AcDbText
  0
TEXT
  5
EDA
330
181E
100
AcDbEntity
  8
0
100
AcDbText
 10
41.68002776698185
 20
42.57500000000001
 30
0.0
 40
3.5
  1
フルカラーモダンプレート
  7
BIGFONT
100
AcDbText
  0
TEXT
  5
EE8
330
181E
100
AcDbEntity
  8
0
100
AcDbText
 10
104.8034211128719
 20
239.9898626855891
 30
0.0
 40
3.5
  1
1
  7
BIGFONT
100
AcDbText
  0
LINE
  5
EED
330
181E
100
AcDbEntity
  8
0
  6
Continuous
100
AcDbLine
 10
78.29968496122862
 20
226.4103578358399
 30
0.0
 11
103.5484147033649
 21
240.3553911662611
 31
0.0
  0
TEXT
  5
EEE
330
181E
100
AcDbEntity
  8
0
100
AcDbText
 10
104.9306757570332
 20
226.7662469621503
 30
0.0
 40
3.5
  1
2
  7
BIGFONT
100
AcDbText
  0
LINE
  5
EF0
330
181E
100
AcDbEntity
  8
0
  6
Continuous
100
AcDbLine
 10
72.19999999999998
 20
209.2506736689026
 30
0.0
 11
103.5674465060029
 21
227.2163322492594
 31
0.0
  0
LINE
  5
EF3
330
181E
100
AcDbEntity
  8
0
  6
Continuous
100
AcDbLine
 10
156.1249999999999
 20
175.6249999999998
 30
0.0
 11
152.6294863171907
 21
190.6204354058376
 31
0.0
  0
LINE
  5
EF6
330
181E
100
AcDbEntity
  8
0
  6
Continuous
100
AcDbLine
 10
162.1249999999999
 20
175.6249999999998
 30
0.0
 11
159.9842173511693
 21
190.5990285460065
 31
0.0
  0
LINE
  5
F0E
330
181E
100
AcDbEntity
  8
0
100
AcDbLine
 10
109.25
 20
107.275
 30
0.0
 11
109.25
 21
71.27500000000002
 31
0.0
  0
LINE
  5
F0F
330
181E
100
AcDbEntity
  8
0
100
AcDbLine
 10
109.25
 20
71.27500000000002
 30
0.0
 11
178.875
 21
71.27500000000002
 31
0.0
  0
LINE
  5
F10
330
181E
100
AcDbEntity
  8
0
100
AcDbLine
 10
109.25
 20
77.27500000000002
 30
0.0
 11
178.875
 21
77.27500000000002
 31
0.0
  0
LINE
  5
F11
330
181E
100
AcDbEntity
  8
0
100
AcDbLine
 10
109.25
 20
83.27500000000002
 30
0.0
 11
178.875
 21
83.275
 31
0.0
  0
LINE
  5
F12
330
181E
100
AcDbEntity
  8
0
100
AcDbLine
 10
109.25
 20
101.275
 30
0.0
 11
178.875
 21
101.275
 31
0.0
  0
LINE
  5
F16
330
181E
100
AcDbEntity
  8
0
100
AcDbLine
 10
109.25
 20
107.275
 30
0.0
 11
178.875
 21
107.275
 31
0.0
  0
LINE
  5
F17
330
181E
100
AcDbEntity
  8
0
100
AcDbLine
 10
119.25
 20
107.275
 30
0.0
 11
119.25
 21
71.27500000000002
 31
0.0
  0
LINE
  5
F18
330
181E
100
AcDbEntity
  8
0
100
AcDbLine
 10
178.875
 20
107.275
 30
0.0
 11
178.875
 21
71.27500000000002
 31
0.0
  0
TEXT
  5
F22
330
181E
100
AcDbEntity
  8
0
100
AcDbText
 10
121.1550277669817
 20
84.57500000000001
 30
0.0
 40
3.5
  1
解錠押釦スイッチ（赤色）
  7
BIGFONT
100
AcDbText
  0
TEXT
  5
F24
330
181E
100
AcDbEntity
  8
0
100
AcDbText
 10
121.1550277669817
 20
78.57500000000001
 30
0.0
 40
3.5
  1
接続コネクタ
  7
BIGFONT
100
AcDbText
  0
TEXT
  5
F26
330
181E
100
AcDbEntity
  8
0
100
AcDbText
 10
121.1550277669817
 20
72.57500000000003
 30
0.0
 40
3.5
  1
付属コネクタ
  7
BIGFONT
100
AcDbText
  0
TEXT
  5
F29
330
181E
100
AcDbEntity
  8
0
100
AcDbText
 10
110.4050277669818
 20
102.5749999999999
 30
0.0
 40
3.5
  1
番号
  7
BIGFONT
100
AcDbText
  0
TEXT
  5
F2A
330
181E
100
AcDbEntity
  8
0
100
AcDbText
 10
131.1550277669818
 20
102.5749999999999
 30
0.0
 40
3.5
  1
　名　称
  7
BIGFONT
100
AcDbText
  0
CIRCLE
  5
F31
330
181E
100
AcDbEntity
  8
0
  6
Continuous
100
AcDbCircle
 10
105.7368197964742
 20
241.564061157803
 30
0.0
 40
2.5
  0
CIRCLE
  5
F33
330
181E
100
AcDbEntity
  8
0
  6
Continuous
100
AcDbCircle
 10
105.7368197964742
 20
228.4588375919399
 30
0.0
 40
2.5
  0
TEXT
  5
F43
330
181E
100
AcDbEntity
  8
0
100
AcDbText
 10
113.4438559605591
 20
90.52680473786312
 30
0.0
 40
3.5
  1
2
  7
BIGFONT
100
AcDbText
  0
CIRCLE
  5
F44
330
181E
100
AcDbEntity
  8
0
  6
Continuous
100
AcDbCircle
 10
114.25
 20
92.27500000000002
 30
0.0
 40
2.5
  0
TEXT
  5
F45
330
181E
100
AcDbEntity
  8
0
100
AcDbText
 10
113.4438559605591
 20
84.52680473786314
 30
0.0
 40
3.5
  1
3
  7
BIGFONT
100
AcDbText
  0
CIRCLE
  5
F46
330
181E
100
AcDbEntity
  8
0
  6
Continuous
100
AcDbCircle
 10
114.25
 20
86.27500000000003
 30
0.0
 40
2.5
  0
TEXT
  5
F47
330
181E
100
AcDbEntity
  8
0
100
AcDbText
 10
113.4438559605591
 20
78.52680473786314
 30
0.0
 40
3.5
  1
4
  7
BIGFONT
100
AcDbText
  0
CIRCLE
  5
F48
330
181E
100
AcDbEntity
  8
0
  6
Continuous
100
AcDbCircle
 10
114.25
 20
80.27500000000001
 30
0.0
 40
2.5
  0
LINE
  5
1359
330
181E
100
AcDbEntity
  8
0
100
AcDbLine
 10
27.07500000000002
 20
252.6249999999999
 30
0.0
 11
93.175
 21
252.6249999999999
 31
0.0
  0
LINE
  5
135A
330
181E
100
AcDbEntity
  8
0
100
AcDbLine
 10
93.175
 20
132.6249999999998
 30
0.0
 11
27.07500000000002
 21
132.6249999999998
 31
0.0
  0
DIMENSION
  5
135B
330
181E
100
AcDbEntity
  8
SUNPO
  6
Continuous
100
AcDbDimension
  2
*D5
 10
95.09999999999987
 20
119.6249999999998
 30
0.0
 11
60.11249999999993
 21
122.3749999999998
 31
0.0
 70
    32
 71
     5
 42
69.97499999999988
  3
STANDARD
100
AcDbAlignedDimension
 13
25.12499999999999
 23
134.5249999999998
 33
0.0
 14
95.09999999999987
 24
134.5499999999999
 34
0.0
100
AcDbRotatedDimension
1001
ACAD
1000
DSTYLE
1002
{
1070
   271
1070
     0
1002
}
  0
DIMENSION
  5
135C
330
181E
100
AcDbEntity
  8
SUNPO
  6
Continuous
100
AcDbDimension
  2
*D6
 10
72.19999999999997
 20
153.5587163341906
 30
0.0
 11
60.19999999999999
 21
156.3087163341906
 31
0.0
 70
    32
 71
     5
 42
23.99999999999996
  3
STANDARD
100
AcDbAlignedDimension
 13
48.20000000000002
 23
164.6874999999998
 33
0.0
 14
72.19999999999997
 24
164.6874999999998
 34
0.0
100
AcDbRotatedDimension
1001
ACAD
1000
DSTYLE
1002
{
1070
   271
1070
     0
1002
}
  0
LINE
  5
135D
330
181E
100
AcDbEntity
  8
0
100
AcDbLine
 10
25.125
 20
134.5749999999999
 30
0.0
 11
25.125
 21
250.6749999999998
 31
0.0
  0
DIMENSION
  5
135E
330
181E
100
AcDbEntity
  8
SUNPO
  6
Continuous
100
AcDbDimension
  2
*D7
 10
15.12500000000001
 20
252.6249999999999
 30
0.0
 11
12.37499999999996
 21
192.6249999999998
 31
0.0
 70
    32
 71
     5
 42
120.0000000000001
  3
STANDARD
100
AcDbAlignedDimension
 13
27.025
 23
132.6249999999998
 33
0.0
 14
27.025
 24
252.6249999999999
 34
0.0
 50
90.0
100
AcDbRotatedDimension
1001
ACAD
1000
DSTYLE
1002
{
1070
   271
1070
     0
1002
}
  0
ARC
  5
135F
330
181E
100
AcDbEntity
  8
0
100
AcDbCircle
 10
27.07500000000002
 20
134.5999999999999
 30
0.0
 40
1.95
100
AcDbArc
 50
180.0
 51
270.0
  0
ARC
  5
1360
330
181E
100
AcDbEntity
  8
0
100
AcDbCircle
 10
27.07500000000002
 20
250.6749999999998
 30
0.0
 40
1.95
100
AcDbArc
 50
90.0
 51
180.0
  0
LINE
  5
1362
330
181E
100
AcDbEntity
  8
0
100
AcDbLine
 10
71.25
 20
165.4999999999998
 30
0.0
 11
49.07500000000002
 21
165.4999999999998
 31
0.0
  0
LINE
  5
1363
330
181E
100
AcDbEntity
  8
0
100
AcDbLine
 10
49.07500000000002
 20
181.7499999999999
 30
0.0
 11
71.25
 21
181.7499999999999
 31
0.0
  0
LINE
  5
1364
330
181E
100
AcDbEntity
  8
0
100
AcDbLine
 10
49.07500000000002
 20
181.7499999999999
 30
0.0
 11
71.25
 21
181.7499999999999
 31
0.0
  0
LINE
  5
1365
330
181E
100
AcDbEntity
  8
0
100
AcDbLine
 10
48.20000000000002
 20
201.6249999999998
 30
0.0
 11
72.19999999999998
 21
201.6249999999998
 31
0.0
  0
LINE
  5
1366
330
181E
100
AcDbEntity
  8
0
100
AcDbLine
 10
49.07500000000002
 20
165.4999999999998
 30
0.0
 11
49.07500000000002
 21
181.7499999999999
 31
0.0
  0
LINE
  5
1367
330
181E
100
AcDbEntity
  8
0
100
AcDbLine
 10
49.07500000000002
 20
165.4999999999998
 30
0.0
 11
49.07500000000002
 21
181.7499999999999
 31
0.0
  0
LINE
  5
1369
330
181E
100
AcDbEntity
  8
0
100
AcDbLine
 10
71.25
 20
165.4999999999998
 30
0.0
 11
71.25
 21
181.7499999999999
 31
0.0
  0
DIMENSION
  5
136B
330
181E
100
AcDbEntity
  8
SUNPO
  6
Continuous
100
AcDbDimension
  2
*D10
 10
110.1999999999999
 20
119.1249999999997
 30
0.0
 11
114.6624999999999
 21
121.8749999999997
 31
0.0
 70
    32
 71
     5
 42
8.925000000000096
  3
STANDARD
100
AcDbAlignedDimension
 13
119.125
 23
137.2749999999998
 33
0.0
 14
110.1999999999999
 24
164.6749999999998
 34
0.0
100
AcDbRotatedDimension
1001
ACAD
1000
DSTYLE
1002
{
1070
   271
1070
     0
1002
}
  0
LINE
  5
136C
330
181E
100
AcDbEntity
  8
0
100
AcDbLine
 10
125.125
 20
252.6249999999999
 30
0.0
 11
125.125
 21
132.6249999999998
 31
0.0
  0
LINE
  5
136D
330
181E
100
AcDbEntity
  8
0
100
AcDbLine
 10
95.12499999999988
 20
250.6749999999998
 30
0.0
 11
95.12499999999988
 21
134.5749999999999
 31
0.0
  0
LINE
  5
136E
330
181E
100
AcDbEntity
  8
0
100
AcDbLine
 10
119.125
 20
137.2749999999998
 30
0.0
 11
119.125
 21
247.8749999999999
 31
0.0
  0
DIMENSION
  5
136F
330
181E
100
AcDbEntity
  8
SUNPO
  6
Continuous
100
AcDbDimension
  2
*D11
 10
146.125
 20
119.1249999999997
 30
0.0
 11
135.625
 21
121.8749999999997
 31
0.0
 70
    32
 71
     5
 42
21.0
  3
STANDARD
100
AcDbAlignedDimension
 13
125.125
 23
132.5624999999998
 33
0.0
 14
146.125
 24
165.6249999999998
 34
0.0
100
AcDbRotatedDimension
1001
ACAD
1000
DSTYLE
1002
{
1070
   271
1070
     0
1002
}
  0
ARC
  5
1370
330
181E
100
AcDbEntity
  8
0
100
AcDbCircle
 10
93.15000000000003
 20
134.5999999999999
 30
0.0
 40
1.95
100
AcDbArc
 50
270.0
 51
0.0
  0
DIMENSION
  5
1371
330
181E
100
AcDbEntity
  8
SUNPO
  6
Continuous
100
AcDbDimension
  2
*D12
 10
125.125
 20
119.1249999999997
 30
0.0
 11
122.125
 21
121.8749999999997
 31
0.0
 70
    32
 71
     5
 42
6.0
  3
STANDARD
100
AcDbAlignedDimension
 13
119.125
 23
137.2749999999998
 33
0.0
 14
125.125
 24
132.6249999999998
 34
0.0
100
AcDbRotatedDimension
1001
ACAD
1000
DSTYLE
1002
{
1070
   271
1070
     0
1002
}
  0
ARC
  5
1372
330
181E
100
AcDbEntity
  8
0
100
AcDbCircle
 10
123.7749999999998
 20
137.2999999999999
 30
0.0
 40
4.65
100
AcDbArc
 50
180.0
 51
270.0
  0
LINE
  5
1373
330
181E
100
AcDbEntity
  8
0
100
AcDbLine
 10
125.125
 20
132.6249999999998
 30
0.0
 11
123.7749999999998
 21
132.6249999999998
 31
0.0
  0
LINE
  5
1374
330
181E
100
AcDbEntity
  8
0
100
AcDbLine
 10
146.125
 20
202.6249999999997
 30
0.0
 11
132.125
 21
202.6249999999997
 31
0.0
  0
LINE
  5
1375
330
181E
100
AcDbEntity
  8
0
100
AcDbLine
 10
132.125
 20
218.6249999999998
 30
0.0
 11
146.125
 21
218.6249999999998
 31
0.0
  0
DIMENSION
  5
1376
330
181E
100
AcDbEntity
  8
SUNPO
  6
Continuous
100
AcDbDimension
  2
*D9
 10
104.6687499999999
 20
219.5749999999997
 30
0.0
 11
101.9187499999999
 21
210.6249999999998
 31
0.0
 70
    32
 71
     5
 42
17.89999999999989
  3
STANDARD
100
AcDbAlignedDimension
 13
110.1999999999999
 23
201.6749999999998
 33
0.0
 14
110.1999999999999
 24
219.5749999999997
 34
0.0
 50
90.0
100
AcDbRotatedDimension
1001
ACAD
1000
DSTYLE
1002
{
1070
   271
1070
     0
1002
}
  0
ARC
  5
1377
330
181E
100
AcDbEntity
  8
0
100
AcDbCircle
 10
93.15000000000003
 20
250.6749999999998
 30
0.0
 40
1.95
100
AcDbArc
 50
0.0
 51
90.0
  0
LINE
  5
1378
330
181E
100
AcDbEntity
  8
0
100
AcDbLine
 10
110.1999999999999
 20
201.6749999999998
 30
0.0
 11
110.1999999999999
 21
219.5749999999997
 31
0.0
  0
LINE
  5
1379
330
181E
100
AcDbEntity
  8
0
100
AcDbLine
 10
119.175
 20
219.5749999999997
 30
0.0
 11
119.175
 21
201.6749999999998
 31
0.0
  0
LINE
  5
137A
330
181E
100
AcDbEntity
  8
0
100
AcDbLine
 10
119.175
 20
201.6749999999998
 30
0.0
 11
110.1999999999999
 21
201.6749999999998
 31
0.0
  0
LINE
  5
137B
330
181E
100
AcDbEntity
  8
0
100
AcDbLine
 10
110.1999999999999
 20
219.5749999999997
 30
0.0
 11
119.175
 21
219.5749999999997
 31
0.0
  0
LINE
  5
137C
330
181E
100
AcDbEntity
  8
0
100
AcDbLine
 10
132.125
 20
202.6249999999997
 30
0.0
 11
132.125
 21
218.6249999999998
 31
0.0
  0
LINE
  5
137D
330
181E
100
AcDbEntity
  8
0
100
AcDbLine
 10
125.125
 20
200.6249999999997
 30
0.0
 11
125.125
 21
220.6249999999998
 31
0.0
  0
LINE
  5
137E
330
181E
100
AcDbEntity
  8
0
100
AcDbLine
 10
132.125
 20
220.6249999999998
 30
0.0
 11
132.125
 21
200.6249999999997
 31
0.0
  0
LINE
  5
137F
330
181E
100
AcDbEntity
  8
0
100
AcDbLine
 10
132.125
 20
200.6249999999997
 30
0.0
 11
125.125
 21
200.6249999999997
 31
0.0
  0
LINE
  5
1380
330
181E
100
AcDbEntity
  8
0
100
AcDbLine
 10
125.125
 20
206.6249999999997
 30
0.0
 11
132.125
 21
206.6249999999997
 31
0.0
  0
LINE
  5
1381
330
181E
100
AcDbEntity
  8
0
100
AcDbLine
 10
132.125
 20
204.6249999999997
 30
0.0
 11
125.125
 21
204.6249999999997
 31
0.0
  0
LINE
  5
1382
330
181E
100
AcDbEntity
  8
0
100
AcDbLine
 10
125.125
 20
202.6249999999997
 30
0.0
 11
132.125
 21
202.6249999999997
 31
0.0
  0
LINE
  5
1383
330
181E
100
AcDbEntity
  8
0
100
AcDbLine
 10
125.125
 20
220.6249999999998
 30
0.0
 11
132.125
 21
220.6249999999998
 31
0.0
  0
LINE
  5
1384
330
181E
100
AcDbEntity
  8
0
100
AcDbLine
 10
125.125
 20
218.6249999999998
 30
0.0
 11
132.125
 21
218.6249999999998
 31
0.0
  0
LINE
  5
1385
330
181E
100
AcDbEntity
  8
0
100
AcDbLine
 10
132.125
 20
216.6249999999998
 30
0.0
 11
125.125
 21
216.6249999999998
 31
0.0
  0
LINE
  5
1386
330
181E
100
AcDbEntity
  8
0
100
AcDbLine
 10
125.125
 20
214.6249999999997
 30
0.0
 11
132.125
 21
214.6249999999997
 31
0.0
  0
LINE
  5
1387
330
181E
100
AcDbEntity
  8
0
100
AcDbLine
 10
132.125
 20
212.6249999999997
 30
0.0
 11
125.125
 21
212.6249999999997
 31
0.0
  0
LINE
  5
1388
330
181E
100
AcDbEntity
  8
0
100
AcDbLine
 10
125.125
 20
210.6249999999997
 30
0.0
 11
132.125
 21
210.6249999999997
 31
0.0
  0
LINE
  5
1389
330
181E
100
AcDbEntity
  8
0
100
AcDbLine
 10
132.125
 20
208.6249999999997
 30
0.0
 11
125.125
 21
208.6249999999997
 31
0.0
  0
ARC
  5
138A
330
181E
100
AcDbEntity
  8
0
100
AcDbCircle
 10
123.875
 20
247.8749999999999
 30
0.0
 40
4.75
100
AcDbArc
 50
90.0
 51
180.0
  0
LINE
  5
138B
330
181E
100
AcDbEntity
  8
0
100
AcDbLine
 10
123.875
 20
252.6249999999999
 30
0.0
 11
125.125
 21
252.6249999999999
 31
0.0
  0
LINE
  5
138C
330
181E
100
AcDbEntity
  8
0
100
AcDbLine
 10
146.125
 20
218.6249999999998
 30
0.0
 11
146.125
 21
202.6249999999997
 31
0.0
  0
CIRCLE
  5
14FB
330
181E
100
AcDbEntity
  8
0
  6
Continuous
100
AcDbCircle
 10
114.25
 20
98.275
 30
0.0
 40
2.5
  0
TEXT
  5
14FC
330
181E
100
AcDbEntity
  8
0
100
AcDbText
 10
113.1709865979082
 20
96.52680473786311
 30
0.0
 40
3.5
  1
1
  7
BIGFONT
100
AcDbText
  0
TEXT
  5
14FD
330
181E
100
AcDbEntity
  8
0
100
AcDbText
 10
121.1550277669817
 20
96.575
 30
0.0
 40
3.5
  1
カバープレート
  7
BIGFONT
100
AcDbText
  0
LINE
  5
14FE
330
181E
100
AcDbEntity
  8
0
100
AcDbLine
 10
109.25
 20
95.27500000000001
 30
0.0
 11
178.875
 21
95.27499999999996
 31
0.0
  0
LINE
  5
14FF
330
181E
100
AcDbEntity
  8
0
100
AcDbLine
 10
99.40000000000001
 20
65.27499999999999
 30
0.0
 11
99.40000000000001
 21
35.27499999999998
 31
0.0
  0
LINE
  5
1500
330
181E
100
AcDbEntity
  8
0
100
AcDbLine
 10
14.775
 20
41.27500000000001
 30
0.0
 11
179.0249999999999
 21
41.27499999999995
 31
0.0
  0
TEXT
  5
1501
330
181E
100
AcDbEntity
  8
0
100
AcDbText
 10
126.3050277669818
 20
60.57499999999999
 30
0.0
 40
3.5
  1
備　　考
  7
BIGFONT
100
AcDbText
  0
TEXT
  5
1503
330
181E
100
AcDbEntity
  8
0
100
AcDbText
 10
101.3050277669818
 20
54.575
 30
0.0
 40
3.5
  1
解錠時、赤色点灯・施錠時、緑色点灯
  7
BIGFONT
100
AcDbText
  0
TEXT
  5
1505
330
181E
100
AcDbEntity
  8
0
100
AcDbText
 10
16.58002776698185
 20
29.94098414668064
 30
0.0
 40
3.5
  1
※自動ドア、エレベータ使用出来ません。
  7
BIGFONT
100
AcDbText
  0
LINE
  5
1507
330
181E
100
AcDbEntity
  8
0
100
AcDbLine
 10
146.125
 20
202.6249999999997
 30
0.0
 11
151.125
 21
202.6249999999997
 31
0.0
  0
LINE
  5
1508
330
181E
100
AcDbEntity
  8
0
100
AcDbLine
 10
151.125
 20
218.6249999999998
 30
0.0
 11
146.125
 21
218.6249999999998
 31
0.0
  0
LINE
  5
1509
330
181E
100
AcDbEntity
  8
0
100
AcDbLine
 10
151.125
 20
202.6249999999997
 30
0.0
 11
151.125
 21
209.1249999999997
 31
0.0
  0
LINE
  5
150A
330
181E
100
AcDbEntity
  8
0
100
AcDbLine
 10
151.125
 20
212.1249999999998
 30
0.0
 11
154.1249999999999
 21
212.1249999999998
 31
0.0
  0
LINE
  5
150B
330
181E
100
AcDbEntity
  8
0
100
AcDbLine
 10
154.1249999999999
 20
209.1249999999997
 30
0.0
 11
151.125
 21
209.1249999999997
 31
0.0
  0
LINE
  5
150C
330
181E
100
AcDbEntity
  8
0
100
AcDbLine
 10
154.1249999999999
 20
208.6249999999997
 30
0.0
 11
154.1249999999999
 21
212.6249999999997
 31
0.0
  0
LINE
  5
150D
330
181E
100
AcDbEntity
  8
0
100
AcDbLine
 10
158.1249999999999
 20
208.6249999999997
 30
0.0
 11
158.1249999999999
 21
212.6249999999997
 31
0.0
  0
LINE
  5
150E
330
181E
100
AcDbEntity
  8
0
100
AcDbLine
 10
154.1249999999999
 20
212.6249999999997
 30
0.0
 11
158.1249999999999
 21
212.6249999999997
 31
0.0
  0
LINE
  5
150F
330
181E
100
AcDbEntity
  8
0
100
AcDbLine
 10
158.1249999999999
 20
208.6249999999997
 30
0.0
 11
154.1249999999999
 21
208.6249999999997
 31
0.0
  0
LINE
  5
1510
330
181E
100
AcDbEntity
  8
0
100
AcDbLine
 10
160.125
 20
208.6249999999997
 30
0.0
 11
164.125
 21
208.6249999999997
 31
0.0
  0
LINE
  5
1511
330
181E
100
AcDbEntity
  8
0
100
AcDbLine
 10
164.125
 20
212.6249999999997
 30
0.0
 11
160.125
 21
212.6249999999997
 31
0.0
  0
LINE
  5
1512
330
181E
100
AcDbEntity
  8
0
100
AcDbLine
 10
164.125
 20
209.1249999999997
 30
0.0
 11
168.125
 21
209.1249999999997
 31
0.0
  0
LINE
  5
1513
330
181E
100
AcDbEntity
  8
0
100
AcDbLine
 10
168.125
 20
212.1249999999998
 30
0.0
 11
164.125
 21
212.1249999999998
 31
0.0
  0
LINE
  5
1514
330
181E
100
AcDbEntity
  8
0
100
AcDbLine
 10
164.125
 20
208.6249999999997
 30
0.0
 11
164.125
 21
212.6249999999997
 31
0.0
  0
LINE
  5
1515
330
181E
100
AcDbEntity
  8
0
100
AcDbLine
 10
160.125
 20
208.6249999999997
 30
0.0
 11
160.125
 21
212.6249999999997
 31
0.0
  0
LINE
  5
1516
330
181E
100
AcDbEntity
  8
0
100
AcDbLine
 10
168.125
 20
211.1249999999997
 30
0.0
 11
164.125
 21
211.1249999999997
 31
0.0
  0
LINE
  5
1517
330
181E
100
AcDbEntity
  8
0
100
AcDbLine
 10
164.125
 20
210.1249999999998
 30
0.0
 11
168.125
 21
210.1249999999998
 31
0.0
  0
LINE
  5
1518
330
181E
100
AcDbEntity
  8
0
100
AcDbLine
 10
151.125
 20
212.1249999999998
 30
0.0
 11
151.125
 21
218.6249999999998
 31
0.0
  0
LINE
  5
152C
330
181E
100
AcDbEntity
  8
0
100
AcDbLine
 10
72.19999999999998
 20
182.5749999999997
 30
0.0
 11
48.20000000000002
 21
182.5749999999997
 31
0.0
  0
LINE
  5
152D
330
181E
100
AcDbEntity
  8
0
100
AcDbLine
 10
48.20000000000002
 20
201.5749999999997
 30
0.0
 11
48.20000000000002
 21
219.5749999999997
 31
0.0
  0
LINE
  5
152E
330
181E
100
AcDbEntity
  8
0
100
AcDbLine
 10
48.20000000000002
 20
219.5749999999997
 30
0.0
 11
72.19999999999998
 21
219.5749999999997
 31
0.0
  0
LINE
  5
152F
330
181E
100
AcDbEntity
  8
0
100
AcDbLine
 10
72.19999999999998
 20
219.5749999999997
 30
0.0
 11
72.19999999999998
 21
201.5749999999997
 31
0.0
  0
LINE
  5
1530
330
181E
100
AcDbEntity
  8
0
100
AcDbLine
 10
72.19999999999998
 20
182.5749999999997
 30
0.0
 11
72.19999999999998
 21
164.6249999999997
 31
0.0
  0
LINE
  5
1532
330
181E
100
AcDbEntity
  8
0
100
AcDbLine
 10
48.20000000000002
 20
164.6249999999997
 30
0.0
 11
48.20000000000002
 21
182.5749999999997
 31
0.0
  0
LINE
  5
1533
330
181E
100
AcDbEntity
  8
0
100
AcDbLine
 10
72.19999999999998
 20
164.6249999999997
 30
0.0
 11
48.20000000000002
 21
164.6249999999997
 31
0.0
  0
LINE
  5
153E
330
181E
100
AcDbEntity
  8
0
100
AcDbLine
 10
49.07500000000002
 20
218.7499999999999
 30
0.0
 11
71.25
 21
218.7499999999999
 31
0.0
  0
LINE
  5
153F
330
181E
100
AcDbEntity
  8
0
100
AcDbLine
 10
49.07500000000002
 20
218.7499999999999
 30
0.0
 11
71.25
 21
218.7499999999999
 31
0.0
  0
LINE
  5
1540
330
181E
100
AcDbEntity
  8
0
100
AcDbLine
 10
71.25
 20
202.4999999999999
 30
0.0
 11
49.07500000000002
 21
202.4999999999999
 31
0.0
  0
LINE
  5
1542
330
181E
100
AcDbEntity
  8
0
100
AcDbLine
 10
49.07500000000002
 20
202.4999999999999
 30
0.0
 11
49.07500000000002
 21
218.7499999999999
 31
0.0
  0
LINE
  5
1543
330
181E
100
AcDbEntity
  8
0
100
AcDbLine
 10
49.07500000000002
 20
202.4999999999999
 30
0.0
 11
49.07500000000002
 21
218.7499999999999
 31
0.0
  0
LINE
  5
1544
330
181E
100
AcDbEntity
  8
0
100
AcDbLine
 10
71.25
 20
202.4999999999999
 30
0.0
 11
71.25
 21
218.7499999999999
 31
0.0
  0
LINE
  5
1545
330
181E
100
AcDbEntity
  8
0
  6
Continuous
100
AcDbLine
 10
72.19999999999998
 20
173.5999999999997
 30
0.0
 11
103.5043000142003
 21
157.8238606292588
 31
0.0
  0
TEXT
  5
1546
330
181E
100
AcDbEntity
  8
0
100
AcDbText
 10
104.9306757570332
 20
155.0061675944604
 30
0.0
 40
3.5
  1
3
  7
BIGFONT
100
AcDbText
  0
CIRCLE
  5
1547
330
181E
100
AcDbEntity
  8
0
  6
Continuous
100
AcDbCircle
 10
105.7368197964742
 20
156.6987582242501
 30
0.0
 40
2.5
  0
LINE
  5
1564
330
181E
100
AcDbEntity
  8
0
100
AcDbLine
 10
151.125
 20
181.6249999999998
 30
0.0
 11
146.125
 21
181.6249999999998
 31
0.0
  0
LINE
  5
1565
330
181E
100
AcDbEntity
  8
0
100
AcDbLine
 10
146.125
 20
165.6249999999998
 30
0.0
 11
151.125
 21
165.6249999999998
 31
0.0
  0
LINE
  5
1566
330
181E
100
AcDbEntity
  8
0
100
AcDbLine
 10
110.1999999999999
 20
182.5749999999997
 30
0.0
 11
119.175
 21
182.5749999999997
 31
0.0
  0
LINE
  5
1567
330
181E
100
AcDbEntity
  8
0
100
AcDbLine
 10
119.175
 20
164.6749999999998
 30
0.0
 11
110.1999999999999
 21
164.6749999999998
 31
0.0
  0
DIMENSION
  5
1568
330
181E
100
AcDbEntity
  8
SUNPO
  6
Continuous
100
AcDbDimension
  2
*D8
 10
104.6687499999999
 20
182.5749999999997
 30
0.0
 11
101.9187499999999
 21
173.6249999999998
 31
0.0
 70
    32
 71
     5
 42
17.89999999999989
  3
STANDARD
100
AcDbAlignedDimension
 13
110.1999999999999
 23
164.6749999999998
 33
0.0
 14
110.1999999999999
 24
182.5749999999997
 34
0.0
 50
90.0
100
AcDbRotatedDimension
1001
ACAD
1000
DSTYLE
1002
{
1070
   271
1070
     0
1002
}
  0
LINE
  5
1569
330
181E
100
AcDbEntity
  8
0
100
AcDbLine
 10
110.1999999999999
 20
164.6749999999998
 30
0.0
 11
110.1999999999999
 21
182.5749999999997
 31
0.0
  0
LINE
  5
156A
330
181E
100
AcDbEntity
  8
0
100
AcDbLine
 10
132.125
 20
181.6249999999998
 30
0.0
 11
146.125
 21
181.6249999999998
 31
0.0
  0
LINE
  5
156B
330
181E
100
AcDbEntity
  8
0
100
AcDbLine
 10
146.125
 20
165.6249999999998
 30
0.0
 11
132.125
 21
165.6249999999998
 31
0.0
  0
LINE
  5
156C
330
181E
100
AcDbEntity
  8
0
100
AcDbLine
 10
125.125
 20
163.6249999999997
 30
0.0
 11
125.125
 21
183.6249999999997
 31
0.0
  0
LINE
  5
156D
330
181E
100
AcDbEntity
  8
0
100
AcDbLine
 10
119.175
 20
182.5749999999997
 30
0.0
 11
119.175
 21
164.6749999999998
 31
0.0
  0
LINE
  5
156E
330
181E
100
AcDbEntity
  8
0
100
AcDbLine
 10
132.125
 20
183.6249999999997
 30
0.0
 11
132.125
 21
163.6249999999997
 31
0.0
  0
LINE
  5
156F
330
181E
100
AcDbEntity
  8
0
100
AcDbLine
 10
132.125
 20
165.6249999999998
 30
0.0
 11
132.125
 21
181.6249999999998
 31
0.0
  0
LINE
  5
1570
330
181E
100
AcDbEntity
  8
0
100
AcDbLine
 10
132.125
 20
167.6249999999997
 30
0.0
 11
125.125
 21
167.6249999999997
 31
0.0
  0
LINE
  5
1571
330
181E
100
AcDbEntity
  8
0
100
AcDbLine
 10
125.125
 20
169.6249999999998
 30
0.0
 11
132.125
 21
169.6249999999998
 31
0.0
  0
LINE
  5
1572
330
181E
100
AcDbEntity
  8
0
100
AcDbLine
 10
125.125
 20
165.6249999999998
 30
0.0
 11
132.125
 21
165.6249999999998
 31
0.0
  0
LINE
  5
1573
330
181E
100
AcDbEntity
  8
0
100
AcDbLine
 10
132.125
 20
163.6249999999997
 30
0.0
 11
125.125
 21
163.6249999999997
 31
0.0
  0
LINE
  5
1574
330
181E
100
AcDbEntity
  8
0
100
AcDbLine
 10
125.125
 20
177.6249999999998
 30
0.0
 11
132.125
 21
177.6249999999998
 31
0.0
  0
LINE
  5
1575
330
181E
100
AcDbEntity
  8
0
100
AcDbLine
 10
132.125
 20
179.6249999999998
 30
0.0
 11
125.125
 21
179.6249999999998
 31
0.0
  0
LINE
  5
1576
330
181E
100
AcDbEntity
  8
0
100
AcDbLine
 10
132.125
 20
171.6249999999998
 30
0.0
 11
125.125
 21
171.6249999999998
 31
0.0
  0
LINE
  5
1577
330
181E
100
AcDbEntity
  8
0
100
AcDbLine
 10
125.125
 20
173.6249999999998
 30
0.0
 11
132.125
 21
173.6249999999998
 31
0.0
  0
LINE
  5
1578
330
181E
100
AcDbEntity
  8
0
100
AcDbLine
 10
132.125
 20
175.6249999999998
 30
0.0
 11
125.125
 21
175.6249999999998
 31
0.0
  0
LINE
  5
1579
330
181E
100
AcDbEntity
  8
0
100
AcDbLine
 10
125.125
 20
181.6249999999998
 30
0.0
 11
132.125
 21
181.6249999999998
 31
0.0
  0
LINE
  5
157A
330
181E
100
AcDbEntity
  8
0
100
AcDbLine
 10
125.125
 20
183.6249999999997
 30
0.0
 11
132.125
 21
183.6249999999997
 31
0.0
  0
LINE
  5
157B
330
181E
100
AcDbEntity
  8
0
100
AcDbLine
 10
146.125
 20
181.6249999999998
 30
0.0
 11
146.125
 21
165.6249999999998
 31
0.0
  0
LINE
  5
157C
330
181E
100
AcDbEntity
  8
0
100
AcDbLine
 10
154.1249999999999
 20
175.6249999999998
 30
0.0
 11
158.1249999999999
 21
175.6249999999998
 31
0.0
  0
LINE
  5
157D
330
181E
100
AcDbEntity
  8
0
100
AcDbLine
 10
158.1249999999999
 20
171.6249999999998
 30
0.0
 11
154.1249999999999
 21
171.6249999999998
 31
0.0
  0
LINE
  5
157E
330
181E
100
AcDbEntity
  8
0
100
AcDbLine
 10
151.125
 20
165.6249999999998
 30
0.0
 11
151.125
 21
172.1249999999997
 31
0.0
  0
LINE
  5
157F
330
181E
100
AcDbEntity
  8
0
100
AcDbLine
 10
151.125
 20
175.1249999999997
 30
0.0
 11
151.125
 21
181.6249999999998
 31
0.0
  0
LINE
  5
1580
330
181E
100
AcDbEntity
  8
0
100
AcDbLine
 10
154.1249999999999
 20
171.6249999999998
 30
0.0
 11
154.1249999999999
 21
175.6249999999998
 31
0.0
  0
LINE
  5
1581
330
181E
100
AcDbEntity
  8
0
100
AcDbLine
 10
154.1249999999999
 20
172.1249999999997
 30
0.0
 11
151.125
 21
172.1249999999997
 31
0.0
  0
LINE
  5
1582
330
181E
100
AcDbEntity
  8
0
100
AcDbLine
 10
151.125
 20
175.1249999999997
 30
0.0
 11
154.1249999999999
 21
175.1249999999997
 31
0.0
  0
LINE
  5
1583
330
181E
100
AcDbEntity
  8
0
100
AcDbLine
 10
164.125
 20
175.6249999999998
 30
0.0
 11
160.125
 21
175.6249999999998
 31
0.0
  0
LINE
  5
1584
330
181E
100
AcDbEntity
  8
0
100
AcDbLine
 10
160.125
 20
171.6249999999998
 30
0.0
 11
164.125
 21
171.6249999999998
 31
0.0
  0
LINE
  5
1585
330
181E
100
AcDbEntity
  8
0
100
AcDbLine
 10
158.1249999999999
 20
171.6249999999998
 30
0.0
 11
158.1249999999999
 21
175.6249999999998
 31
0.0
  0
LINE
  5
1586
330
181E
100
AcDbEntity
  8
0
100
AcDbLine
 10
160.125
 20
171.6249999999998
 30
0.0
 11
160.125
 21
175.6249999999998
 31
0.0
  0
LINE
  5
1587
330
181E
100
AcDbEntity
  8
0
100
AcDbLine
 10
168.125
 20
174.1249999999998
 30
0.0
 11
164.125
 21
174.1249999999998
 31
0.0
  0
LINE
  5
1588
330
181E
100
AcDbEntity
  8
0
100
AcDbLine
 10
164.125
 20
173.1249999999997
 30
0.0
 11
168.125
 21
173.1249999999997
 31
0.0
  0
LINE
  5
1589
330
181E
100
AcDbEntity
  8
0
100
AcDbLine
 10
164.125
 20
172.1249999999997
 30
0.0
 11
168.125
 21
172.1249999999997
 31
0.0
  0
LINE
  5
158A
330
181E
100
AcDbEntity
  8
0
100
AcDbLine
 10
168.125
 20
175.1249999999997
 30
0.0
 11
164.125
 21
175.1249999999997
 31
0.0
  0
LINE
  5
158B
330
181E
100
AcDbEntity
  8
0
100
AcDbLine
 10
164.125
 20
171.6249999999998
 30
0.0
 11
164.125
 21
175.6249999999998
 31
0.0
  0
LINE
  5
15B3
330
181E
100
AcDbEntity
  8
0
  6
Continuous
100
AcDbLine
 10
162.1249999999999
 20
208.6249999999997
 30
0.0
 11
160.0263687503946
 21
195.5423068373428
 31
0.0
  0
LINE
  5
15B4
330
181E
100
AcDbEntity
  8
0
  6
Continuous
100
AcDbLine
 10
156.1249999999999
 20
208.6249999999997
 30
0.0
 11
152.6931922308334
 21
195.4741527133261
 31
0.0
  0
CIRCLE
  5
15B5
330
181E
100
AcDbEntity
  8
0
  6
Continuous
100
AcDbCircle
 10
152.0619390984213
 20
193.0551612948171
 30
0.0
 40
2.5
  0
TEXT
  5
15B6
330
181E
100
AcDbEntity
  8
0
100
AcDbText
 10
151.2557950589805
 20
191.2477519246068
 30
0.0
 40
3.5
  1
4
  7
BIGFONT
100
AcDbText
  0
CIRCLE
  5
15B7
330
181E
100
AcDbEntity
  8
0
  6
Continuous
100
AcDbCircle
 10
159.63039902652
 20
193.073864417967
 30
0.0
 40
2.5
  0
TEXT
  5
15B8
330
181E
100
AcDbEntity
  8
0
100
AcDbText
 10
158.8242549870793
 20
191.2664550477565
 30
0.0
 40
3.5
  1
5
  7
BIGFONT
100
AcDbText
  0
CIRCLE
  5
15B9
330
181E
100
AcDbEntity
  8
0
  6
Continuous
100
AcDbCircle
 10
114.25
 20
74.27500000000001
 30
0.0
 40
2.5
  0
TEXT
  5
15BA
330
181E
100
AcDbEntity
  8
0
100
AcDbText
 10
113.4438559605591
 20
72.52680473786314
 30
0.0
 40
3.5
  1
5
  7
BIGFONT
100
AcDbText
  0
LINE
  5
15BB
330
181E
100
AcDbEntity
  8
0
100
AcDbLine
 10
109.25
 20
89.275
 30
0.0
 11
178.875
 21
89.27499999999996
 31
0.0
  0
TEXT
  5
15BC
330
181E
100
AcDbEntity
  8
0
100
AcDbText
 10
121.1550277669817
 20
90.575
 30
0.0
 40
3.5
  1
施錠押釦スイッチ（緑色）
  7
BIGFONT
100
AcDbText
  0
LINE
  5
1873
330
181E
100
AcDbEntity
  8
0
100
AcDbLine
 10
4.19999999999996
 20
16.27499999999997
 30
0.0
 11
189.4249999999999
 21
16.27499999999997
 31
0.0
  0
LINE
  5
1874
330
181E
100
AcDbEntity
  8
0
100
AcDbLine
 10
4.974999999999965
 20
24.27499999999998
 30
0.0
 11
189.4249999999999
 21
24.27499999999998
 31
0.0
  0
LINE
  5
1875
330
181E
100
AcDbEntity
  8
0
100
AcDbLine
 10
104.4749999999998
 20
24.27499999999998
 30
0.0
 11
104.4749999999998
 21
8.274999999999977
 31
0.0
  0
LINE
  5
1876
330
181E
100
AcDbEntity
  8
0
100
AcDbLine
 10
94.44999999999996
 20
24.27499999999998
 30
0.0
 11
94.44999999999996
 21
8.274999999999977
 31
0.0
  0
LINE
  5
1877
330
181E
100
AcDbEntity
  8
0
100
AcDbLine
 10
14.82499999999996
 20
24.27499999999998
 30
0.0
 11
14.82499999999996
 21
8.274999999999977
 31
0.0
  0
INSERT
  5
1878
330
181E
100
AcDbEntity
  8
0
  6
Continuous
100
AcDbBlockReference
  2
waku
 10
0.0499999999999545
 20
0.0
 30
0.0
  0
LINE
  5
1879
330
181E
100
AcDbEntity
  8
0
100
AcDbLine
 10
4.19999999999996
 20
24.27499999999998
 30
0.0
 11
189.4249999999999
 21
24.27499999999998
 31
0.0
  0
TEXT
  5
187A
330
181E
100
AcDbEntity
  8
0
100
AcDbText
 10
31.82499999999996
 20
18.74999999999997
 30
0.0
 40
3.674999999999998
  1
単位 mm
  7
BIGFONT
100
AcDbText
  0
TEXT
  5
187B
330
181E
100
AcDbEntity
  8
0
100
AcDbText
 10
46.09999999999994
 20
18.74999999999997
 30
0.0
 40
3.674999999999998
  1
　
  7
BIGFONT
100
AcDbText
  0
TEXT
  5
187C
330
181E
100
AcDbEntity
  8
0
100
AcDbText
 10
114.6249999999999
 20
9.474999999999965
 30
0.0
 40
3.524999999999999
  1
　
  7
BIGFONT
100
AcDbText
  0
TEXT
  5
187D
330
181E
100
AcDbEntity
  8
0
100
AcDbText
 10
121.425
 20
10.47499999999996
 30
0.0
 40
3.674999999999999
  1
　日本電子工業株式会社
  7
BIGFONT
100
AcDbText
  0
LINE
  5
187E
330
181E
100
AcDbEntity
  8
0
100
AcDbLine
 10
4.19999999999996
 20
270.025
 30
0.0
 11
189.4249999999999
 21
270.025
 31
0.0
  0
TEXT
  5
187F
330
181E
100
AcDbEntity
  8
0
100
AcDbText
 10
31.82499999999996
 20
10.47499999999996
 30
0.0
 40
3.674999999999998
  1
尺度　　　１／１
  7
BIGFONT
100
AcDbText
  0
LINE
  5
1880
330
181E
100
AcDbEntity
  8
0
100
AcDbLine
 10
159.4999999999998
 20
24.27499999999998
 30
0.0
 11
159.4999999999998
 21
16.27499999999997
 31
0.0
  0
LINE
  5
1881
330
181E
100
AcDbEntity
  8
0
100
AcDbLine
 10
144.4749999999999
 20
24.27499999999998
 30
0.0
 11
144.4749999999999
 21
16.27499999999997
 31
0.0
  0
TEXT
  5
1882
330
181E
100
AcDbEntity
  8
0
100
AcDbText
 10
163.3467056960535
 20
18.74999999999997
 30
0.0
 40
3.674999999999998
  1
SW-0021
  7
BIGFONT
100
AcDbText
  0
TEXT
  5
1883
330
181E
100
AcDbEntity
  8
0
100
AcDbText
 10
147.0324564216774
 20
18.74999999999997
 30
0.0
 40
3.674999999999998
  1
図番
  7
BIGFONT
100
AcDbText
  0
TEXT
  5
18BE
330
181E
100
AcDbEntity
  8
0
100
AcDbText
 10
122.7348267226286
 20
261.5683137441973
 30
0.0
 40
3.0
  1
4×4用アウトレットBOX浅型対応
  7
BIGFONT
100
AcDbText
  0
POLYLINE
  5
18BF
330
181E
100
AcDbEntity
  8
0
100
AcDb3dPolyline
 66
     1
 10
0.0
 20
0.0
 30
0.0
 70
     8
  0
VERTEX
  5
18C0
330
18BF
100
AcDbEntity
  8
0
100
AcDbVertex
100
AcDb3dPolylineVertex
 10
163.0753301640881
 20
246.6249994898952
 30
0.0
 70
    32
  0
VERTEX
  5
18C1
330
18BF
100
AcDbEntity
  8
0
100
AcDbVertex
100
AcDb3dPolylineVertex
 10
180.3472108747387
 20
260.1778340292387
 30
0.0
 70
    32
  0
VERTEX
  5
18C2
330
18BF
100
AcDbEntity
  8
0
100
AcDbVertex
100
AcDb3dPolylineVertex
 10
121.7793437017418
 20
260.1778340292387
 30
0.0
 70
    32
  0
SEQEND
  5
18C3
330
18BF
100
AcDbEntity
  8
0
  0
TEXT
  5
18C4
330
181E
100
AcDbEntity
  8
0
100
AcDbText
 10
130.9874975971875
 20
255.7794100024195
 30
0.0
 40
3.0
  1
(1ヶ用塗りしろ)
  7
BIGFONT
100
AcDbText
  0
LINE
  5
1963
330
181E
100
AcDbEntity
  8
0
  6
DASHED
 48
1.5
100
AcDbLine
 10
132.6250000712673
 20
240.6250001425345
 30
0.0
 11
127.6249999287326
 21
240.6249999999998
 31
0.0
  0
ARC
  5
1964
330
181E
100
AcDbEntity
  8
0
  6
DASHED
 48
1.5
100
AcDbCircle
 10
127.625
 20
238.1249999999998
 30
0.0
 40
2.5
100
AcDbArc
 50
90.00000163332769
 51
180.0
  0
LINE
  5
1965
330
181E
100
AcDbEntity
  8
0
  6
DASHED
100
AcDbLine
 10
137.625
 20
246.6249994898964
 30
0.0
 11
176.6250000000003
 21
246.624999489894
 31
0.0
  0
LINE
  5
1966
330
181E
100
AcDbEntity
  8
0
  6
DASHED
 48
1.5
100
AcDbLine
 10
127.6250000712673
 20
144.6249999999998
 30
0.0
 11
132.6249999287326
 21
144.6250001425345
 31
0.0
  0
ARC
  5
1967
330
181E
100
AcDbEntity
  8
0
  6
DASHED
 48
1.5
100
AcDbCircle
 10
127.625
 20
147.1249999999998
 30
0.0
 40
2.5
100
AcDbArc
 50
180.0
 51
270.0000016333277
  0
LINE
  5
1968
330
181E
100
AcDbEntity
  8
0
  6
DASHED
100
AcDbLine
 10
137.625
 20
138.6249994898964
 30
0.0
 11
176.6249999999996
 21
138.6249994898939
 31
0.0
  0
LINE
  5
1969
330
181E
100
AcDbEntity
  8
0
  6
DASHED
100
AcDbLine
 10
137.625
 20
247.6249999999998
 30
0.0
 11
137.625
 21
137.6249999999998
 31
0.0
  0
ARC
  5
196A
330
181E
100
AcDbEntity
  8
0
  6
DASHED
100
AcDbCircle
 10
132.625
 20
142.1250001425345
 30
0.0
 40
2.5
100
AcDbArc
 50
0.0
 51
90.00000163332769
  0
ARC
  5
196B
330
181E
100
AcDbEntity
  8
0
  6
DASHED
100
AcDbCircle
 10
132.625
 20
243.1250001425345
 30
0.0
 40
2.5
100
AcDbArc
 50
270.0000016333277
 51
0.0
  0
LINE
  5
196C
330
181E
100
AcDbEntity
  8
0
  6
DASHED
100
AcDbLine
 10
181.625
 20
241.624999489894
 30
0.0
 11
181.625
 21
143.6249994898939
 31
0.0
  0
ARC
  5
196D
330
181E
100
AcDbEntity
  8
0
  6
DASHED
100
AcDbCircle
 10
176.625
 20
143.6249994898939
 30
0.0
 40
5.0
100
AcDbArc
 50
269.9999999999951
 51
0.0
  0
ARC
  5
196E
330
181E
100
AcDbEntity
  8
0
  6
DASHED
100
AcDbCircle
 10
176.625
 20
241.624999489894
 30
0.0
 40
5.0
100
AcDbArc
 50
0.0
 51
89.99999999999674
  0
LINE
  5
196F
330
181E
100
AcDbEntity
  8
0
  6
DASHED
100
AcDbLine
 10
125.125
 20
238.1249999999998
 30
0.0
 11
125.125
 21
147.1249999999998
 31
0.0
  0
LINE
  5
1970
330
181E
100
AcDbEntity
  8
0
  6
Continuous
100
AcDbLine
 10
135.125
 20
247.6249999999998
 30
0.0
 11
137.625
 21
247.6249999999998
 31
0.0
  0
LINE
  5
1971
330
181E
100
AcDbEntity
  8
0
  6
Continuous
100
AcDbLine
 10
135.125
 20
137.6249999999998
 30
0.0
 11
137.625
 21
137.6249999999998
 31
0.0
  0
LINE
  5
1972
330
181E
100
AcDbEntity
  8
0
  6
DASHED
100
AcDbLine
 10
135.125
 20
247.6249999999998
 30
0.0
 11
135.125
 21
137.6249999999998
 31
0.0
  0
MTEXT
  5
1A62
330
181E
100
AcDbEntity
  8
0
  6
Continuous
100
AcDbMText
 10
96.81249999999998
 20
275.05
 30
0.0
 40
3.5
 41
100.0
 71
     5
 72
     5
  1
増設施解錠スイッチ（表示付）
  7
BIGFONT
 73
     1
 44
1.0
1001
ACAD
1000
MTEXTBEGIN
1070
    73
1070
     1
1070
    44
1040
1.0
1070
    74
1070
     0
1000
MTEXTEND
  0
MTEXT
  5
1A64
330
181E
100
AcDbEntity
  8
0
  6
Continuous
100
AcDbMText
 10
184.4249999999999
 20
275.05
 30
0.0
 40
3.5
 41
50.0
 71
     6
 72
     5
  1
WP0190-02
  7
BIGFONT
 73
     1
 44
1.0
1001
ACAD
1000
MTEXTBEGIN
1070
    73
1070
     1
1070
    44
1040
1.0
1070
    74
1070
     0
1000
MTEXTEND
  0
ENDSEC
  0
SECTION
  2
OBJECTS
  0
DICTIONARY
  5
1808
330
0
100
AcDbDictionary
281
     1
  3
ACAD_COLOR
350
1817
  3
ACAD_GROUP
350
1809
  3
ACAD_LAYOUT
350
1815
  3
ACAD_MATERIAL
350
1816
  3
ACAD_MLEADERSTYLE
350
1A31
  3
ACAD_MLINESTYLE
350
1812
  3
ACAD_PLOTSETTINGS
350
1814
  3
ACAD_PLOTSTYLENAME
350
180A
  3
ACAD_SCALELIST
350
1A0F
  3
ACAD_TABLESTYLE
350
1818
  3
ACAD_VISUALSTYLE
350
19FE
  3
ACDB_RECOMPOSE_DATA
350
1A45
  3
AcDbVariableDictionary
350
188A
  3
DWGPROPS
350
1A70
  0
DICTIONARY
  5
1A47
330
1804
100
AcDbDictionary
280
     1
281
     1
  0
DICTIONARY
  5
194D
330
17FE
100
AcDbDictionary
280
     1
281
     1
  3
ACAD_LAYERSTATES
360
194E
  0
DICTIONARY
  5
1A39
330
180C
100
AcDbDictionary
280
     1
281
     1
  3
ADSK_XREC_LAYER_RECONCILED
360
1A3A
  0
DICTIONARY
  5
1A3B
330
182D
100
AcDbDictionary
280
     1
281
     1
  3
ADSK_XREC_LAYER_RECONCILED
360
1A3C
  0
DICTIONARY
  5
1A3D
330
182E
100
AcDbDictionary
280
     1
281
     1
  3
ADSK_XREC_LAYER_RECONCILED
360
1A3E
  0
DICTIONARY
  5
1A3F
330
182F
100
AcDbDictionary
280
     1
281
     1
  3
ADSK_XREC_LAYER_RECONCILED
360
1A40
  0
DICTIONARY
  5
1A41
330
1830
100
AcDbDictionary
280
     1
281
     1
  3
ADSK_XREC_LAYER_RECONCILED
360
1A42
  0
DICTIONARY
  5
1817
102
{ACAD_REACTORS
330
1808
102
}
330
1808
100
AcDbDictionary
281
     1
  0
DICTIONARY
  5
1809
102
{ACAD_REACTORS
330
1808
102
}
330
1808
100
AcDbDictionary
281
     1
  0
DICTIONARY
  5
1815
102
{ACAD_REACTORS
330
1808
102
}
330
1808
100
AcDbDictionary
281
     1
  3
Model
350
1821
  3
レイアウト1
350
181D
  0
DICTIONARY
  5
1816
102
{ACAD_REACTORS
330
1808
102
}
330
1808
100
AcDbDictionary
281
     1
  3
ByBlock
350
19EE
  3
ByLayer
350
19E6
  3
Global
350
19F6
  0
DICTIONARY
  5
1A31
102
{ACAD_REACTORS
330
1808
102
}
330
1808
100
AcDbDictionary
281
     1
  3
Standard
350
1A32
  0
DICTIONARY
  5
1812
102
{ACAD_REACTORS
330
1808
102
}
330
1808
100
AcDbDictionary
281
     1
  3
Standard
350
1813
  0
DICTIONARY
  5
1814
102
{ACAD_REACTORS
330
1808
102
}
330
1808
100
AcDbDictionary
281
     1
  0
ACDBDICTIONARYWDFLT
  5
180A
102
{ACAD_REACTORS
330
1808
102
}
330
1808
100
AcDbDictionary
281
     1
  3
Normal
350
180B
100
AcDbDictionaryWithDefault
340
180B
  0
DICTIONARY
  5
1A0F
102
{ACAD_REACTORS
330
1808
102
}
330
1808
100
AcDbDictionary
281
     1
  3
A0
350
1A10
  3
A1
350
1A11
  3
A2
350
1A12
  3
A3
350
1A13
  3
A4
350
1A14
  3
A5
350
1A15
  3
A6
350
1A16
  3
A7
350
1A17
  3
A8
350
1A18
  3
A9
350
1A19
  3
B0
350
1A1A
  3
B1
350
1A1B
  3
B2
350
1A1C
  3
B3
350
1A1D
  3
B4
350
1A1E
  3
B5
350
1A1F
  3
B6
350
1A20
  3
B7
350
1A21
  3
B8
350
1A22
  3
B9
350
1A23
  3
C0
350
1A24
  3
C1
350
1A25
  3
C2
350
1A26
  3
C3
350
1A27
  3
C4
350
1A28
  3
C5
350
1A29
  3
C6
350
1A2A
  3
C7
350
1A2B
  3
C8
350
1A2C
  3
C9
350
1A2D
  3
D0
350
1A2E
  3
D1
350
1A2F
  3
D2
350
1A30
  0
DICTIONARY
  5
1818
102
{ACAD_REACTORS
330
1808
102
}
330
1808
100
AcDbDictionary
281
     1
  3
Standard
350
1819
  0
DICTIONARY
  5
19FE
102
{ACAD_REACTORS
330
1808
102
}
330
1808
100
AcDbDictionary
281
     1
  3
2dWireframe
350
1A04
  3
3D Hidden
350
1A06
  3
3dWireframe
350
1A05
  3
Basic
350
1A03
  3
Brighten
350
1A0A
  3
ColorChange
350
1A0E
  3
Conceptual
350
1A07
  3
Dim
350
1A09
  3
Facepattern
350
1A0D
  3
Flat
350
19FF
  3
FlatWithEdges
350
1A00
  3
Gouraud
350
1A01
  3
GouraudWithEdges
350
1A02
  3
Linepattern
350
1A0C
  3
Realistic
350
1A08
  3
Thicken
350
1A0B
  0
XRECORD
  5
1A45
102
{ACAD_REACTORS
330
1808
102
}
330
1808
100
AcDbXrecord
280
     1
 90
        1
330
1819
  0
DICTIONARY
  5
188A
102
{ACAD_REACTORS
330
1808
102
}
330
1808
100
AcDbDictionary
281
     1
  3
CANNOSCALE
350
1A59
  3
CMLEADERSTYLE
350
1A58
  3
CTABLESTYLE
350
188B
  3
DIMASSOC
350
188C
  3
INDEXCTL
350
1A5B
  3
LIGHTINGUNITS
350
1A67
  3
MSLTSCALE
350
1A66
  3
PROJECTNAME
350
188D
  3
SORTENTS
350
1A5A
  0
XRECORD
  5
1A70
102
{ACAD_REACTORS
330
1808
102
}
330
1808
100
AcDbXrecord
280
     1
  1
DWGPROPS COOKIE
  2

  3

  4

  6

  7

  8
Takeshi_Nakagawa
  9

300
=
301
=
302
=
303
=
304
=
305
=
306
=
307
=
308
=
309
=
 40
0.3263252777777778
 41
2453573.411721273
 42
2456553.551399839
  1

 90
        0
  0
DICTIONARY
  5
194E
102
{ACAD_REACTORS
330
194D
102
}
330
194D
100
AcDbDictionary
281
     1
  0
XRECORD
  5
1A3A
102
{ACAD_REACTORS
330
1A39
102
}
330
1A39
100
AcDbXrecord
280
     1
290
     1
  0
XRECORD
  5
1A3C
102
{ACAD_REACTORS
330
1A3B
102
}
330
1A3B
100
AcDbXrecord
280
     1
290
     1
  0
XRECORD
  5
1A3E
102
{ACAD_REACTORS
330
1A3D
102
}
330
1A3D
100
AcDbXrecord
280
     1
290
     1
  0
XRECORD
  5
1A40
102
{ACAD_REACTORS
330
1A3F
102
}
330
1A3F
100
AcDbXrecord
280
     1
290
     1
  0
XRECORD
  5
1A42
102
{ACAD_REACTORS
330
1A41
102
}
330
1A41
100
AcDbXrecord
280
     1
290
     1
  0
LAYOUT
  5
1821
102
{ACAD_XDICTIONARY
360
1A74
102
}
102
{ACAD_REACTORS
330
1815
102
}
330
1815
100
AcDbPlotSettings
  1

  2
RICOH imagio Color 3100P-V
  4

  6

 40
0.0
 41
0.0
 42
0.0
 43
0.0
 44
0.0
 45
0.0
 46
0.0
 47
0.0
 48
0.0
 49
0.0
140
0.0
141
0.0
142
1.0
143
1.0
 70
  1712
 72
     0
 73
     0
 74
     0
  7

 75
     0
147
1.0
148
0.0
149
0.0
100
AcDbLayout
  1
Model
 70
     1
 71
     0
 10
0.0
 20
0.0
 11
12.0
 21
9.0
 12
0.0
 22
0.0
 32
0.0
 14
0.0
 24
0.0
 34
0.0
 15
0.0
 25
0.0
 35
0.0
146
0.0
 13
0.0
 23
0.0
 33
0.0
 16
1.0
 26
0.0
 36
0.0
 17
0.0
 27
1.0
 37
0.0
 76
     0
330
181E
331
19DF
  0
LAYOUT
  5
181D
102
{ACAD_XDICTIONARY
360
1A72
102
}
102
{ACAD_REACTORS
330
1815
102
}
330
1815
100
AcDbPlotSettings
  1

  2
RICOH imagio Color 3100P-V
  4

  6

 40
0.0
 41
0.0
 42
0.0
 43
0.0
 44
0.0
 45
0.0
 46
0.0
 47
0.0
 48
0.0
 49
0.0
140
0.0
141
0.0
142
1.0
143
1.0
 70
   688
 72
     0
 73
     0
 74
     5
  7

 75
    16
147
1.0
148
0.0
149
0.0
100
AcDbLayout
  1
レイアウト1
 70
     1
 71
     1
 10
0.0
 20
0.0
 11
12.0
 21
9.0
 12
0.0
 22
0.0
 32
0.0
 14
1.000000000000000E+20
 24
1.000000000000000E+20
 34
1.000000000000000E+20
 15
-1.000000000000000E+20
 25
-1.000000000000000E+20
 35
-1.000000000000000E+20
146
0.0
 13
0.0
 23
0.0
 33
0.0
 16
1.0
 26
0.0
 36
0.0
 17
0.0
 27
1.0
 37
0.0
 76
     0
330
181A
  0
MATERIAL
  5
19EE
102
{ACAD_XDICTIONARY
360
19EF
102
}
102
{ACAD_REACTORS
330
1816
102
}
330
1816
100
AcDbMaterial
  1
ByBlock
 72
     0
 43
0.0208333333333333
 43
0.0
 43
0.0
 43
0.0
 43
0.0
 43
0.0208333333333333
 43
0.0
 43
0.0
 43
0.0
 43
0.0
 43
1.0
 43
0.0
 43
0.0
 43
0.0
 43
0.0
 43
1.0
 77
     0
 47
0.0208333333333333
 47
0.0
 47
0.0
 47
0.0
 47
0.0
 47
0.0208333333333333
 47
0.0
 47
0.0
 47
0.0
 47
0.0
 47
1.0
 47
0.0
 47
0.0
 47
0.0
 47
0.0
 47
1.0
171
     0
 49
0.0208333333333333
 49
0.0
 49
0.0
 49
0.0
 49
0.0
 49
0.0208333333333333
 49
0.0
 49
0.0
 49
0.0
 49
0.0
 49
1.0
 49
0.0
 49
0.0
 49
0.0
 49
0.0
 49
1.0
175
     0
142
0.0208333333333333
142
0.0
142
0.0
142
0.0
142
0.0
142
0.0208333333333333
142
0.0
142
0.0
142
0.0
142
0.0
142
1.0
142
0.0
142
0.0
142
0.0
142
0.0
142
1.0
179
     0
144
0.0208333333333333
144
0.0
144
0.0
144
0.0
144
0.0
144
0.0208333333333333
144
0.0
144
0.0
144
0.0
144
0.0
144
1.0
144
0.0
144
0.0
144
0.0
144
0.0
144
1.0
147
0.0208333333333333
147
0.0
147
0.0
147
0.0
147
0.0
147
0.0208333333333333
147
0.0
147
0.0
147
0.0
147
0.0
147
1.0
147
0.0
147
0.0
147
0.0
147
0.0
147
1.0
  0
MATERIAL
  5
19E6
102
{ACAD_XDICTIONARY
360
19E7
102
}
102
{ACAD_REACTORS
330
1816
102
}
330
1816
100
AcDbMaterial
  1
ByLayer
 72
     0
 43
0.0208333333333333
 43
0.0
 43
0.0
 43
0.0
 43
0.0
 43
0.0208333333333333
 43
0.0
 43
0.0
 43
0.0
 43
0.0
 43
1.0
 43
0.0
 43
0.0
 43
0.0
 43
0.0
 43
1.0
 77
     0
 47
0.0208333333333333
 47
0.0
 47
0.0
 47
0.0
 47
0.0
 47
0.0208333333333333
 47
0.0
 47
0.0
 47
0.0
 47
0.0
 47
1.0
 47
0.0
 47
0.0
 47
0.0
 47
0.0
 47
1.0
171
     0
 49
0.0208333333333333
 49
0.0
 49
0.0
 49
0.0
 49
0.0
 49
0.0208333333333333
 49
0.0
 49
0.0
 49
0.0
 49
0.0
 49
1.0
 49
0.0
 49
0.0
 49
0.0
 49
0.0
 49
1.0
175
     0
142
0.0208333333333333
142
0.0
142
0.0
142
0.0
142
0.0
142
0.0208333333333333
142
0.0
142
0.0
142
0.0
142
0.0
142
1.0
142
0.0
142
0.0
142
0.0
142
0.0
142
1.0
179
     0
144
0.0208333333333333
144
0.0
144
0.0
144
0.0
144
0.0
144
0.0208333333333333
144
0.0
144
0.0
144
0.0
144
0.0
144
1.0
144
0.0
144
0.0
144
0.0
144
0.0
144
1.0
147
0.0208333333333333
147
0.0
147
0.0
147
0.0
147
0.0
147
0.0208333333333333
147
0.0
147
0.0
147
0.0
147
0.0
147
1.0
147
0.0
147
0.0
147
0.0
147
0.0
147
1.0
  0
MATERIAL
  5
19F6
102
{ACAD_XDICTIONARY
360
19F7
102
}
102
{ACAD_REACTORS
330
1816
102
}
330
1816
100
AcDbMaterial
  1
Global
 72
     0
 43
0.0208333333333333
 43
0.0
 43
0.0
 43
0.0
 43
0.0
 43
0.0208333333333333
 43
0.0
 43
0.0
 43
0.0
 43
0.0
 43
1.0
 43
0.0
 43
0.0
 43
0.0
 43
0.0
 43
1.0
 77
     0
 47
0.0208333333333333
 47
0.0
 47
0.0
 47
0.0
 47
0.0
 47
0.0208333333333333
 47
0.0
 47
0.0
 47
0.0
 47
0.0
 47
1.0
 47
0.0
 47
0.0
 47
0.0
 47
0.0
 47
1.0
171
     0
 49
0.0208333333333333
 49
0.0
 49
0.0
 49
0.0
 49
0.0
 49
0.0208333333333333
 49
0.0
 49
0.0
 49
0.0
 49
0.0
 49
1.0
 49
0.0
 49
0.0
 49
0.0
 49
0.0
 49
1.0
175
     0
142
0.0208333333333333
142
0.0
142
0.0
142
0.0
142
0.0
142
0.0208333333333333
142
0.0
142
0.0
142
0.0
142
0.0
142
1.0
142
0.0
142
0.0
142
0.0
142
0.0
142
1.0
179
     0
144
0.0208333333333333
144
0.0
144
0.0
144
0.0
144
0.0
144
0.0208333333333333
144
0.0
144
0.0
144
0.0
144
0.0
144
1.0
144
0.0
144
0.0
144
0.0
144
0.0
144
1.0
147
0.0208333333333333
147
0.0
147
0.0
147
0.0
147
0.0
147
0.0208333333333333
147
0.0
147
0.0
147
0.0
147
0.0
147
1.0
147
0.0
147
0.0
147
0.0
147
0.0
147
1.0
  0
MLEADERSTYLE
  5
1A32
102
{ACAD_REACTORS
330
1A31
102
}
330
1A31
100
AcDbMLeaderStyle
170
     2
171
     1
172
     0
 90
        2
 40
0.0
 41
0.0
173
     1
 91
-1056964608
340
180F
 92
       -2
290
     1
 42
0.09
291
     1
 43
0.36
  3
Standard
 44
0.18
300

342
180D
174
     1
178
     6
175
     1
176
     0
 93
-1056964608
 45
0.18
292
     0
297
     0
 46
0.18
 94
-1056964608
 47
1.0
 49
1.0
140
1.0
293
     1
141
0.0
294
     1
177
     0
142
1.0
295
     0
296
     0
143
0.125
1001
ACAD_MLEADERVER
1070
     2
  0
MLINESTYLE
  5
1813
102
{ACAD_REACTORS
330
1812
102
}
330
1812
100
AcDbMlineStyle
  2
STANDARD
 70
     0
  3

 62
   256
 51
90.0
 52
90.0
 71
     2
 49
0.5
 62
   256
  6
BYLAYER
 49
-0.5
 62
   256
  6
BYLAYER
  0
ACDBPLACEHOLDER
  5
180B
102
{ACAD_REACTORS
330
180A
102
}
330
180A
  0
SCALE
  5
1A10
102
{ACAD_REACTORS
330
1A0F
102
}
330
1A0F
100
AcDbScale
 70
     0
300
1:1
140
1.0
141
1.0
290
     1
  0
SCALE
  5
1A11
102
{ACAD_REACTORS
330
1A0F
102
}
330
1A0F
100
AcDbScale
 70
     0
300
1:2
140
1.0
141
2.0
290
     0
  0
SCALE
  5
1A12
102
{ACAD_REACTORS
330
1A0F
102
}
330
1A0F
100
AcDbScale
 70
     0
300
1:4
140
1.0
141
4.0
290
     0
  0
SCALE
  5
1A13
102
{ACAD_REACTORS
330
1A0F
102
}
330
1A0F
100
AcDbScale
 70
     0
300
1:5
140
1.0
141
5.0
290
     0
  0
SCALE
  5
1A14
102
{ACAD_REACTORS
330
1A0F
102
}
330
1A0F
100
AcDbScale
 70
     0
300
1:8
140
1.0
141
8.0
290
     0
  0
SCALE
  5
1A15
102
{ACAD_REACTORS
330
1A0F
102
}
330
1A0F
100
AcDbScale
 70
     0
300
1:10
140
1.0
141
10.0
290
     0
  0
SCALE
  5
1A16
102
{ACAD_REACTORS
330
1A0F
102
}
330
1A0F
100
AcDbScale
 70
     0
300
1:16
140
1.0
141
16.0
290
     0
  0
SCALE
  5
1A17
102
{ACAD_REACTORS
330
1A0F
102
}
330
1A0F
100
AcDbScale
 70
     0
300
1:20
140
1.0
141
20.0
290
     0
  0
SCALE
  5
1A18
102
{ACAD_REACTORS
330
1A0F
102
}
330
1A0F
100
AcDbScale
 70
     0
300
1:30
140
1.0
141
30.0
290
     0
  0
SCALE
  5
1A19
102
{ACAD_REACTORS
330
1A0F
102
}
330
1A0F
100
AcDbScale
 70
     0
300
1:40
140
1.0
141
40.0
290
     0
  0
SCALE
  5
1A1A
102
{ACAD_REACTORS
330
1A0F
102
}
330
1A0F
100
AcDbScale
 70
     0
300
1:50
140
1.0
141
50.0
290
     0
  0
SCALE
  5
1A1B
102
{ACAD_REACTORS
330
1A0F
102
}
330
1A0F
100
AcDbScale
 70
     0
300
1:100
140
1.0
141
100.0
290
     0
  0
SCALE
  5
1A1C
102
{ACAD_REACTORS
330
1A0F
102
}
330
1A0F
100
AcDbScale
 70
     0
300
2:1
140
2.0
141
1.0
290
     0
  0
SCALE
  5
1A1D
102
{ACAD_REACTORS
330
1A0F
102
}
330
1A0F
100
AcDbScale
 70
     0
300
4:1
140
4.0
141
1.0
290
     0
  0
SCALE
  5
1A1E
102
{ACAD_REACTORS
330
1A0F
102
}
330
1A0F
100
AcDbScale
 70
     0
300
8:1
140
8.0
141
1.0
290
     0
  0
SCALE
  5
1A1F
102
{ACAD_REACTORS
330
1A0F
102
}
330
1A0F
100
AcDbScale
 70
     0
300
10:1
140
10.0
141
1.0
290
     0
  0
SCALE
  5
1A20
102
{ACAD_REACTORS
330
1A0F
102
}
330
1A0F
100
AcDbScale
 70
     0
300
100:1
140
100.0
141
1.0
290
     0
  0
SCALE
  5
1A21
102
{ACAD_REACTORS
330
1A0F
102
}
330
1A0F
100
AcDbScale
 70
     0
300
1/128" = 1'-0"
140
0.0078125
141
12.0
290
     0
  0
SCALE
  5
1A22
102
{ACAD_REACTORS
330
1A0F
102
}
330
1A0F
100
AcDbScale
 70
     0
300
1/64" = 1'-0"
140
0.015625
141
12.0
290
     0
  0
SCALE
  5
1A23
102
{ACAD_REACTORS
330
1A0F
102
}
330
1A0F
100
AcDbScale
 70
     0
300
1/32" = 1'-0"
140
0.03125
141
12.0
290
     0
  0
SCALE
  5
1A24
102
{ACAD_REACTORS
330
1A0F
102
}
330
1A0F
100
AcDbScale
 70
     0
300
1/16" = 1'-0"
140
0.0625
141
12.0
290
     0
  0
SCALE
  5
1A25
102
{ACAD_REACTORS
330
1A0F
102
}
330
1A0F
100
AcDbScale
 70
     0
300
3/32" = 1'-0"
140
0.09375
141
12.0
290
     0
  0
SCALE
  5
1A26
102
{ACAD_REACTORS
330
1A0F
102
}
330
1A0F
100
AcDbScale
 70
     0
300
1/8" = 1'-0"
140
0.125
141
12.0
290
     0
  0
SCALE
  5
1A27
102
{ACAD_REACTORS
330
1A0F
102
}
330
1A0F
100
AcDbScale
 70
     0
300
3/16" = 1'-0"
140
0.1875
141
12.0
290
     0
  0
SCALE
  5
1A28
102
{ACAD_REACTORS
330
1A0F
102
}
330
1A0F
100
AcDbScale
 70
     0
300
1/4" = 1'-0"
140
0.25
141
12.0
290
     0
  0
SCALE
  5
1A29
102
{ACAD_REACTORS
330
1A0F
102
}
330
1A0F
100
AcDbScale
 70
     0
300
3/8" = 1'-0"
140
0.375
141
12.0
290
     0
  0
SCALE
  5
1A2A
102
{ACAD_REACTORS
330
1A0F
102
}
330
1A0F
100
AcDbScale
 70
     0
300
1/2" = 1'-0"
140
0.5
141
12.0
290
     0
  0
SCALE
  5
1A2B
102
{ACAD_REACTORS
330
1A0F
102
}
330
1A0F
100
AcDbScale
 70
     0
300
3/4" = 1'-0"
140
0.75
141
12.0
290
     0
  0
SCALE
  5
1A2C
102
{ACAD_REACTORS
330
1A0F
102
}
330
1A0F
100
AcDbScale
 70
     0
300
1" = 1'-0"
140
1.0
141
12.0
290
     0
  0
SCALE
  5
1A2D
102
{ACAD_REACTORS
330
1A0F
102
}
330
1A0F
100
AcDbScale
 70
     0
300
1-1/2" = 1'-0"
140
1.5
141
12.0
290
     0
  0
SCALE
  5
1A2E
102
{ACAD_REACTORS
330
1A0F
102
}
330
1A0F
100
AcDbScale
 70
     0
300
3" = 1'-0"
140
3.0
141
12.0
290
     0
  0
SCALE
  5
1A2F
102
{ACAD_REACTORS
330
1A0F
102
}
330
1A0F
100
AcDbScale
 70
     0
300
6" = 1'-0"
140
6.0
141
12.0
290
     0
  0
SCALE
  5
1A30
102
{ACAD_REACTORS
330
1A0F
102
}
330
1A0F
100
AcDbScale
 70
     0
300
1'-0" = 1'-0"
140
12.0
141
12.0
290
     0
  0
TABLESTYLE
  5
1819
102
{ACAD_XDICTIONARY
360
1A43
102
}
102
{ACAD_REACTORS
330
1818
102
}
330
1818
100
AcDbTableStyle
  3
Standard
 70
     0
 71
     0
 40
0.06
 41
0.06
280
     0
281
     0
  7
STANDARD
140
0.18
170
     2
 62
     0
 63
     7
283
     0
274
    -2
284
     1
 64
     0
275
    -2
285
     1
 65
     0
276
    -2
286
     1
 66
     0
277
    -2
287
     1
 67
     0
278
    -2
288
     1
 68
     0
279
    -2
289
     1
 69
     0
  7
STANDARD
140
0.25
170
     5
 62
     0
 63
     7
283
     0
274
    -2
284
     1
 64
     0
275
    -2
285
     1
 65
     0
276
    -2
286
     1
 66
     0
277
    -2
287
     1
 67
     0
278
    -2
288
     1
 68
     0
279
    -2
289
     1
 69
     0
  7
STANDARD
140
0.18
170
     5
 62
     0
 63
     7
283
     0
274
    -2
284
     1
 64
     0
275
    -2
285
     1
 65
     0
276
    -2
286
     1
 66
     0
277
    -2
287
     1
 67
     0
278
    -2
288
     1
 68
     0
279
    -2
289
     1
 69
     0
  0
VISUALSTYLE
  5
1A04
102
{ACAD_REACTORS
330
19FE
102
}
330
19FE
100
AcDbVisualStyle
  2
2dWireframe
 70
     4
 71
     0
 72
     2
 73
     0
 90
        0
 40
-0.6
 41
-30.0
 62
     5
 63
     7
 74
     1
 91
        4
 64
     7
 65
   257
 75
     1
175
     1
 42
1.0
 92
        0
 66
   257
 43
1.0
 76
     1
 77
     6
 78
     2
 67
     7
 79
     5
170
     0
171
     0
290
     0
174
     0
 93
        1
 44
0.0
173
     0
291
     0
 45
0.0
1001
ACAD
1000
AcDbSavedByObjectVersion
1070
     0
  0
VISUALSTYLE
  5
1A06
102
{ACAD_REACTORS
330
19FE
102
}
330
19FE
100
AcDbVisualStyle
  2
3D Hidden
 70
     6
 71
     1
 72
     2
 73
     2
 90
        0
 40
-0.6
 41
-30.0
 62
     5
 63
     7
 74
     2
 91
        2
 64
     7
 65
   257
 75
     2
175
     1
 42
40.0
 92
        0
 66
   257
 43
1.0
 76
     1
 77
     6
 78
     2
 67
     7
 79
     3
170
     0
171
     0
290
     0
174
     0
 93
        1
 44
0.0
173
     0
291
     0
 45
0.0
1001
ACAD
1000
AcDbSavedByObjectVersion
1070
     0
  0
VISUALSTYLE
  5
1A05
102
{ACAD_REACTORS
330
19FE
102
}
330
19FE
100
AcDbVisualStyle
  2
3dWireframe
 70
     5
 71
     0
 72
     2
 73
     0
 90
        0
 40
-0.6
 41
-30.0
 62
     5
 63
     7
 74
     1
 91
        4
 64
     7
 65
   257
 75
     1
175
     1
 42
1.0
 92
        0
 66
   257
 43
1.0
 76
     1
 77
     6
 78
     2
 67
     7
 79
     5
170
     0
171
     0
290
     0
174
     0
 93
        1
 44
0.0
173
     0
291
     0
 45
0.0
1001
ACAD
1000
AcDbSavedByObjectVersion
1070
     0
  0
VISUALSTYLE
  5
1A03
102
{ACAD_REACTORS
330
19FE
102
}
330
19FE
100
AcDbVisualStyle
  2
Basic
 70
     7
 71
     1
 72
     0
 73
     1
 90
        0
 40
-0.6
 41
-30.0
 62
     5
 63
     7
 74
     0
 91
        4
 64
     7
 65
   257
 75
     1
175
     1
 42
1.0
 92
        8
 66
     7
 43
1.0
 76
     1
 77
     6
 78
     2
 67
     7
 79
     5
170
     0
171
     0
290
     0
174
     0
 93
        1
 44
0.0
173
     0
291
     1
 45
0.0
1001
ACAD
1000
AcDbSavedByObjectVersion
1070
     0
  0
VISUALSTYLE
  5
1A0A
102
{ACAD_REACTORS
330
19FE
102
}
330
19FE
100
AcDbVisualStyle
  2
Brighten
 70
    12
 71
     2
 72
     2
 73
     0
 90
        0
 40
-0.6
 41
-30.0
 62
     5
 63
     7
 74
     1
 91
        4
 64
     7
 65
   257
 75
     1
175
     1
 42
1.0
 92
        8
 66
     7
 43
1.0
 76
     1
 77
     6
 78
     2
 67
     7
 79
     5
170
     0
171
     0
290
     0
174
     0
 93
        1
 44
50.0
173
     0
291
     1
 45
0.0
1001
ACAD
1000
AcDbSavedByObjectVersion
1070
     0
  0
VISUALSTYLE
  5
1A0E
102
{ACAD_REACTORS
330
19FE
102
}
330
19FE
100
AcDbVisualStyle
  2
ColorChange
 70
    16
 71
     2
 72
     2
 73
     3
 90
        0
 40
-0.6
 41
-30.0
 62
     5
 63
     8
 74
     1
 91
        4
 64
     7
 65
   257
 75
     1
175
     1
 42
1.0
 92
        8
 66
     8
 43
1.0
 76
     1
 77
     6
 78
     2
 67
     7
 79
     5
170
     0
171
     0
290
     0
174
     0
 93
        1
 44
0.0
173
     0
291
     1
 45
0.0
1001
ACAD
1000
AcDbSavedByObjectVersion
1070
     0
  0
VISUALSTYLE
  5
1A07
102
{ACAD_REACTORS
330
19FE
102
}
330
19FE
100
AcDbVisualStyle
  2
Conceptual
 70
     9
 71
     3
 72
     2
 73
     0
 90
        0
 40
-0.6
 41
-30.0
 62
     5
 63
     7
 74
     2
 91
        2
 64
     7
 65
   257
 75
     1
175
     1
 42
40.0
 92
        8
 66
     7
 43
1.0
 76
     1
 77
     6
 78
     2
 67
     7
 79
     3
170
     0
171
     0
290
     0
174
     0
 93
        1
 44
0.0
173
     0
291
     0
 45
0.0
1001
ACAD
1000
AcDbSavedByObjectVersion
1070
     0
  0
VISUALSTYLE
  5
1A09
102
{ACAD_REACTORS
330
19FE
102
}
330
19FE
100
AcDbVisualStyle
  2
Dim
 70
    11
 71
     2
 72
     2
 73
     0
 90
        0
 40
-0.6
 41
-30.0
 62
     5
 63
     7
 74
     1
 91
        4
 64
     7
 65
   257
 75
     1
175
     1
 42
1.0
 92
        8
 66
     7
 43
1.0
 76
     1
 77
     6
 78
     2
 67
     7
 79
     5
170
     0
171
     0
290
     0
174
     0
 93
        1
 44
-50.0
173
     0
291
     1
 45
0.0
1001
ACAD
1000
AcDbSavedByObjectVersion
1070
     0
  0
VISUALSTYLE
  5
1A0D
102
{ACAD_REACTORS
330
19FE
102
}
330
19FE
100
AcDbVisualStyle
  2
Facepattern
 70
    15
 71
     2
 72
     2
 73
     0
 90
        0
 40
-0.6
 41
-30.0
 62
     5
 63
     7
 74
     1
 91
        4
 64
     7
 65
   257
 75
     1
175
     1
 42
1.0
 92
        8
 66
     7
 43
1.0
 76
     1
 77
     6
 78
     2
 67
     7
 79
     5
170
     0
171
     0
290
     0
174
     0
 93
        1
 44
0.0
173
     0
291
     1
 45
0.0
1001
ACAD
1000
AcDbSavedByObjectVersion
1070
     0
  0
VISUALSTYLE
  5
19FF
102
{ACAD_REACTORS
330
19FE
102
}
330
19FE
100
AcDbVisualStyle
  2
Flat
 70
     0
 71
     2
 72
     1
 73
     1
 90
        2
 40
-0.6
 41
30.0
 62
     5
 63
     7
 74
     0
 91
        4
 64
     7
 65
   257
 75
     1
175
     1
 42
1.0
 92
        8
 66
     7
 43
1.0
 76
     1
 77
     6
 78
     2
 67
     7
 79
     5
170
     0
171
     0
290
     0
174
     0
 93
       13
 44
0.0
173
     0
291
     1
 45
0.0
1001
ACAD
1000
AcDbSavedByObjectVersion
1070
     0
  0
VISUALSTYLE
  5
1A00
102
{ACAD_REACTORS
330
19FE
102
}
330
19FE
100
AcDbVisualStyle
  2
FlatWithEdges
 70
     1
 71
     2
 72
     1
 73
     1
 90
        2
 40
-0.6
 41
30.0
 62
     5
 63
     7
 74
     1
 91
        4
 64
     7
 65
   257
 75
     1
175
     1
 42
1.0
 92
        0
 66
   257
 43
1.0
 76
     1
 77
     6
 78
     2
 67
     7
 79
     5
170
     0
171
     0
290
     0
174
     0
 93
       13
 44
0.0
173
     0
291
     1
 45
0.0
1001
ACAD
1000
AcDbSavedByObjectVersion
1070
     0
  0
VISUALSTYLE
  5
1A01
102
{ACAD_REACTORS
330
19FE
102
}
330
19FE
100
AcDbVisualStyle
  2
Gouraud
 70
     2
 71
     2
 72
     2
 73
     1
 90
        2
 40
-0.6
 41
30.0
 62
     5
 63
     7
 74
     0
 91
        4
 64
     7
 65
   257
 75
     1
175
     1
 42
1.0
 92
        0
 66
     7
 43
1.0
 76
     1
 77
     6
 78
     2
 67
     7
 79
     5
170
     0
171
     0
290
     0
174
     0
 93
       13
 44
0.0
173
     0
291
     1
 45
0.0
1001
ACAD
1000
AcDbSavedByObjectVersion
1070
     0
  0
VISUALSTYLE
  5
1A02
102
{ACAD_REACTORS
330
19FE
102
}
330
19FE
100
AcDbVisualStyle
  2
GouraudWithEdges
 70
     3
 71
     2
 72
     2
 73
     1
 90
        2
 40
-0.6
 41
30.0
 62
     5
 63
     7
 74
     1
 91
        4
 64
     7
 65
   257
 75
     1
175
     1
 42
1.0
 92
        0
 66
   257
 43
1.0
 76
     1
 77
     6
 78
     2
 67
     7
 79
     5
170
     0
171
     0
290
     0
174
     0
 93
       13
 44
0.0
173
     0
291
     1
 45
0.0
1001
ACAD
1000
AcDbSavedByObjectVersion
1070
     0
  0
VISUALSTYLE
  5
1A0C
102
{ACAD_REACTORS
330
19FE
102
}
330
19FE
100
AcDbVisualStyle
  2
Linepattern
 70
    14
 71
     2
 72
     2
 73
     0
 90
        0
 40
-0.6
 41
-30.0
 62
     5
 63
     7
 74
     1
 91
        4
 64
     7
 65
   257
 75
     7
175
     7
 42
1.0
 92
        8
 66
     7
 43
1.0
 76
     1
 77
     6
 78
     2
 67
     7
 79
     5
170
     0
171
     0
290
     0
174
     0
 93
        1
 44
0.0
173
     0
291
     1
 45
0.0
1001
ACAD
1000
AcDbSavedByObjectVersion
1070
     0
  0
VISUALSTYLE
  5
1A08
102
{ACAD_REACTORS
330
19FE
102
}
330
19FE
100
AcDbVisualStyle
  2
Realistic
 70
     8
 71
     2
 72
     2
 73
     0
 90
        0
 40
-0.6
 41
-30.0
 62
     5
 63
     7
 74
     1
 91
        0
 64
     7
 65
   257
 75
     1
175
     1
 42
1.0
 92
        8
 66
     8
 43
1.0
 76
     1
 77
     6
 78
     2
 67
     7
 79
     5
170
     0
171
     0
290
     0
174
     0
 93
       13
 44
0.0
173
     0
291
     0
 45
0.0
1001
ACAD
1000
AcDbSavedByObjectVersion
1070
     0
  0
VISUALSTYLE
  5
1A0B
102
{ACAD_REACTORS
330
19FE
102
}
330
19FE
100
AcDbVisualStyle
  2
Thicken
 70
    13
 71
     2
 72
     2
 73
     0
 90
        0
 40
-0.6
 41
-30.0
 62
     5
 63
     7
 74
     1
 91
        4
 64
     7
 65
   257
 75
     1
175
     1
 42
1.0
 92
       12
 66
     7
 43
1.0
 76
     1
 77
     6
 78
     2
 67
     7
 79
     5
170
     0
171
     0
290
     0
174
     0
 93
        1
 44
0.0
173
     0
291
     1
 45
0.0
1001
ACAD
1000
AcDbSavedByObjectVersion
1070
     0
  0
DICTIONARYVAR
  5
1A59
102
{ACAD_REACTORS
330
188A
102
}
330
188A
100
DictionaryVariables
280
     0
  1
1:1
  0
DICTIONARYVAR
  5
1A58
102
{ACAD_REACTORS
330
188A
102
}
330
188A
100
DictionaryVariables
280
     0
  1
STANDARD
  0
DICTIONARYVAR
  5
188B
102
{ACAD_REACTORS
330
188A
102
}
330
188A
100
DictionaryVariables
280
     0
  1
STANDARD
  0
DICTIONARYVAR
  5
188C
102
{ACAD_REACTORS
330
188A
102
}
330
188A
100
DictionaryVariables
280
     0
  1
1
  0
DICTIONARYVAR
  5
1A5B
102
{ACAD_REACTORS
330
188A
102
}
330
188A
100
DictionaryVariables
280
     0
  1
0
  0
DICTIONARYVAR
  5
1A67
102
{ACAD_REACTORS
330
188A
102
}
330
188A
100
DictionaryVariables
280
     0
  1
0
  0
DICTIONARYVAR
  5
1A66
102
{ACAD_REACTORS
330
188A
102
}
330
188A
100
DictionaryVariables
280
     0
  1
0
  0
DICTIONARYVAR
  5
188D
102
{ACAD_REACTORS
330
188A
102
}
330
188A
100
DictionaryVariables
280
     0
  1

  0
DICTIONARYVAR
  5
1A5A
102
{ACAD_REACTORS
330
188A
102
}
330
188A
100
DictionaryVariables
280
     0
  1
127
  0
DICTIONARY
  5
1A74
330
1821
100
AcDbDictionary
280
     1
281
     1
  3
ACAD_XREC_ROUNDTRIP
360
1A75
  0
DICTIONARY
  5
1A72
330
181D
100
AcDbDictionary
280
     1
281
     1
  3
ACAD_XREC_ROUNDTRIP
360
1A73
  0
DICTIONARY
  5
19EF
330
19EE
100
AcDbDictionary
280
     1
281
     1
  3
ACAD_XREC_ROUNDTRIP
360
1A77
  3
BUMPTILE
360
19F1
  3
DIFFUSETILE
360
19F0
  3
OPACITYTILE
360
19F4
  3
REFLECTIONTILE
360
19F3
  3
REFRACTIONTILE
360
19F5
  3
SPECULARTILE
360
19F2
  0
DICTIONARY
  5
19E7
330
19E6
100
AcDbDictionary
280
     1
281
     1
  3
ACAD_XREC_ROUNDTRIP
360
1A76
  3
BUMPTILE
360
19E9
  3
DIFFUSETILE
360
19E8
  3
OPACITYTILE
360
19EC
  3
REFLECTIONTILE
360
19EB
  3
REFRACTIONTILE
360
19ED
  3
SPECULARTILE
360
19EA
  0
DICTIONARY
  5
19F7
330
19F6
100
AcDbDictionary
280
     1
281
     1
  3
ACAD_XREC_ROUNDTRIP
360
1A78
  3
BUMPTILE
360
19F9
  3
DIFFUSETILE
360
19F8
  3
OPACITYTILE
360
19FC
  3
REFLECTIONTILE
360
19FB
  3
REFRACTIONTILE
360
19FD
  3
SPECULARTILE
360
19FA
  0
DICTIONARY
  5
1A43
330
1819
100
AcDbDictionary
280
     1
281
     1
  3
ACAD_ROUNDTRIP_2008_TABLESTYLE_CELLSTYLEMAP
360
1A6F
  3
ACAD_XREC_ROUNDTRIP
360
1A71
  0
XRECORD
  5
1A75
102
{ACAD_REACTORS
330
1A74
102
}
330
1A74
100
AcDbXrecord
280
     1
102
SHADEPLOT
 70
     0
102
SHADEPLOTRESLEVEL
 70
     2
102
SHADEPLOTCUSTOMDPI
 70
   300
  0
XRECORD
  5
1A73
102
{ACAD_REACTORS
330
1A72
102
}
330
1A72
100
AcDbXrecord
280
     1
102
SHADEPLOT
 70
     0
102
SHADEPLOTRESLEVEL
 70
     2
102
SHADEPLOTCUSTOMDPI
 70
   300
  0
XRECORD
  5
1A77
102
{ACAD_REACTORS
330
19EF
102
}
330
19EF
100
AcDbXrecord
280
     1
102
MATERIAL
148
0.0
149
0.0
149
0.0
 93
        0
 94
      127
282
     0
 72
     0
 77
     0
171
     0
175
     0
179
     0
273
     0
  0
XRECORD
  5
19F1
102
{ACAD_REACTORS
330
19EF
102
}
330
19EF
100
AcDbXrecord
280
     1
270
     1
271
     1
  0
XRECORD
  5
19F0
102
{ACAD_REACTORS
330
19EF
102
}
330
19EF
100
AcDbXrecord
280
     1
270
     1
271
     1
  0
XRECORD
  5
19F4
102
{ACAD_REACTORS
330
19EF
102
}
330
19EF
100
AcDbXrecord
280
     1
270
     1
271
     1
  0
XRECORD
  5
19F3
102
{ACAD_REACTORS
330
19EF
102
}
330
19EF
100
AcDbXrecord
280
     1
270
     1
271
     1
  0
XRECORD
  5
19F5
102
{ACAD_REACTORS
330
19EF
102
}
330
19EF
100
AcDbXrecord
280
     1
270
     1
271
     1
  0
XRECORD
  5
19F2
102
{ACAD_REACTORS
330
19EF
102
}
330
19EF
100
AcDbXrecord
280
     1
270
     1
271
     1
  0
XRECORD
  5
1A76
102
{ACAD_REACTORS
330
19E7
102
}
330
19E7
100
AcDbXrecord
280
     1
102
MATERIAL
148
0.0
149
0.0
149
0.0
 93
        0
 94
      127
282
     0
 72
     0
 77
     0
171
     0
175
     0
179
     0
273
     0
  0
XRECORD
  5
19E9
102
{ACAD_REACTORS
330
19E7
102
}
330
19E7
100
AcDbXrecord
280
     1
270
     1
271
     1
  0
XRECORD
  5
19E8
102
{ACAD_REACTORS
330
19E7
102
}
330
19E7
100
AcDbXrecord
280
     1
270
     1
271
     1
  0
XRECORD
  5
19EC
102
{ACAD_REACTORS
330
19E7
102
}
330
19E7
100
AcDbXrecord
280
     1
270
     1
271
     1
  0
XRECORD
  5
19EB
102
{ACAD_REACTORS
330
19E7
102
}
330
19E7
100
AcDbXrecord
280
     1
270
     1
271
     1
  0
XRECORD
  5
19ED
102
{ACAD_REACTORS
330
19E7
102
}
330
19E7
100
AcDbXrecord
280
     1
270
     1
271
     1
  0
XRECORD
  5
19EA
102
{ACAD_REACTORS
330
19E7
102
}
330
19E7
100
AcDbXrecord
280
     1
270
     1
271
     1
  0
XRECORD
  5
1A78
102
{ACAD_REACTORS
330
19F7
102
}
330
19F7
100
AcDbXrecord
280
     1
102
MATERIAL
148
0.0
149
0.0
149
0.0
 93
        0
 94
      127
282
     0
 72
     0
 77
     0
171
     0
175
     0
179
     0
273
     0
  0
XRECORD
  5
19F9
102
{ACAD_REACTORS
330
19F7
102
}
330
19F7
100
AcDbXrecord
280
     1
270
     1
271
     1
  0
XRECORD
  5
19F8
102
{ACAD_REACTORS
330
19F7
102
}
330
19F7
100
AcDbXrecord
280
     1
270
     1
271
     1
  0
XRECORD
  5
19FC
102
{ACAD_REACTORS
330
19F7
102
}
330
19F7
100
AcDbXrecord
280
     1
270
     1
271
     1
  0
XRECORD
  5
19FB
102
{ACAD_REACTORS
330
19F7
102
}
330
19F7
100
AcDbXrecord
280
     1
270
     1
271
     1
  0
XRECORD
  5
19FD
102
{ACAD_REACTORS
330
19F7
102
}
330
19F7
100
AcDbXrecord
280
     1
270
     1
271
     1
  0
XRECORD
  5
19FA
102
{ACAD_REACTORS
330
19F7
102
}
330
19F7
100
AcDbXrecord
280
     1
270
     1
271
     1
  0
CELLSTYLEMAP
  5
1A6F
102
{ACAD_REACTORS
330
1A43
102
}
330
1A43
100
AcDbCellStyleMap
 90
        3
300
CELLSTYLE
  1
TABLEFORMAT_BEGIN
 90
        5
170
     1
 91
        0
 92
    32768
 62
   257
 93
        1
300
CONTENTFORMAT
  1
CONTENTFORMAT_BEGIN
 90
        0
 91
        0
 92
        4
 93
        0
300

 40
0.0
140
1.0
 94
        5
 62
     0
340
180D
144
0.25
309
CONTENTFORMAT_END
171
     0
 94
        6
 95
        1
302
GRIDFORMAT
  1
GRIDFORMAT_BEGIN
 90
        0
 91
        1
 62
     0
 92
       -2
340
0
 93
        0
 40
0.045
309
GRIDFORMAT_END
 95
        2
302
GRIDFORMAT
  1
GRIDFORMAT_BEGIN
 90
        0
 91
        1
 62
     0
 92
       -2
340
0
 93
        0
 40
0.045
309
GRIDFORMAT_END
 95
        4
302
GRIDFORMAT
  1
GRIDFORMAT_BEGIN
 90
        0
 91
        1
 62
     0
 92
       -2
340
0
 93
        0
 40
0.045
309
GRIDFORMAT_END
 95
        8
302
GRIDFORMAT
  1
GRIDFORMAT_BEGIN
 90
        0
 91
        1
 62
     0
 92
       -2
340
0
 93
        0
 40
0.045
309
GRIDFORMAT_END
 95
       16
302
GRIDFORMAT
  1
GRIDFORMAT_BEGIN
 90
        0
 91
        1
 62
     0
 92
       -2
340
0
 93
        0
 40
0.045
309
GRIDFORMAT_END
 95
       32
302
GRIDFORMAT
  1
GRIDFORMAT_BEGIN
 90
        0
 91
        1
 62
     0
 92
       -2
340
0
 93
        0
 40
0.045
309
GRIDFORMAT_END
309
TABLEFORMAT_END
  1
CELLSTYLE_BEGIN
 90
        1
 91
        1
300
_TITLE
309
CELLSTYLE_END
300
CELLSTYLE
  1
TABLEFORMAT_BEGIN
 90
        5
170
     1
 91
        0
 92
        0
 62
   257
 93
        1
300
CONTENTFORMAT
  1
CONTENTFORMAT_BEGIN
 90
        0
 91
        0
 92
        4
 93
        0
300

 40
0.0
140
1.0
 94
        5
 62
     0
340
180D
144
0.18
309
CONTENTFORMAT_END
171
     0
 94
        6
 95
        1
302
GRIDFORMAT
  1
GRIDFORMAT_BEGIN
 90
        0
 91
        1
 62
     0
 92
       -2
340
0
 93
        0
 40
0.045
309
GRIDFORMAT_END
 95
        2
302
GRIDFORMAT
  1
GRIDFORMAT_BEGIN
 90
        0
 91
        1
 62
     0
 92
       -2
340
0
 93
        0
 40
0.045
309
GRIDFORMAT_END
 95
        4
302
GRIDFORMAT
  1
GRIDFORMAT_BEGIN
 90
        0
 91
        1
 62
     0
 92
       -2
340
0
 93
        0
 40
0.045
309
GRIDFORMAT_END
 95
        8
302
GRIDFORMAT
  1
GRIDFORMAT_BEGIN
 90
        0
 91
        1
 62
     0
 92
       -2
340
0
 93
        0
 40
0.045
309
GRIDFORMAT_END
 95
       16
302
GRIDFORMAT
  1
GRIDFORMAT_BEGIN
 90
        0
 91
        1
 62
     0
 92
       -2
340
0
 93
        0
 40
0.045
309
GRIDFORMAT_END
 95
       32
302
GRIDFORMAT
  1
GRIDFORMAT_BEGIN
 90
        0
 91
        1
 62
     0
 92
       -2
340
0
 93
        0
 40
0.045
309
GRIDFORMAT_END
309
TABLEFORMAT_END
  1
CELLSTYLE_BEGIN
 90
        2
 91
        1
300
_HEADER
309
CELLSTYLE_END
300
CELLSTYLE
  1
TABLEFORMAT_BEGIN
 90
        5
170
     1
 91
        0
 92
        0
 62
   257
 93
        1
300
CONTENTFORMAT
  1
CONTENTFORMAT_BEGIN
 90
        0
 91
        0
 92
        4
 93
        0
300

 40
0.0
140
1.0
 94
        2
 62
     0
340
180D
144
0.18
309
CONTENTFORMAT_END
171
     0
 94
        6
 95
        1
302
GRIDFORMAT
  1
GRIDFORMAT_BEGIN
 90
        0
 91
        1
 62
     0
 92
       -2
340
0
 93
        0
 40
0.045
309
GRIDFORMAT_END
 95
        2
302
GRIDFORMAT
  1
GRIDFORMAT_BEGIN
 90
        0
 91
        1
 62
     0
 92
       -2
340
0
 93
        0
 40
0.045
309
GRIDFORMAT_END
 95
        4
302
GRIDFORMAT
  1
GRIDFORMAT_BEGIN
 90
        0
 91
        1
 62
     0
 92
       -2
340
0
 93
        0
 40
0.045
309
GRIDFORMAT_END
 95
        8
302
GRIDFORMAT
  1
GRIDFORMAT_BEGIN
 90
        0
 91
        1
 62
     0
 92
       -2
340
0
 93
        0
 40
0.045
309
GRIDFORMAT_END
 95
       16
302
GRIDFORMAT
  1
GRIDFORMAT_BEGIN
 90
        0
 91
        1
 62
     0
 92
       -2
340
0
 93
        0
 40
0.045
309
GRIDFORMAT_END
 95
       32
302
GRIDFORMAT
  1
GRIDFORMAT_BEGIN
 90
        0
 91
        1
 62
     0
 92
       -2
340
0
 93
        0
 40
0.045
309
GRIDFORMAT_END
309
TABLEFORMAT_END
  1
CELLSTYLE_BEGIN
 90
        3
 91
        2
300
_DATA
309
CELLSTYLE_END
  0
XRECORD
  5
1A71
102
{ACAD_REACTORS
330
1A43
102
}
330
1A43
100
AcDbXrecord
280
     1
102
ACAD_ROUNDTRIP_PRE2007_TABLESTYLE
 90
        4
 91
        0
  1

 92
        4
 93
        0
  2

 94
        4
 95
        0
  3

  0
ENDSEC
  0
EOF
