  0
SECTION
  2
HEADER
  9
$ACADVER
  1
AC1015
  9
$ACADMAINTVER
 70
    20
  9
$DWGCODEPAGE
  3
ANSI_932
  9
$INSBASE
 10
0.0
 20
0.0
 30
0.0
  9
$EXTMIN
 10
4.199999999999954
 20
8.274999999999977
 30
0.0
  9
$EXTMAX
 10
189.4249999999999
 20
280.0749999999999
 30
0.0
  9
$LIMMIN
 10
0.0
 20
0.0
  9
$LIMMAX
 10
194.0
 20
282.0
  9
$ORTHOMODE
 70
     0
  9
$REGENMODE
 70
     1
  9
$FILLMODE
 70
     1
  9
$QTEXTMODE
 70
     0
  9
$MIRRTEXT
 70
     0
  9
$LTSCALE
 40
1.0
  9
$ATTMODE
 70
     1
  9
$TEXTSIZE
 40
0.2
  9
$TRACEWID
 40
0.05
  9
$TEXTSTYLE
  7
BIGFONT
  9
$CLAYER
  8
0
  9
$CELTYPE
  6
CONTINUOUS
  9
$CECOLOR
 62
   256
  9
$CELTSCALE
 40
1.0
  9
$DISPSILH
 70
     0
  9
$DIMSCALE
 40
1.0
  9
$DIMASZ
 40
3.0
  9
$DIMEXO
 40
0.0625
  9
$DIMDLI
 40
0.38
  9
$DIMRND
 40
0.0
  9
$DIMDLE
 40
0.0
  9
$DIMEXE
 40
1.0
  9
$DIMTP
 40
0.0
  9
$DIMTM
 40
0.0
  9
$DIMTXT
 40
3.5
  9
$DIMCEN
 40
0.09
  9
$DIMTSZ
 40
0.0
  9
$DIMTOL
 70
     0
  9
$DIMLIM
 70
     0
  9
$DIMTIH
 70
     0
  9
$DIMTOH
 70
     0
  9
$DIMSE1
 70
     0
  9
$DIMSE2
 70
     0
  9
$DIMTAD
 70
     1
  9
$DIMZIN
 70
     0
  9
$DIMBLK
  1

  9
$DIMASO
 70
     1
  9
$DIMSHO
 70
     1
  9
$DIMPOST
  1

  9
$DIMAPOST
  1

  9
$DIMALT
 70
     0
  9
$DIMALTD
 70
     2
  9
$DIMALTF
 40
25.4
  9
$DIMLFAC
 40
1.0
  9
$DIMTOFL
 70
     1
  9
$DIMTVP
 40
0.0
  9
$DIMTIX
 70
     0
  9
$DIMSOXD
 70
     0
  9
$DIMSAH
 70
     0
  9
$DIMBLK1
  1

  9
$DIMBLK2
  1

  9
$DIMSTYLE
  2
STANDARD
  9
$DIMCLRD
 70
     0
  9
$DIMCLRE
 70
     0
  9
$DIMCLRT
 70
     0
  9
$DIMTFAC
 40
1.0
  9
$DIMGAP
 40
1.0
  9
$DIMJUST
 70
     0
  9
$DIMSD1
 70
     0
  9
$DIMSD2
 70
     0
  9
$DIMTOLJ
 70
     1
  9
$DIMTZIN
 70
     0
  9
$DIMALTZ
 70
     0
  9
$DIMALTTZ
 70
     0
  9
$DIMUPT
 70
     0
  9
$DIMDEC
 70
     4
  9
$DIMTDEC
 70
     4
  9
$DIMALTU
 70
     2
  9
$DIMALTTD
 70
     2
  9
$DIMTXSTY
  7
STANDARD
  9
$DIMAUNIT
 70
     0
  9
$DIMADEC
 70
     0
  9
$DIMALTRND
 40
0.0
  9
$DIMAZIN
 70
     0
  9
$DIMDSEP
 70
    46
  9
$DIMATFIT
 70
     3
  9
$DIMFRAC
 70
     0
  9
$DIMLDRBLK
  1

  9
$DIMLUNIT
 70
     2
  9
$DIMLWD
 70
    -2
  9
$DIMLWE
 70
    -2
  9
$DIMTMOVE
 70
     0
  9
$LUNITS
 70
     2
  9
$LUPREC
 70
     4
  9
$SKETCHINC
 40
0.1
  9
$FILLETRAD
 40
0.0
  9
$AUNITS
 70
     0
  9
$AUPREC
 70
     0
  9
$MENU
  1
.
  9
$ELEVATION
 40
0.0
  9
$PELEVATION
 40
0.0
  9
$THICKNESS
 40
0.0
  9
$LIMCHECK
 70
     0
  9
$CHAMFERA
 40
0.0
  9
$CHAMFERB
 40
0.0
  9
$CHAMFERC
 40
0.0
  9
$CHAMFERD
 40
0.0
  9
$SKPOLY
 70
     0
  9
$TDCREATE
 40
2453573.411721273
  9
$TDUCREATE
 40
2453573.036721274
  9
$TDUPDATE
 40
2456553.550686100
  9
$TDUUPDATE
 40
2456553.175686100
  9
$TDINDWG
 40
0.2963941204
  9
$TDUSRTIMER
 40
0.2963934259
  9
$USRTIMER
 70
     1
  9
$ANGBASE
 50
0.0
  9
$ANGDIR
 70
     0
  9
$PDMODE
 70
     0
  9
$PDSIZE
 40
0.0
  9
$PLINEWID
 40
0.0
  9
$SPLFRAME
 70
     0
  9
$SPLINETYPE
 70
     6
  9
$SPLINESEGS
 70
     8
  9
$HANDSEED
  5
1964
  9
$SURFTAB1
 70
     6
  9
$SURFTAB2
 70
     6
  9
$SURFTYPE
 70
     6
  9
$SURFU
 70
     6
  9
$SURFV
 70
     6
  9
$UCSBASE
  2

  9
$UCSNAME
  2

  9
$UCSORG
 10
0.0
 20
0.0
 30
0.0
  9
$UCSXDIR
 10
1.0
 20
0.0
 30
0.0
  9
$UCSYDIR
 10
0.0
 20
1.0
 30
0.0
  9
$UCSORTHOREF
  2

  9
$UCSORTHOVIEW
 70
     0
  9
$UCSORGTOP
 10
0.0
 20
0.0
 30
0.0
  9
$UCSORGBOTTOM
 10
0.0
 20
0.0
 30
0.0
  9
$UCSORGLEFT
 10
0.0
 20
0.0
 30
0.0
  9
$UCSORGRIGHT
 10
0.0
 20
0.0
 30
0.0
  9
$UCSORGFRONT
 10
0.0
 20
0.0
 30
0.0
  9
$UCSORGBACK
 10
0.0
 20
0.0
 30
0.0
  9
$PUCSBASE
  2

  9
$PUCSNAME
  2

  9
$PUCSORG
 10
0.0
 20
0.0
 30
0.0
  9
$PUCSXDIR
 10
1.0
 20
0.0
 30
0.0
  9
$PUCSYDIR
 10
0.0
 20
1.0
 30
0.0
  9
$PUCSORTHOREF
  2

  9
$PUCSORTHOVIEW
 70
     0
  9
$PUCSORGTOP
 10
0.0
 20
0.0
 30
0.0
  9
$PUCSORGBOTTOM
 10
0.0
 20
0.0
 30
0.0
  9
$PUCSORGLEFT
 10
0.0
 20
0.0
 30
0.0
  9
$PUCSORGRIGHT
 10
0.0
 20
0.0
 30
0.0
  9
$PUCSORGFRONT
 10
0.0
 20
0.0
 30
0.0
  9
$PUCSORGBACK
 10
0.0
 20
0.0
 30
0.0
  9
$USERI1
 70
     0
  9
$USERI2
 70
     0
  9
$USERI3
 70
     0
  9
$USERI4
 70
     0
  9
$USERI5
 70
     0
  9
$USERR1
 40
0.0
  9
$USERR2
 40
0.0
  9
$USERR3
 40
0.0
  9
$USERR4
 40
0.0
  9
$USERR5
 40
0.0
  9
$WORLDVIEW
 70
     1
  9
$SHADEDGE
 70
     3
  9
$SHADEDIF
 70
    70
  9
$TILEMODE
 70
     1
  9
$MAXACTVP
 70
    64
  9
$PINSBASE
 10
0.0
 20
0.0
 30
0.0
  9
$PLIMCHECK
 70
     0
  9
$PEXTMIN
 10
1.000000000000000E+20
 20
1.000000000000000E+20
 30
1.000000000000000E+20
  9
$PEXTMAX
 10
-1.000000000000000E+20
 20
-1.000000000000000E+20
 30
-1.000000000000000E+20
  9
$PLIMMIN
 10
0.0
 20
0.0
  9
$PLIMMAX
 10
12.0
 20
9.0
  9
$UNITMODE
 70
     0
  9
$VISRETAIN
 70
     1
  9
$PLINEGEN
 70
     0
  9
$PSLTSCALE
 70
     1
  9
$TREEDEPTH
 70
  3020
  9
$CMLSTYLE
  2
Standard
  9
$CMLJUST
 70
     0
  9
$CMLSCALE
 40
1.0
  9
$PROXYGRAPHICS
 70
     1
  9
$MEASUREMENT
 70
     0
  9
$CELWEIGHT
370
    -1
  9
$ENDCAPS
280
     0
  9
$JOINSTYLE
280
     0
  9
$LWDISPLAY
290
     0
  9
$INSUNITS
 70
     0
  9
$HYPERLINKBASE
  1

  9
$STYLESHEET
  1

  9
$XEDIT
290
     1
  9
$CEPSNTYPE
380
     0
  9
$PSTYLEMODE
290
     1
  9
$FINGERPRINTGUID
  2
{0E014665-4323-4761-9CCA-67F6F7DAF535}
  9
$VERSIONGUID
  2
{E7018AC7-92F4-4957-A6FF-441973CD9BCF}
  9
$EXTNAMES
290
     1
  9
$PSVPSCALE
 40
0.0
  9
$OLESTARTUP
290
     0
  0
ENDSEC
  0
SECTION
  2
CLASSES
  0
CLASS
  1
ACDBDICTIONARYWDFLT
  2
AcDbDictionaryWithDefault
  3
ObjectDBX Classes
 90
        0
280
     0
281
     0
  0
CLASS
  1
TABLESTYLE
  2
AcDbTableStyle
  3
ObjectDBX Classes
 90
     4095
280
     0
281
     0
  0
CLASS
  1
SORTENTSTABLE
  2
AcDbSortentsTable
  3
ObjectDBX Classes
 90
    32768
280
     0
281
     0
  0
CLASS
  1
DICTIONARYVAR
  2
AcDbDictionaryVar
  3
ObjectDBX Classes
 90
        0
280
     0
281
     0
  0
CLASS
  1
ACDBPLACEHOLDER
  2
AcDbPlaceHolder
  3
ObjectDBX Classes
 90
        0
280
     0
281
     0
  0
CLASS
  1
LAYOUT
  2
AcDbLayout
  3
ObjectDBX Classes
 90
        0
280
     0
281
     0
  0
CLASS
  1
MATERIAL
  2
AcDbMaterial
  3
ObjectDBX Classes
 90
     1153
280
     0
281
     0
  0
CLASS
  1
VISUALSTYLE
  2
AcDbVisualStyle
  3
ObjectDBX Classes
 90
     4095
280
     0
281
     0
  0
CLASS
  1
SCALE
  2
AcDbScale
  3
ObjectDBX Classes
 90
     1153
280
     0
281
     0
  0
CLASS
  1
MLEADERSTYLE
  2
AcDbMLeaderStyle
  3
ACDB_MLEADERSTYLE_CLASS
 90
     4095
280
     0
281
     0
  0
CLASS
  1
CELLSTYLEMAP
  2
AcDbCellStyleMap
  3
ObjectDBX Classes
 90
     1152
280
     0
281
     0
  0
ENDSEC
  0
SECTION
  2
TABLES
  0
TABLE
  2
VPORT
  5
16DF
102
{ACAD_XDICTIONARY
360
1932
102
}
330
0
100
AcDbSymbolTable
 70
     1
  0
VPORT
  5
18CA
330
16DF
100
AcDbSymbolTableRecord
100
AcDbViewportTableRecord
  2
*Active
 70
     0
 10
0.0
 20
0.0
 11
1.0
 21
1.0
 12
235.0761550082691
 22
144.1842047618518
 13
0.0
 23
0.0
 14
5.0
 24
5.0
 15
0.0
 25
0.0
 16
0.0
 26
0.0
 36
1.0
 17
0.0
 27
0.0
 37
0.0
 40
273.9380036344416
 41
1.779141104294478
 42
50.0
 43
0.0
 44
0.0
 50
0.0
 51
0.0
 71
     0
 72
   100
 73
     1
 74
     1
 75
     0
 76
     0
 77
     0
 78
     0
281
     0
 65
     1
110
0.0
120
0.0
130
0.0
111
1.0
121
0.0
131
0.0
112
0.0
122
1.0
132
0.0
 79
     0
146
0.0
  0
ENDTAB
  0
TABLE
  2
LTYPE
  5
16DC
330
0
100
AcDbSymbolTable
 70
     9
  0
LTYPE
  5
16EA
330
16DC
100
AcDbSymbolTableRecord
100
AcDbLinetypeTableRecord
  2
ByBlock
 70
     0
  3

 72
    65
 73
     0
 40
0.0
  0
LTYPE
  5
16EB
330
16DC
100
AcDbSymbolTableRecord
100
AcDbLinetypeTableRecord
  2
ByLayer
 70
     0
  3

 72
    65
 73
     0
 40
0.0
  0
LTYPE
  5
16EC
330
16DC
100
AcDbSymbolTableRecord
100
AcDbLinetypeTableRecord
  2
CONTINUOUS
 70
     0
  3
実線
 72
    65
 73
     0
 40
0.0
  0
LTYPE
  5
16FF
330
16DC
100
AcDbSymbolTableRecord
100
AcDbLinetypeTableRecord
  2
DASHED
 70
     0
  3
__ __ __ __ __ __ __ __ __ __ __ __ __ __ __
 72
    65
 73
     2
 40
0.75
 49
0.5
 74
     0
 49
-0.25
 74
     0
  0
LTYPE
  5
1700
330
16DC
100
AcDbSymbolTableRecord
100
AcDbLinetypeTableRecord
  2
HIDDEN
 70
     0
  3
_ _ _ _ _ _ _ _ _ _ _ _ _ _ _ _ _ _ _ _ _ _ _
 72
    65
 73
     2
 40
0.375
 49
0.25
 74
     0
 49
-0.125
 74
     0
  0
LTYPE
  5
1701
330
16DC
100
AcDbSymbolTableRecord
100
AcDbLinetypeTableRecord
  2
CENTER
 70
     0
  3
____ _ ____ _ ____ _ ____ _ ____ _ ____ _ ____
 72
    65
 73
     4
 40
2.0
 49
1.25
 74
     0
 49
-0.25
 74
     0
 49
0.25
 74
     0
 49
-0.25
 74
     0
  0
LTYPE
  5
1702
330
16DC
100
AcDbSymbolTableRecord
100
AcDbLinetypeTableRecord
  2
PHANTOM
 70
     0
  3
_____ _ _ _____ _ _ _____ _ _ _____ _ _ ____
 72
    65
 73
     6
 40
2.5
 49
1.25
 74
     0
 49
-0.25
 74
     0
 49
0.25
 74
     0
 49
-0.25
 74
     0
 49
0.25
 74
     0
 49
-0.25
 74
     0
  0
LTYPE
  5
1703
330
16DC
100
AcDbSymbolTableRecord
100
AcDbLinetypeTableRecord
  2
DOT
 70
     0
  3
...............................................
 72
    65
 73
     2
 40
0.25
 49
0.0
 74
     0
 49
-0.25
 74
     0
  0
LTYPE
  5
1704
330
16DC
100
AcDbSymbolTableRecord
100
AcDbLinetypeTableRecord
  2
DASHDOT
 70
     0
  3
__ . __ . __ . __ . __ . __ . __ . __ . __ . __
 72
    65
 73
     4
 40
1.0
 49
0.5
 74
     0
 49
-0.25
 74
     0
 49
0.0
 74
     0
 49
-0.25
 74
     0
  0
LTYPE
  5
1705
330
16DC
100
AcDbSymbolTableRecord
100
AcDbLinetypeTableRecord
  2
BORDER
 70
     0
  3
__ __ . __ __ . __ __ . __ __ . __ __ . __ __
 72
    65
 73
     6
 40
1.75
 49
0.5
 74
     0
 49
-0.25
 74
     0
 49
0.5
 74
     0
 49
-0.25
 74
     0
 49
0.0
 74
     0
 49
-0.25
 74
     0
  0
LTYPE
  5
1706
330
16DC
100
AcDbSymbolTableRecord
100
AcDbLinetypeTableRecord
  2
DIVIDE
 70
     0
  3
__ . . __ . . __ . . __ . . __ . . __ . . __
 72
    65
 73
     6
 40
1.25
 49
0.5
 74
     0
 49
-0.25
 74
     0
 49
0.0
 74
     0
 49
-0.25
 74
     0
 49
0.0
 74
     0
 49
-0.25
 74
     0
  0
ENDTAB
  0
TABLE
  2
LAYER
  5
16D9
102
{ACAD_XDICTIONARY
360
17BE
102
}
330
0
100
AcDbSymbolTable
 70
     6
  0
LAYER
  5
16E7
102
{ACAD_XDICTIONARY
360
1924
102
}
330
16D9
100
AcDbSymbolTableRecord
100
AcDbLayerTableRecord
  2
0
 70
     0
 62
     7
  6
CONTINUOUS
370
    -3
390
16E6
  0
LAYER
  5
1707
330
16D9
100
AcDbSymbolTableRecord
100
AcDbLayerTableRecord
  2
DEFPOINTS
 70
     0
 62
     7
  6
CONTINUOUS
290
     0
370
    -3
390
16E6
  0
LAYER
  5
1708
102
{ACAD_XDICTIONARY
360
1926
102
}
330
16D9
100
AcDbSymbolTableRecord
100
AcDbLayerTableRecord
  2
ED
 70
     0
 62
     7
  6
CONTINUOUS
370
    -3
390
16E6
  0
LAYER
  5
1709
102
{ACAD_XDICTIONARY
360
1928
102
}
330
16D9
100
AcDbSymbolTableRecord
100
AcDbLayerTableRecord
  2
MO
 70
     0
 62
     7
  6
CONTINUOUS
370
    -3
390
16E6
  0
LAYER
  5
170A
102
{ACAD_XDICTIONARY
360
192A
102
}
330
16D9
100
AcDbSymbolTableRecord
100
AcDbLayerTableRecord
  2
1
 70
     0
 62
     7
  6
CONTINUOUS
370
    -3
390
16E6
  0
LAYER
  5
170B
102
{ACAD_XDICTIONARY
360
192C
102
}
330
16D9
100
AcDbSymbolTableRecord
100
AcDbLayerTableRecord
  2
SUNPO
 70
     0
 62
     7
  6
CONTINUOUS
370
    -3
390
16E6
  0
ENDTAB
  0
TABLE
  2
STYLE
  5
16DA
330
0
100
AcDbSymbolTable
 70
     2
  0
STYLE
  5
16E8
330
16DA
100
AcDbSymbolTableRecord
100
AcDbTextStyleTableRecord
  2
STANDARD
 70
     0
 40
0.0
 41
0.5
 50
0.0
 71
     0
 42
0.3
  3
txt.shx
  4
bigfont.shx
  0
STYLE
  5
16FD
330
16DA
100
AcDbSymbolTableRecord
100
AcDbTextStyleTableRecord
  2
BIGFONT
 70
     0
 40
0.0
 41
1.0
 50
0.0
 71
     0
 42
0.2
  3
MS PMincho.ttf
  4

1001
ACAD
1000
MS PMincho
1071
    32786
  0
ENDTAB
  0
TABLE
  2
VIEW
  5
16DD
330
0
100
AcDbSymbolTable
 70
     0
  0
ENDTAB
  0
TABLE
  2
UCS
  5
16DE
330
0
100
AcDbSymbolTable
 70
     0
  0
ENDTAB
  0
TABLE
  2
APPID
  5
16E0
330
0
100
AcDbSymbolTable
 70
     4
  0
APPID
  5
16E9
330
16E0
100
AcDbSymbolTableRecord
100
AcDbRegAppTableRecord
  2
ACAD
 70
     0
  0
APPID
  5
170C
330
16E0
100
AcDbSymbolTableRecord
100
AcDbRegAppTableRecord
  2
ACAD_DSTYLE_DIMTEXT_FILL
 70
     0
  0
APPID
  5
170D
330
16E0
100
AcDbSymbolTableRecord
100
AcDbRegAppTableRecord
  2
ACAD_PSEXT
 70
     0
  0
APPID
  5
191E
330
16E0
100
AcDbSymbolTableRecord
100
AcDbRegAppTableRecord
  2
ACAD_MLEADERVER
 70
     0
  0
ENDTAB
  0
TABLE
  2
DIMSTYLE
  5
16E1
330
0
100
AcDbSymbolTable
 70
     2
100
AcDbDimStyleTable
 71
     0
  0
DIMSTYLE
105
170E
102
{ACAD_REACTORS
330
135B
330
135C
330
135E
330
136B
330
136F
330
1371
330
1376
102
}
330
16E1
100
AcDbSymbolTableRecord
100
AcDbDimStyleTableRecord
  2
STANDARD
 70
     0
 41
3.0
 44
1.0
 73
     0
 74
     0
 77
     1
140
3.5
147
1.0
172
     1
279
     2
340
16FD
  0
DIMSTYLE
105
170F
330
16E1
100
AcDbSymbolTableRecord
100
AcDbDimStyleTableRecord
  2
ISO-25
 70
     0
 41
1.5
 42
0.625
 43
3.75
 44
0.0
 73
     0
 74
     0
 77
     1
 78
     8
140
1.5
141
1.5
143
0.03937007874016
147
0.625
171
     3
172
     1
174
     1
279
     2
340
16FD
  0
ENDTAB
  0
TABLE
  2
BLOCK_RECORD
  5
16D8
330
0
100
AcDbSymbolTable
 70
    12
  0
BLOCK_RECORD
  5
16F9
330
16D8
100
AcDbSymbolTableRecord
100
AcDbBlockTableRecord
  2
*Model_Space
340
16FC
  0
BLOCK_RECORD
  5
16F5
330
16D8
100
AcDbSymbolTableRecord
100
AcDbBlockTableRecord
  2
*Paper_Space
340
16F8
  0
BLOCK_RECORD
  5
1712
330
16D8
100
AcDbSymbolTableRecord
100
AcDbBlockTableRecord
  2
$MODEL_SPACE
340
0
  0
BLOCK_RECORD
  5
1714
330
16D8
100
AcDbSymbolTableRecord
100
AcDbBlockTableRecord
  2
$PAPER_SPACE
340
0
  0
BLOCK_RECORD
  5
1716
330
16D8
100
AcDbSymbolTableRecord
100
AcDbBlockTableRecord
  2
_OPEN30
340
0
  0
BLOCK_RECORD
  5
1718
330
16D8
100
AcDbSymbolTableRecord
100
AcDbBlockTableRecord
  2
_NONE
340
0
  0
BLOCK_RECORD
  5
172C
330
16D8
100
AcDbSymbolTableRecord
100
AcDbBlockTableRecord
  2
waku
340
0
310
2800000020000000200000000100080000000000000400000000000000000000000000000000000000000000000080000080000000808000800000008000800080800000C0C0C000C0DCC000F0CAA6000020400000206000002080000020A0000020C0000020E00000400000004020000040400000406000004080000040A0
310
000040C0000040E00000600000006020000060400000606000006080000060A0000060C0000060E00000800000008020000080400000806000008080000080A0000080C0000080E00000A0000000A0200000A0400000A0600000A0800000A0A00000A0C00000A0E00000C0000000C0200000C0400000C0600000C0800000C0
310
A00000C0C00000C0E00000E0000000E0200000E0400000E0600000E0800000E0A00000E0C00000E0E00040000000400020004000400040006000400080004000A0004000C0004000E00040200000402020004020400040206000402080004020A0004020C0004020E000404000004040200040404000404060004040800040
310
40A0004040C0004040E00040600000406020004060400040606000406080004060A0004060C0004060E00040800000408020004080400040806000408080004080A0004080C0004080E00040A0000040A0200040A0400040A0600040A0800040A0A00040A0C00040A0E00040C0000040C0200040C0400040C0600040C08000
310
40C0A00040C0C00040C0E00040E0000040E0200040E0400040E0600040E0800040E0A00040E0C00040E0E00080000000800020008000400080006000800080008000A0008000C0008000E00080200000802020008020400080206000802080008020A0008020C0008020E00080400000804020008040400080406000804080
310
008040A0008040C0008040E00080600000806020008060400080606000806080008060A0008060C0008060E00080800000808020008080400080806000808080008080A0008080C0008080E00080A0000080A0200080A0400080A0600080A0800080A0A00080A0C00080A0E00080C0000080C0200080C0400080C0600080C0
310
800080C0A00080C0C00080C0E00080E0000080E0200080E0400080E0600080E0800080E0A00080E0C00080E0E000C0000000C0002000C0004000C0006000C0008000C000A000C000C000C000E000C0200000C0202000C0204000C0206000C0208000C020A000C020C000C020E000C0400000C0402000C0404000C0406000C0
310
408000C040A000C040C000C040E000C0600000C0602000C0604000C0606000C0608000C060A000C060C000C060E000C0800000C0802000C0804000C0806000C0808000C080A000C080C000C080E000C0A00000C0A02000C0A04000C0A06000C0A08000C0A0A000C0A0C000C0A0E000C0C00000C0C02000C0C04000C0C06000
310
C0C08000C0C0A000F0FBFF00A4A0A000808080000000FF0000FF000000FFFF00FF000000FF00FF00FFFF0000FFFFFF00FFFFFFFFFFFFFFFFFFFFFFFFFFFFFFFFFFFFFFFFFFFFFFFFFFFFFFFFFFFFFFFFFFFFFFFFFFFF0000000000000000000000000000000000000000FFFFFFFFFFFFFFFFFFFFFFFF00FFFFFFFFFFFFFFFF
310
FFFFFFFFFFFFFFFFFFFF00FFFFFFFFFFFFFFFFFFFFFFFF00FFFFFFFFFFFFFFFFFFFFFFFFFFFFFFFFFFFF00FFFFFFFFFFFFFFFFFFFFFFFF00FFFFFFFFFFFFFFFFFFFFFFFFFFFFFFFFFFFF00FFFFFFFFFFFFFFFFFFFFFFFF00FFFFFFFFFFFFFFFFFFFFFFFFFFFFFFFFFFFF00FFFFFFFFFFFFFFFFFFFFFFFF00FFFFFFFFFFFFFF
310
FFFFFFFFFFFFFFFFFFFFFF00FFFFFFFFFFFFFFFFFFFFFFFF00FFFFFFFFFFFFFFFFFFFFFFFFFFFFFFFFFFFF00FFFFFFFFFFFFFFFFFFFFFFFF00FFFFFFFFFFFFFFFFFFFFFFFFFFFFFFFFFFFF00FFFFFFFFFFFFFFFFFFFFFFFF00FFFFFFFFFFFFFFFFFFFFFFFFFFFFFFFFFFFF00FFFFFFFFFFFFFFFFFFFFFFFF00FFFFFFFFFFFF
310
FFFFFFFFFFFFFFFFFFFFFFFF00FFFFFFFFFFFFFFFFFFFFFFFF00FFFFFFFFFFFFFFFFFFFFFFFFFFFFFFFFFFFF00FFFFFFFFFFFFFFFFFFFFFFFF00FFFFFFFFFFFFFFFFFFFFFFFFFFFFFFFFFFFF00FFFFFFFFFFFFFFFFFFFFFFFF00FFFFFFFFFFFFFFFFFFFFFFFFFFFFFFFFFFFF00FFFFFFFFFFFFFFFFFFFFFFFF00FFFFFFFFFF
310
FFFFFFFFFFFFFFFFFFFFFFFFFF00FFFFFFFFFFFFFFFFFFFFFFFF00FFFFFFFFFFFFFFFFFFFFFFFFFFFFFFFFFFFF00FFFFFFFFFFFFFFFFFFFFFFFF00FFFFFFFFFFFFFFFFFFFFFFFFFFFFFFFFFFFF00FFFFFFFFFFFFFFFFFFFFFFFF00FFFFFFFFFFFFFFFFFFFFFFFFFFFFFFFFFFFF00FFFFFFFFFFFFFFFFFFFFFFFF00FFFFFFFF
310
FFFFFFFFFFFFFFFFFFFFFFFFFFFF00FFFFFFFFFFFFFFFFFFFFFFFF00FFFFFFFFFFFFFFFFFFFFFFFFFFFFFFFFFFFF00FFFFFFFFFFFFFFFFFFFFFFFF00FFFFFFFFFFFFFFFFFFFFFFFFFFFFFFFFFFFF00FFFFFFFFFFFFFFFFFFFFFFFF00FFFFFFFFFFFFFFFFFFFFFFFFFFFFFFFFFFFF00FFFFFFFFFFFFFFFFFFFFFFFF00FFFFFF
310
FFFFFFFFFFFFFFFFFFFFFFFFFFFFFF00FFFFFFFFFFFFFFFFFFFFFFFF00FFFFFFFFFFFFFFFFFFFFFFFFFFFFFFFFFFFF00FFFFFFFFFFFFFFFFFFFFFFFF00FFFFFFFFFFFFFFFFFFFFFFFFFFFFFFFFFFFF00FFFFFFFFFFFFFFFFFFFFFFFF00FFFFFFFFFFFFFFFFFFFFFFFFFFFFFFFFFFFF00FFFFFFFFFFFFFFFFFFFFFFFF00FFFF
310
FFFFFFFFFFFFFFFFFFFFFFFFFFFFFFFF00FFFFFFFFFFFFFFFFFFFFFFFF00FFFFFFFFFFFFFFFFFFFFFFFFFFFFFFFFFFFF00FFFFFFFFFFFFFFFFFFFFFFFF00FFFFFFFFFFFFFFFFFFFFFFFFFFFFFFFFFFFF00FFFFFFFFFFFFFFFFFFFFFFFF00FFFFFFFFFFFFFFFFFFFFFFFFFFFFFFFFFFFF00FFFFFFFFFFFFFFFFFFFFFFFF0000
310
000000000000000000000000000000000000FFFFFFFFFFFFFFFFFFFFFFFFFFFFFFFFFFFFFFFFFFFFFFFFFFFFFFFFFFFFFFFFFFFFFFFFFFFF
102
{BLKREFS
331
174F
102
}
  0
BLOCK_RECORD
  5
17B2
330
16D8
100
AcDbSymbolTableRecord
100
AcDbBlockTableRecord
  2
*D5
340
0
  0
BLOCK_RECORD
  5
17E4
330
16D8
100
AcDbSymbolTableRecord
100
AcDbBlockTableRecord
  2
*D6
340
0
  0
BLOCK_RECORD
  5
17F0
330
16D8
100
AcDbSymbolTableRecord
100
AcDbBlockTableRecord
  2
*D7
340
0
  0
BLOCK_RECORD
  5
17FC
330
16D8
100
AcDbSymbolTableRecord
100
AcDbBlockTableRecord
  2
*D8
340
0
  0
BLOCK_RECORD
  5
1808
330
16D8
100
AcDbSymbolTableRecord
100
AcDbBlockTableRecord
  2
*D9
340
0
  0
BLOCK_RECORD
  5
1814
330
16D8
100
AcDbSymbolTableRecord
100
AcDbBlockTableRecord
  2
*D10
340
0
  0
BLOCK_RECORD
  5
1820
330
16D8
100
AcDbSymbolTableRecord
100
AcDbBlockTableRecord
  2
*D11
340
0
  0
ENDTAB
  0
ENDSEC
  0
SECTION
  2
BLOCKS
  0
BLOCK
  5
16FA
330
16F9
100
AcDbEntity
  8
0
100
AcDbBlockBegin
  2
*Model_Space
 70
     0
 10
0.0
 20
0.0
 30
0.0
  3
*Model_Space
  1

  0
ENDBLK
  5
16FB
330
16F9
100
AcDbEntity
  8
0
100
AcDbBlockEnd
  0
BLOCK
  5
16F6
330
16F5
100
AcDbEntity
 67
     1
  8
0
100
AcDbBlockBegin
  2
*Paper_Space
 70
     0
 10
0.0
 20
0.0
 30
0.0
  3
*Paper_Space
  1

  0
ENDBLK
  5
16F7
330
16F5
100
AcDbEntity
 67
     1
  8
0
100
AcDbBlockEnd
  0
BLOCK
  5
1713
330
1712
100
AcDbEntity
  8
0
100
AcDbBlockBegin
  2
$MODEL_SPACE
 70
     0
 10
0.0
 20
0.0
 30
0.0
  3
$MODEL_SPACE
  1

  0
ENDBLK
  5
1695
330
1712
100
AcDbEntity
  8
0
100
AcDbBlockEnd
  0
BLOCK
  5
1715
330
1714
100
AcDbEntity
  8
0
100
AcDbBlockBegin
  2
$PAPER_SPACE
 70
     0
 10
0.0
 20
0.0
 30
0.0
  3
$PAPER_SPACE
  1

  0
ENDBLK
  5
1691
330
1714
100
AcDbEntity
  8
0
100
AcDbBlockEnd
  0
BLOCK
  5
1717
330
1716
100
AcDbEntity
  8
0
100
AcDbBlockBegin
  2
_OPEN30
 70
     0
 10
0.0
 20
0.0
 30
0.0
  3
_OPEN30
  1

  0
LINE
  5
9B7
330
1716
100
AcDbEntity
  8
0
 62
     0
100
AcDbLine
 10
-1.0
 20
0.26794919
 30
0.0
 11
0.0
 21
0.0
 31
0.0
  0
LINE
  5
9B8
330
1716
100
AcDbEntity
  8
0
 62
     0
100
AcDbLine
 10
0.0
 20
0.0
 30
0.0
 11
-1.0
 21
-0.26794919
 31
0.0
  0
LINE
  5
9B9
330
1716
100
AcDbEntity
  8
0
 62
     0
100
AcDbLine
 10
0.0
 20
0.0
 30
0.0
 11
-1.0
 21
0.0
 31
0.0
  0
ENDBLK
  5
9BA
330
1716
100
AcDbEntity
  8
0
100
AcDbBlockEnd
  0
BLOCK
  5
1719
330
1718
100
AcDbEntity
  8
0
100
AcDbBlockBegin
  2
_NONE
 70
     0
 10
0.0
 20
0.0
 30
0.0
  3
_NONE
  1

  0
ENDBLK
  5
9BD
330
1718
100
AcDbEntity
  8
0
100
AcDbBlockEnd
  0
BLOCK
  5
172D
330
172C
100
AcDbEntity
  8
0
100
AcDbBlockBegin
  2
waku
 70
     0
 10
0.0
 20
0.0
 30
0.0
  3
waku
  1

  0
LINE
  5
172E
330
172C
100
AcDbEntity
  8
0
100
AcDbLine
 10
4.15
 20
8.274999999999998
 30
0.0
 11
189.375
 21
8.274999999999998
 31
0.0
  0
LINE
  5
172F
330
172C
100
AcDbEntity
  8
0
100
AcDbLine
 10
189.375
 20
8.274999999999998
 30
0.0
 11
189.375
 21
280.0749999999999
 31
0.0
  0
LINE
  5
1730
330
172C
100
AcDbEntity
  8
0
100
AcDbLine
 10
189.375
 20
280.0749999999999
 30
0.0
 11
4.15
 21
280.0749999999999
 31
0.0
  0
LINE
  5
1731
330
172C
100
AcDbEntity
  8
0
100
AcDbLine
 10
4.15
 20
280.0749999999999
 30
0.0
 11
4.15
 21
8.274999999999998
 31
0.0
  0
ENDBLK
  5
1732
330
172C
100
AcDbEntity
  8
0
100
AcDbBlockEnd
  0
BLOCK
  5
17BC
330
17B2
100
AcDbEntity
  8
0
100
AcDbBlockBegin
  2
*D5
 70
     1
 10
0.0
 20
0.0
 30
0.0
  3
*D5
  1

  0
LINE
  5
1887
330
17B2
100
AcDbEntity
  8
SUNPO
  6
Continuous
 62
     0
370
    -2
100
AcDbLine
 10
110.1374999999999
 20
183.6749999999998
 30
0.0
 11
103.6687499999998
 21
183.6749999999998
 31
0.0
  0
LINE
  5
1888
330
17B2
100
AcDbEntity
  8
SUNPO
  6
Continuous
 62
     0
370
    -2
100
AcDbLine
 10
110.1374999999999
 20
201.5749999999999
 30
0.0
 11
103.6687499999998
 21
201.5749999999999
 31
0.0
  0
LINE
  5
1889
330
17B2
100
AcDbEntity
  8
SUNPO
  6
Continuous
 62
     0
370
    -2
100
AcDbLine
 10
104.6687499999998
 20
186.6749999999998
 30
0.0
 11
104.6687499999998
 21
198.5749999999999
 31
0.0
  0
SOLID
  5
188A
330
17B2
100
AcDbEntity
  8
SUNPO
  6
Continuous
 62
     0
100
AcDbTrace
 10
104.1687499999998
 20
186.6749999999998
 30
0.0
 11
105.1687499999998
 21
186.6749999999998
 31
0.0
 12
104.6687499999998
 22
183.6749999999998
 32
0.0
 13
104.6687499999998
 23
183.6749999999998
 33
0.0
  0
SOLID
  5
188B
330
17B2
100
AcDbEntity
  8
SUNPO
  6
Continuous
 62
     0
100
AcDbTrace
 10
104.1687499999998
 20
198.5749999999999
 30
0.0
 11
105.1687499999998
 21
198.5749999999999
 31
0.0
 12
104.6687499999998
 22
201.5749999999999
 32
0.0
 13
104.6687499999998
 23
201.5749999999999
 33
0.0
  0
MTEXT
  5
188C
330
17B2
100
AcDbEntity
  8
SUNPO
  6
Continuous
 62
     0
100
AcDbMText
 10
101.9187499999998
 20
192.6249999999999
 30
0.0
 40
3.5
 41
0.0
 71
     5
 72
     1
  1
\A1;18
  7
BIGFONT
 11
0.0000000000000001
 21
1.0
 31
0.0
 73
     1
 44
1.0
1001
ACAD
1000
MTEXTBEGIN
1070
    73
1070
     1
1070
    44
1040
1.0
1070
    74
1070
     0
1000
MTEXTEND
  0
POINT
  5
188D
330
17B2
100
AcDbEntity
  8
DEFPOINTS
  6
Continuous
 62
     0
100
AcDbPoint
 10
110.1999999999999
 20
183.6749999999998
 30
0.0
  0
POINT
  5
188E
330
17B2
100
AcDbEntity
  8
DEFPOINTS
  6
Continuous
 62
     0
100
AcDbPoint
 10
110.1999999999999
 20
201.5749999999999
 30
0.0
  0
POINT
  5
188F
330
17B2
100
AcDbEntity
  8
DEFPOINTS
  6
Continuous
 62
     0
100
AcDbPoint
 10
104.6687499999998
 20
201.5749999999999
 30
0.0
  0
ENDBLK
  5
17BD
330
17B2
100
AcDbEntity
  8
0
100
AcDbBlockEnd
  0
BLOCK
  5
17EE
330
17E4
100
AcDbEntity
  8
0
100
AcDbBlockBegin
  2
*D6
 70
     1
 10
0.0
 20
0.0
 30
0.0
  3
*D6
  1

  0
LINE
  5
1875
330
17E4
100
AcDbEntity
  8
SUNPO
  6
Continuous
 62
     0
370
    -2
100
AcDbLine
 10
25.12499999999999
 20
134.4624999999997
 30
0.0
 11
25.12499999999999
 21
118.6249999999997
 31
0.0
  0
LINE
  5
1876
330
17E4
100
AcDbEntity
  8
SUNPO
  6
Continuous
 62
     0
370
    -2
100
AcDbLine
 10
95.09999999999987
 20
134.4874999999999
 30
0.0
 11
95.09999999999987
 21
118.6249999999997
 31
0.0
  0
LINE
  5
1877
330
17E4
100
AcDbEntity
  8
SUNPO
  6
Continuous
 62
     0
370
    -2
100
AcDbLine
 10
28.12499999999999
 20
119.6249999999997
 30
0.0
 11
92.09999999999986
 21
119.6249999999997
 31
0.0
  0
SOLID
  5
1878
330
17E4
100
AcDbEntity
  8
SUNPO
  6
Continuous
 62
     0
100
AcDbTrace
 10
28.12499999999999
 20
120.1249999999997
 30
0.0
 11
28.12499999999999
 21
119.1249999999997
 31
0.0
 12
25.12499999999999
 22
119.6249999999997
 32
0.0
 13
25.12499999999999
 23
119.6249999999997
 33
0.0
  0
SOLID
  5
1879
330
17E4
100
AcDbEntity
  8
SUNPO
  6
Continuous
 62
     0
100
AcDbTrace
 10
92.09999999999986
 20
120.1249999999997
 30
0.0
 11
92.09999999999986
 21
119.1249999999997
 31
0.0
 12
95.09999999999987
 22
119.6249999999997
 32
0.0
 13
95.09999999999987
 23
119.6249999999997
 33
0.0
  0
MTEXT
  5
187A
330
17E4
100
AcDbEntity
  8
SUNPO
  6
Continuous
 62
     0
100
AcDbMText
 10
60.11249999999993
 20
122.3749999999997
 30
0.0
 40
3.5
 41
0.0
 71
     5
 72
     1
  1
\A1;70
  7
BIGFONT
 73
     1
 44
1.0
1001
ACAD
1000
MTEXTBEGIN
1070
    73
1070
     1
1070
    44
1040
1.0
1070
    74
1070
     0
1000
MTEXTEND
  0
POINT
  5
187B
330
17E4
100
AcDbEntity
  8
DEFPOINTS
  6
Continuous
 62
     0
100
AcDbPoint
 10
25.12499999999999
 20
134.5249999999997
 30
0.0
  0
POINT
  5
187C
330
17E4
100
AcDbEntity
  8
DEFPOINTS
  6
Continuous
 62
     0
100
AcDbPoint
 10
95.09999999999987
 20
134.5499999999999
 30
0.0
  0
POINT
  5
187D
330
17E4
100
AcDbEntity
  8
DEFPOINTS
  6
Continuous
 62
     0
100
AcDbPoint
 10
95.09999999999987
 20
119.6249999999997
 30
0.0
  0
ENDBLK
  5
17EF
330
17E4
100
AcDbEntity
  8
0
100
AcDbBlockEnd
  0
BLOCK
  5
17FA
330
17F0
100
AcDbEntity
  8
0
100
AcDbBlockBegin
  2
*D7
 70
     1
 10
0.0
 20
0.0
 30
0.0
  3
*D7
  1

  0
LINE
  5
1899
330
17F0
100
AcDbEntity
  8
SUNPO
  6
Continuous
 62
     0
370
    -2
100
AcDbLine
 10
48.20000000000001
 20
183.5624999999999
 30
0.0
 11
48.20000000000001
 21
171.4962163341907
 31
0.0
  0
LINE
  5
189A
330
17F0
100
AcDbEntity
  8
SUNPO
  6
Continuous
 62
     0
370
    -2
100
AcDbLine
 10
72.19999999999997
 20
183.5624999999999
 30
0.0
 11
72.19999999999997
 21
171.4962163341907
 31
0.0
  0
LINE
  5
189B
330
17F0
100
AcDbEntity
  8
SUNPO
  6
Continuous
 62
     0
370
    -2
100
AcDbLine
 10
51.2
 20
172.4962163341907
 30
0.0
 11
69.19999999999998
 21
172.4962163341907
 31
0.0
  0
SOLID
  5
189C
330
17F0
100
AcDbEntity
  8
SUNPO
  6
Continuous
 62
     0
100
AcDbTrace
 10
51.2
 20
172.9962163341907
 30
0.0
 11
51.2
 21
171.9962163341907
 31
0.0
 12
48.20000000000001
 22
172.4962163341907
 32
0.0
 13
48.20000000000001
 23
172.4962163341907
 33
0.0
  0
SOLID
  5
189D
330
17F0
100
AcDbEntity
  8
SUNPO
  6
Continuous
 62
     0
100
AcDbTrace
 10
69.19999999999998
 20
172.9962163341907
 30
0.0
 11
69.19999999999998
 21
171.9962163341907
 31
0.0
 12
72.19999999999997
 22
172.4962163341907
 32
0.0
 13
72.19999999999997
 23
172.4962163341907
 33
0.0
  0
MTEXT
  5
189E
330
17F0
100
AcDbEntity
  8
SUNPO
  6
Continuous
 62
     0
100
AcDbMText
 10
60.19999999999999
 20
175.2462163341907
 30
0.0
 40
3.5
 41
0.0
 71
     5
 72
     1
  1
\A1;24
  7
BIGFONT
 73
     1
 44
1.0
1001
ACAD
1000
MTEXTBEGIN
1070
    73
1070
     1
1070
    44
1040
1.0
1070
    74
1070
     0
1000
MTEXTEND
  0
POINT
  5
189F
330
17F0
100
AcDbEntity
  8
DEFPOINTS
  6
Continuous
 62
     0
100
AcDbPoint
 10
48.20000000000001
 20
183.6249999999999
 30
0.0
  0
POINT
  5
18A0
330
17F0
100
AcDbEntity
  8
DEFPOINTS
  6
Continuous
 62
     0
100
AcDbPoint
 10
72.19999999999997
 20
183.6249999999999
 30
0.0
  0
POINT
  5
18A1
330
17F0
100
AcDbEntity
  8
DEFPOINTS
  6
Continuous
 62
     0
100
AcDbPoint
 10
72.19999999999997
 20
172.4962163341907
 30
0.0
  0
ENDBLK
  5
17FB
330
17F0
100
AcDbEntity
  8
0
100
AcDbBlockEnd
  0
BLOCK
  5
1806
330
17FC
100
AcDbEntity
  8
0
100
AcDbBlockBegin
  2
*D8
 70
     1
 10
0.0
 20
0.0
 30
0.0
  3
*D8
  1

  0
LINE
  5
187E
330
17FC
100
AcDbEntity
  8
SUNPO
  6
Continuous
 62
     0
370
    -2
100
AcDbLine
 10
26.9625
 20
132.6249999999998
 30
0.0
 11
14.12499999999998
 21
132.6249999999998
 31
0.0
  0
LINE
  5
187F
330
17FC
100
AcDbEntity
  8
SUNPO
  6
Continuous
 62
     0
370
    -2
100
AcDbLine
 10
26.9625
 20
252.6249999999999
 30
0.0
 11
14.125
 21
252.6249999999999
 31
0.0
  0
LINE
  5
1880
330
17FC
100
AcDbEntity
  8
SUNPO
  6
Continuous
 62
     0
370
    -2
100
AcDbLine
 10
15.12499999999998
 20
135.6249999999998
 30
0.0
 11
15.125
 21
249.6249999999999
 31
0.0
  0
SOLID
  5
1881
330
17FC
100
AcDbEntity
  8
SUNPO
  6
Continuous
 62
     0
100
AcDbTrace
 10
14.62499999999998
 20
135.6249999999998
 30
0.0
 11
15.62499999999998
 21
135.6249999999998
 31
0.0
 12
15.12499999999998
 22
132.6249999999998
 32
0.0
 13
15.12499999999998
 23
132.6249999999998
 33
0.0
  0
SOLID
  5
1882
330
17FC
100
AcDbEntity
  8
SUNPO
  6
Continuous
 62
     0
100
AcDbTrace
 10
14.625
 20
249.6249999999999
 30
0.0
 11
15.625
 21
249.6249999999999
 31
0.0
 12
15.12500000000001
 22
252.6249999999999
 32
0.0
 13
15.12500000000001
 23
252.6249999999999
 33
0.0
  0
MTEXT
  5
1883
330
17FC
100
AcDbEntity
  8
SUNPO
  6
Continuous
 62
     0
100
AcDbMText
 10
12.37499999999996
 20
192.6249999999998
 30
0.0
 40
3.5
 41
0.0
 71
     5
 72
     1
  1
\A1;120
  7
BIGFONT
 11
0.0000000000000001
 21
1.0
 31
0.0
 73
     1
 44
1.0
1001
ACAD
1000
MTEXTBEGIN
1070
    73
1070
     1
1070
    44
1040
1.0
1070
    74
1070
     0
1000
MTEXTEND
  0
POINT
  5
1884
330
17FC
100
AcDbEntity
  8
DEFPOINTS
  6
Continuous
 62
     0
100
AcDbPoint
 10
27.025
 20
132.6249999999998
 30
0.0
  0
POINT
  5
1885
330
17FC
100
AcDbEntity
  8
DEFPOINTS
  6
Continuous
 62
     0
100
AcDbPoint
 10
27.025
 20
252.6249999999999
 30
0.0
  0
POINT
  5
1886
330
17FC
100
AcDbEntity
  8
DEFPOINTS
  6
Continuous
 62
     0
100
AcDbPoint
 10
15.12500000000001
 20
252.6249999999999
 30
0.0
  0
ENDBLK
  5
1807
330
17FC
100
AcDbEntity
  8
0
100
AcDbBlockEnd
  0
BLOCK
  5
1812
330
1808
100
AcDbEntity
  8
0
100
AcDbBlockBegin
  2
*D9
 70
     1
 10
0.0
 20
0.0
 30
0.0
  3
*D9
  1

  0
LINE
  5
186C
330
1808
100
AcDbEntity
  8
SUNPO
  6
Continuous
 62
     0
370
    -2
100
AcDbLine
 10
119.125
 20
137.2124999999998
 30
0.0
 11
119.125
 21
118.1249999999997
 31
0.0
  0
LINE
  5
186D
330
1808
100
AcDbEntity
  8
SUNPO
  6
Continuous
 62
     0
370
    -2
100
AcDbLine
 10
110.1374999999997
 20
183.6124999999998
 30
0.0
 11
110.1374999999997
 21
118.1249999999997
 31
0.0
  0
LINE
  5
186E
330
1808
100
AcDbEntity
  8
SUNPO
  6
Continuous
 62
     0
370
    -2
100
AcDbLine
 10
116.125
 20
119.1249999999997
 30
0.0
 11
113.1374999999997
 21
119.1249999999997
 31
0.0
  0
SOLID
  5
186F
330
1808
100
AcDbEntity
  8
SUNPO
  6
Continuous
 62
     0
100
AcDbTrace
 10
116.125
 20
119.6249999999997
 30
0.0
 11
116.125
 21
118.6249999999997
 31
0.0
 12
119.125
 22
119.1249999999997
 32
0.0
 13
119.125
 23
119.1249999999997
 33
0.0
  0
SOLID
  5
1870
330
1808
100
AcDbEntity
  8
SUNPO
  6
Continuous
 62
     0
100
AcDbTrace
 10
113.1374999999997
 20
119.6249999999997
 30
0.0
 11
113.1374999999997
 21
118.6249999999997
 31
0.0
 12
110.1374999999997
 22
119.1249999999997
 32
0.0
 13
110.1374999999997
 23
119.1249999999997
 33
0.0
  0
MTEXT
  5
1871
330
1808
100
AcDbEntity
  8
SUNPO
  6
Continuous
 62
     0
100
AcDbMText
 10
114.6312499999998
 20
121.8749999999997
 30
0.0
 40
3.5
 41
0.0
 71
     5
 72
     1
  1
\A1;9
  7
BIGFONT
 73
     1
 44
1.0
1001
ACAD
1000
MTEXTBEGIN
1070
    73
1070
     1
1070
    44
1040
1.0
1070
    74
1070
     0
1000
MTEXTEND
  0
POINT
  5
1872
330
1808
100
AcDbEntity
  8
DEFPOINTS
  6
Continuous
 62
     0
100
AcDbPoint
 10
119.125
 20
137.2749999999998
 30
0.0
  0
POINT
  5
1873
330
1808
100
AcDbEntity
  8
DEFPOINTS
  6
Continuous
 62
     0
100
AcDbPoint
 10
110.1374999999997
 20
183.6749999999998
 30
0.0
  0
POINT
  5
1874
330
1808
100
AcDbEntity
  8
DEFPOINTS
  6
Continuous
 62
     0
100
AcDbPoint
 10
110.1374999999997
 20
119.1249999999997
 30
0.0
  0
ENDBLK
  5
1813
330
1808
100
AcDbEntity
  8
0
100
AcDbBlockEnd
  0
BLOCK
  5
181E
330
1814
100
AcDbEntity
  8
0
100
AcDbBlockBegin
  2
*D10
 70
     1
 10
0.0
 20
0.0
 30
0.0
  3
*D10
  1

  0
LINE
  5
1863
330
1814
100
AcDbEntity
  8
SUNPO
  6
Continuous
 62
     0
370
    -2
100
AcDbLine
 10
125.125
 20
132.4999999999998
 30
0.0
 11
125.125
 21
118.1249999999997
 31
0.0
  0
LINE
  5
1864
330
1814
100
AcDbEntity
  8
SUNPO
  6
Continuous
 62
     0
370
    -2
100
AcDbLine
 10
146.125
 20
184.5624999999999
 30
0.0
 11
146.125
 21
118.1249999999997
 31
0.0
  0
LINE
  5
1865
330
1814
100
AcDbEntity
  8
SUNPO
  6
Continuous
 62
     0
370
    -2
100
AcDbLine
 10
128.125
 20
119.1249999999997
 30
0.0
 11
143.125
 21
119.1249999999997
 31
0.0
  0
SOLID
  5
1866
330
1814
100
AcDbEntity
  8
SUNPO
  6
Continuous
 62
     0
100
AcDbTrace
 10
128.125
 20
119.6249999999997
 30
0.0
 11
128.125
 21
118.6249999999997
 31
0.0
 12
125.125
 22
119.1249999999997
 32
0.0
 13
125.125
 23
119.1249999999997
 33
0.0
  0
SOLID
  5
1867
330
1814
100
AcDbEntity
  8
SUNPO
  6
Continuous
 62
     0
100
AcDbTrace
 10
143.125
 20
119.6249999999997
 30
0.0
 11
143.125
 21
118.6249999999997
 31
0.0
 12
146.125
 22
119.1249999999997
 32
0.0
 13
146.125
 23
119.1249999999997
 33
0.0
  0
MTEXT
  5
1868
330
1814
100
AcDbEntity
  8
SUNPO
  6
Continuous
 62
     0
100
AcDbMText
 10
135.625
 20
121.8749999999997
 30
0.0
 40
3.5
 41
0.0
 71
     5
 72
     1
  1
\A1;21
  7
BIGFONT
 73
     1
 44
1.0
1001
ACAD
1000
MTEXTBEGIN
1070
    73
1070
     1
1070
    44
1040
1.0
1070
    74
1070
     0
1000
MTEXTEND
  0
POINT
  5
1869
330
1814
100
AcDbEntity
  8
DEFPOINTS
  6
Continuous
 62
     0
100
AcDbPoint
 10
125.125
 20
132.5624999999998
 30
0.0
  0
POINT
  5
186A
330
1814
100
AcDbEntity
  8
DEFPOINTS
  6
Continuous
 62
     0
100
AcDbPoint
 10
146.125
 20
184.6249999999999
 30
0.0
  0
POINT
  5
186B
330
1814
100
AcDbEntity
  8
DEFPOINTS
  6
Continuous
 62
     0
100
AcDbPoint
 10
146.125
 20
119.1249999999997
 30
0.0
  0
ENDBLK
  5
181F
330
1814
100
AcDbEntity
  8
0
100
AcDbBlockEnd
  0
BLOCK
  5
182C
330
1820
100
AcDbEntity
  8
0
100
AcDbBlockBegin
  2
*D11
 70
     1
 10
0.0
 20
0.0
 30
0.0
  3
*D11
  1

  0
LINE
  5
1858
330
1820
100
AcDbEntity
  8
SUNPO
  6
Continuous
 62
     0
370
    -2
100
AcDbLine
 10
119.125
 20
137.2124999999998
 30
0.0
 11
119.125
 21
118.1249999999997
 31
0.0
  0
LINE
  5
1859
330
1820
100
AcDbEntity
  8
SUNPO
  6
Continuous
 62
     0
370
    -2
100
AcDbLine
 10
125.125
 20
132.5624999999998
 30
0.0
 11
125.125
 21
118.1249999999997
 31
0.0
  0
LINE
  5
185A
330
1820
100
AcDbEntity
  8
SUNPO
  6
Continuous
 62
     0
370
    -2
100
AcDbLine
 10
116.125
 20
119.1249999999997
 30
0.0
 11
113.125
 21
119.1249999999997
 31
0.0
  0
LINE
  5
185B
330
1820
100
AcDbEntity
  8
SUNPO
  6
Continuous
 62
     0
370
    -2
100
AcDbLine
 10
128.125
 20
119.1249999999997
 30
0.0
 11
131.125
 21
119.1249999999997
 31
0.0
  0
LINE
  5
185C
330
1820
100
AcDbEntity
  8
SUNPO
  6
Continuous
 62
     0
370
    -2
100
AcDbLine
 10
119.125
 20
119.1249999999997
 30
0.0
 11
125.125
 21
119.1249999999997
 31
0.0
  0
SOLID
  5
185D
330
1820
100
AcDbEntity
  8
SUNPO
  6
Continuous
 62
     0
100
AcDbTrace
 10
116.125
 20
119.6249999999997
 30
0.0
 11
116.125
 21
118.6249999999997
 31
0.0
 12
119.125
 22
119.1249999999997
 32
0.0
 13
119.125
 23
119.1249999999997
 33
0.0
  0
SOLID
  5
185E
330
1820
100
AcDbEntity
  8
SUNPO
  6
Continuous
 62
     0
100
AcDbTrace
 10
128.125
 20
119.6249999999997
 30
0.0
 11
128.125
 21
118.6249999999997
 31
0.0
 12
125.125
 22
119.1249999999997
 32
0.0
 13
125.125
 23
119.1249999999997
 33
0.0
  0
MTEXT
  5
185F
330
1820
100
AcDbEntity
  8
SUNPO
  6
Continuous
 62
     0
100
AcDbMText
 10
122.125
 20
121.8749999999997
 30
0.0
 40
3.5
 41
0.0
 71
     5
 72
     1
  1
\A1;6
  7
BIGFONT
 73
     1
 44
1.0
1001
ACAD
1000
MTEXTBEGIN
1070
    73
1070
     1
1070
    44
1040
1.0
1070
    74
1070
     0
1000
MTEXTEND
  0
POINT
  5
1860
330
1820
100
AcDbEntity
  8
DEFPOINTS
  6
Continuous
 62
     0
100
AcDbPoint
 10
119.125
 20
137.2749999999998
 30
0.0
  0
POINT
  5
1861
330
1820
100
AcDbEntity
  8
DEFPOINTS
  6
Continuous
 62
     0
100
AcDbPoint
 10
125.125
 20
132.6249999999998
 30
0.0
  0
POINT
  5
1862
330
1820
100
AcDbEntity
  8
DEFPOINTS
  6
Continuous
 62
     0
100
AcDbPoint
 10
125.125
 20
119.1249999999997
 30
0.0
  0
ENDBLK
  5
182D
330
1820
100
AcDbEntity
  8
0
100
AcDbBlockEnd
  0
ENDSEC
  0
SECTION
  2
ENTITIES
  0
LINE
  5
979
330
16F9
100
AcDbEntity
  8
0
100
AcDbLine
 10
14.775
 20
65.27500000000002
 30
0.0
 11
14.775
 21
35.27500000000003
 31
0.0
  0
LINE
  5
97A
330
16F9
100
AcDbEntity
  8
0
100
AcDbLine
 10
14.775
 20
35.27500000000003
 30
0.0
 11
159.0249999999998
 21
35.27499999999992
 31
0.0
  0
LINE
  5
97E
330
16F9
100
AcDbEntity
  8
0
100
AcDbLine
 10
14.775
 20
47.27500000000001
 30
0.0
 11
159.0249999999998
 21
47.27499999999993
 31
0.0
  0
LINE
  5
97F
330
16F9
100
AcDbEntity
  8
0
100
AcDbLine
 10
14.775
 20
53.27500000000002
 30
0.0
 11
159.0249999999998
 21
53.27499999999997
 31
0.0
  0
LINE
  5
980
330
16F9
100
AcDbEntity
  8
0
100
AcDbLine
 10
14.775
 20
59.27500000000001
 30
0.0
 11
159.0249999999998
 21
59.27499999999996
 31
0.0
  0
LINE
  5
981
330
16F9
100
AcDbEntity
  8
0
100
AcDbLine
 10
14.775
 20
65.27500000000002
 30
0.0
 11
159.0249999999998
 21
65.27499999999993
 31
0.0
  0
LINE
  5
984
330
16F9
100
AcDbEntity
  8
0
100
AcDbLine
 10
39.775
 20
65.27500000000002
 30
0.0
 11
39.775
 21
35.27500000000003
 31
0.0
  0
LINE
  5
985
330
16F9
100
AcDbEntity
  8
0
100
AcDbLine
 10
159.0249999999998
 20
65.27499999999996
 30
0.0
 11
159.0249999999998
 21
35.27499999999997
 31
0.0
  0
TEXT
  5
9A6
330
16F9
100
AcDbEntity
  8
0
100
AcDbText
 10
16.58002776698185
 20
66.85000000000002
 30
0.0
 40
3.5
  1
仕　　様
  7
BIGFONT
100
AcDbText
  0
TEXT
  5
9A7
330
16F9
100
AcDbEntity
  8
0
100
AcDbText
 10
16.68002776698185
 20
60.575
 30
0.0
 40
3.5
  1
名　　称
  7
BIGFONT
100
AcDbText
  0
TEXT
  5
ED4
330
16F9
100
AcDbEntity
  8
0
100
AcDbText
 10
56.68002776698185
 20
60.575
 30
0.0
 40
3.5
  1
規　　格
  7
BIGFONT
100
AcDbText
  0
TEXT
  5
ED5
330
16F9
100
AcDbEntity
  8
0
100
AcDbText
 10
16.68002776698185
 20
54.57500000000002
 30
0.0
 40
3.5
  1
スイッチ
  7
BIGFONT
100
AcDbText
  0
TEXT
  5
ED6
330
16F9
100
AcDbEntity
  8
0
100
AcDbText
 10
41.68002776698185
 20
54.57500000000002
 30
0.0
 40
3.5
  1
ノンロック・照光式
  7
BIGFONT
100
AcDbText
  0
TEXT
  5
ED7
330
16F9
100
AcDbEntity
  8
0
100
AcDbText
 10
16.68002776698185
 20
48.57500000000001
 30
0.0
 40
3.5
  1
取　　付
  7
BIGFONT
100
AcDbText
  0
TEXT
  5
ED8
330
16F9
100
AcDbEntity
  8
0
100
AcDbText
 10
41.68002776698185
 20
48.57500000000001
 30
0.0
 40
3.5
  1
１個用スイッチＢＯＸ対応
  7
BIGFONT
100
AcDbText
  0
TEXT
  5
ED9
330
16F9
100
AcDbEntity
  8
0
100
AcDbText
 10
16.68002776698185
 20
42.57500000000001
 30
0.0
 40
3.5
  1
枠プレート
  7
BIGFONT
100
AcDbText
  0
TEXT
  5
EDA
330
16F9
100
AcDbEntity
  8
0
100
AcDbText
 10
41.68002776698185
 20
42.57500000000001
 30
0.0
 40
3.5
  1
フルカラーモダンプレート
  7
BIGFONT
100
AcDbText
  0
TEXT
  5
EE8
330
16F9
100
AcDbEntity
  8
0
100
AcDbText
 10
104.8034211128719
 20
239.9898626855891
 30
0.0
 40
3.5
  1
1
  7
BIGFONT
100
AcDbText
  0
LINE
  5
EED
330
16F9
100
AcDbEntity
  8
0
  6
Continuous
100
AcDbLine
 10
78.29968496122862
 20
226.4103578358399
 30
0.0
 11
103.5484147033649
 21
240.3553911662611
 31
0.0
  0
TEXT
  5
EEE
330
16F9
100
AcDbEntity
  8
0
100
AcDbText
 10
104.9306757570331
 20
213.5043297112257
 30
0.0
 40
3.5
  1
2
  7
BIGFONT
100
AcDbText
  0
LINE
  5
EF0
330
16F9
100
AcDbEntity
  8
0
  6
Continuous
100
AcDbLine
 10
72.19999999999998
 20
195.9887564179781
 30
0.0
 11
103.5674465060029
 21
213.9544149983348
 31
0.0
  0
TEXT
  5
EF1
330
16F9
100
AcDbEntity
  8
0
100
AcDbText
 10
151.2557950589805
 20
213.5022480753929
 30
0.0
 40
3.5
  1
3
  7
BIGFONT
100
AcDbText
  0
LINE
  5
EF3
330
16F9
100
AcDbEntity
  8
0
  6
Continuous
100
AcDbLine
 10
156.1249999999999
 20
194.6249999999999
 30
0.0
 11
152.5463917044041
 21
212.7422266949866
 31
0.0
  0
TEXT
  5
EF4
330
16F9
100
AcDbEntity
  8
0
100
AcDbText
 10
158.8242549870793
 20
213.483544952243
 30
0.0
 40
3.5
  1
4
  7
BIGFONT
100
AcDbText
  0
LINE
  5
EF6
330
16F9
100
AcDbEntity
  8
0
  6
Continuous
100
AcDbLine
 10
162.1249999999999
 20
194.6249999999999
 30
0.0
 11
159.9316504404954
 21
212.6943524356684
 31
0.0
  0
LINE
  5
F0E
330
16F9
100
AcDbEntity
  8
0
100
AcDbLine
 10
119.25
 20
107.275
 30
0.0
 11
119.25
 21
77.275
 31
0.0
  0
LINE
  5
F0F
330
16F9
100
AcDbEntity
  8
0
100
AcDbLine
 10
119.25
 20
77.275
 30
0.0
 11
178.875
 21
77.27499999999998
 31
0.0
  0
LINE
  5
F10
330
16F9
100
AcDbEntity
  8
0
100
AcDbLine
 10
119.25
 20
83.275
 30
0.0
 11
178.875
 21
83.275
 31
0.0
  0
LINE
  5
F11
330
16F9
100
AcDbEntity
  8
0
100
AcDbLine
 10
119.25
 20
89.275
 30
0.0
 11
178.875
 21
89.275
 31
0.0
  0
LINE
  5
F12
330
16F9
100
AcDbEntity
  8
0
100
AcDbLine
 10
119.25
 20
101.275
 30
0.0
 11
178.875
 21
101.275
 31
0.0
  0
LINE
  5
F16
330
16F9
100
AcDbEntity
  8
0
100
AcDbLine
 10
119.25
 20
107.275
 30
0.0
 11
178.875
 21
107.275
 31
0.0
  0
LINE
  5
F17
330
16F9
100
AcDbEntity
  8
0
100
AcDbLine
 10
129.2499999999998
 20
107.275
 30
0.0
 11
129.2499999999998
 21
77.275
 31
0.0
  0
LINE
  5
F18
330
16F9
100
AcDbEntity
  8
0
100
AcDbLine
 10
178.875
 20
107.275
 30
0.0
 11
178.875
 21
77.275
 31
0.0
  0
TEXT
  5
F22
330
16F9
100
AcDbEntity
  8
0
100
AcDbText
 10
131.1550277669818
 20
90.575
 30
0.0
 40
3.5
  1
押釦スイッチ（赤色）
  7
BIGFONT
100
AcDbText
  0
TEXT
  5
F24
330
16F9
100
AcDbEntity
  8
0
100
AcDbText
 10
131.1550277669818
 20
84.57500000000001
 30
0.0
 40
3.5
  1
接続コネクタ
  7
BIGFONT
100
AcDbText
  0
TEXT
  5
F26
330
16F9
100
AcDbEntity
  8
0
100
AcDbText
 10
131.1550277669818
 20
78.57500000000001
 30
0.0
 40
3.5
  1
付属コネクタ
  7
BIGFONT
100
AcDbText
  0
TEXT
  5
F29
330
16F9
100
AcDbEntity
  8
0
100
AcDbText
 10
120.4050277669816
 20
102.5749999999999
 30
0.0
 40
3.5
  1
番号
  7
BIGFONT
100
AcDbText
  0
TEXT
  5
F2A
330
16F9
100
AcDbEntity
  8
0
100
AcDbText
 10
141.1550277669818
 20
102.5749999999999
 30
0.0
 40
3.5
  1
　名　称
  7
BIGFONT
100
AcDbText
  0
CIRCLE
  5
F31
330
16F9
100
AcDbEntity
  8
0
  6
Continuous
100
AcDbCircle
 10
105.7368197964742
 20
241.564061157803
 30
0.0
 40
2.5
  0
CIRCLE
  5
F33
330
16F9
100
AcDbEntity
  8
0
  6
Continuous
100
AcDbCircle
 10
105.7368197964742
 20
215.1969203410153
 30
0.0
 40
2.5
  0
CIRCLE
  5
F34
330
16F9
100
AcDbEntity
  8
0
  6
Continuous
100
AcDbCircle
 10
152.0619390984213
 20
215.1948387051823
 30
0.0
 40
2.5
  0
CIRCLE
  5
F35
330
16F9
100
AcDbEntity
  8
0
  6
Continuous
100
AcDbCircle
 10
159.63039902652
 20
215.1761355820327
 30
0.0
 40
2.5
  0
TEXT
  5
F43
330
16F9
100
AcDbEntity
  8
0
100
AcDbText
 10
123.4438559605591
 20
90.52680473786312
 30
0.0
 40
3.5
  1
2
  7
BIGFONT
100
AcDbText
  0
CIRCLE
  5
F44
330
16F9
100
AcDbEntity
  8
0
  6
Continuous
100
AcDbCircle
 10
124.2499999999999
 20
92.275
 30
0.0
 40
2.5
  0
TEXT
  5
F45
330
16F9
100
AcDbEntity
  8
0
100
AcDbText
 10
123.4438559605591
 20
84.52680473786314
 30
0.0
 40
3.5
  1
3
  7
BIGFONT
100
AcDbText
  0
CIRCLE
  5
F46
330
16F9
100
AcDbEntity
  8
0
  6
Continuous
100
AcDbCircle
 10
124.2499999999999
 20
86.27500000000003
 30
0.0
 40
2.5
  0
TEXT
  5
F47
330
16F9
100
AcDbEntity
  8
0
100
AcDbText
 10
123.4438559605591
 20
78.52680473786306
 30
0.0
 40
3.5
  1
4
  7
BIGFONT
100
AcDbText
  0
CIRCLE
  5
F48
330
16F9
100
AcDbEntity
  8
0
  6
Continuous
100
AcDbCircle
 10
124.2499999999999
 20
80.27500000000001
 30
0.0
 40
2.5
  0
LINE
  5
1359
330
16F9
100
AcDbEntity
  8
0
100
AcDbLine
 10
27.07500000000002
 20
252.6249999999999
 30
0.0
 11
93.175
 21
252.6249999999999
 31
0.0
  0
LINE
  5
135A
330
16F9
100
AcDbEntity
  8
0
100
AcDbLine
 10
93.175
 20
132.6249999999998
 30
0.0
 11
27.07500000000002
 21
132.6249999999998
 31
0.0
  0
DIMENSION
  5
135B
330
16F9
100
AcDbEntity
  8
SUNPO
  6
Continuous
100
AcDbDimension
  2
*D6
 10
95.09999999999987
 20
119.6249999999997
 30
0.0
 11
60.11249999999993
 21
122.3749999999997
 31
0.0
 70
    32
 71
     5
 42
69.97499999999988
  3
STANDARD
100
AcDbAlignedDimension
 13
25.12499999999999
 23
134.5249999999997
 33
0.0
 14
95.09999999999987
 24
134.5499999999999
 34
0.0
100
AcDbRotatedDimension
1001
ACAD
1000
DSTYLE
1002
{
1070
   271
1070
     0
1002
}
  0
DIMENSION
  5
135C
330
16F9
100
AcDbEntity
  8
SUNPO
  6
Continuous
100
AcDbDimension
  2
*D7
 10
72.19999999999997
 20
172.4962163341907
 30
0.0
 11
60.19999999999999
 21
175.2462163341907
 31
0.0
 70
    32
 71
     5
 42
23.99999999999996
  3
STANDARD
100
AcDbAlignedDimension
 13
48.20000000000001
 23
183.6249999999999
 33
0.0
 14
72.19999999999997
 24
183.6249999999999
 34
0.0
100
AcDbRotatedDimension
1001
ACAD
1000
DSTYLE
1002
{
1070
   271
1070
     0
1002
}
  0
LINE
  5
135D
330
16F9
100
AcDbEntity
  8
0
100
AcDbLine
 10
25.125
 20
134.5749999999999
 30
0.0
 11
25.125
 21
250.6749999999998
 31
0.0
  0
DIMENSION
  5
135E
330
16F9
100
AcDbEntity
  8
SUNPO
  6
Continuous
100
AcDbDimension
  2
*D8
 10
15.12500000000001
 20
252.6249999999999
 30
0.0
 11
12.37499999999996
 21
192.6249999999998
 31
0.0
 70
    32
 71
     5
 42
120.0000000000001
  3
STANDARD
100
AcDbAlignedDimension
 13
27.025
 23
132.6249999999998
 33
0.0
 14
27.025
 24
252.6249999999999
 34
0.0
 50
90.0
100
AcDbRotatedDimension
1001
ACAD
1000
DSTYLE
1002
{
1070
   271
1070
     0
1002
}
  0
ARC
  5
135F
330
16F9
100
AcDbEntity
  8
0
100
AcDbCircle
 10
27.07500000000002
 20
134.5999999999999
 30
0.0
 40
1.95
100
AcDbArc
 50
180.0
 51
270.0
  0
ARC
  5
1360
330
16F9
100
AcDbEntity
  8
0
100
AcDbCircle
 10
27.07500000000002
 20
250.6749999999998
 30
0.0
 40
1.95
100
AcDbArc
 50
90.0
 51
180.0
  0
LINE
  5
1361
330
16F9
100
AcDbEntity
  8
0
100
AcDbLine
 10
48.20000000000002
 20
183.6249999999999
 30
0.0
 11
72.19999999999998
 21
183.6249999999999
 31
0.0
  0
LINE
  5
1362
330
16F9
100
AcDbEntity
  8
0
100
AcDbLine
 10
71.25
 20
184.4999999999999
 30
0.0
 11
49.07500000000002
 21
184.4999999999999
 31
0.0
  0
LINE
  5
1363
330
16F9
100
AcDbEntity
  8
0
100
AcDbLine
 10
49.07500000000002
 20
200.7499999999999
 30
0.0
 11
71.25
 21
200.7499999999999
 31
0.0
  0
LINE
  5
1364
330
16F9
100
AcDbEntity
  8
0
100
AcDbLine
 10
49.07500000000002
 20
200.7499999999999
 30
0.0
 11
71.25
 21
200.7499999999999
 31
0.0
  0
LINE
  5
1365
330
16F9
100
AcDbEntity
  8
0
100
AcDbLine
 10
48.20000000000002
 20
201.6249999999998
 30
0.0
 11
72.19999999999998
 21
201.6249999999998
 31
0.0
  0
LINE
  5
1366
330
16F9
100
AcDbEntity
  8
0
100
AcDbLine
 10
49.07500000000002
 20
184.4999999999999
 30
0.0
 11
49.07500000000002
 21
200.7499999999999
 31
0.0
  0
LINE
  5
1367
330
16F9
100
AcDbEntity
  8
0
100
AcDbLine
 10
49.07500000000002
 20
184.4999999999999
 30
0.0
 11
49.07500000000002
 21
200.7499999999999
 31
0.0
  0
LINE
  5
1368
330
16F9
100
AcDbEntity
  8
0
100
AcDbLine
 10
48.20000000000002
 20
183.6249999999999
 30
0.0
 11
48.20000000000002
 21
201.6249999999998
 31
0.0
  0
LINE
  5
1369
330
16F9
100
AcDbEntity
  8
0
100
AcDbLine
 10
71.25
 20
184.4999999999999
 30
0.0
 11
71.25
 21
200.7499999999999
 31
0.0
  0
LINE
  5
136A
330
16F9
100
AcDbEntity
  8
0
100
AcDbLine
 10
72.19999999999998
 20
201.6249999999998
 30
0.0
 11
72.19999999999998
 21
183.6249999999999
 31
0.0
  0
DIMENSION
  5
136B
330
16F9
100
AcDbEntity
  8
SUNPO
  6
Continuous
100
AcDbDimension
  2
*D9
 10
110.1374999999997
 20
119.1249999999997
 30
0.0
 11
114.6312499999998
 21
121.8749999999997
 31
0.0
 70
    32
 71
     5
 42
8.987500000000309
  3
STANDARD
100
AcDbAlignedDimension
 13
119.125
 23
137.2749999999998
 33
0.0
 14
110.1374999999997
 24
183.6749999999998
 34
0.0
100
AcDbRotatedDimension
1001
ACAD
1000
DSTYLE
1002
{
1070
   271
1070
     0
1002
}
  0
LINE
  5
136C
330
16F9
100
AcDbEntity
  8
0
100
AcDbLine
 10
125.125
 20
252.6249999999999
 30
0.0
 11
125.125
 21
132.6249999999998
 31
0.0
  0
LINE
  5
136D
330
16F9
100
AcDbEntity
  8
0
100
AcDbLine
 10
95.12499999999988
 20
250.6749999999998
 30
0.0
 11
95.12499999999988
 21
134.5749999999999
 31
0.0
  0
LINE
  5
136E
330
16F9
100
AcDbEntity
  8
0
100
AcDbLine
 10
119.125
 20
137.2749999999998
 30
0.0
 11
119.125
 21
247.8749999999999
 31
0.0
  0
DIMENSION
  5
136F
330
16F9
100
AcDbEntity
  8
SUNPO
  6
Continuous
100
AcDbDimension
  2
*D10
 10
146.125
 20
119.1249999999997
 30
0.0
 11
135.625
 21
121.8749999999997
 31
0.0
 70
    32
 71
     5
 42
21.0
  3
STANDARD
100
AcDbAlignedDimension
 13
125.125
 23
132.5624999999998
 33
0.0
 14
146.125
 24
184.6249999999999
 34
0.0
100
AcDbRotatedDimension
1001
ACAD
1000
DSTYLE
1002
{
1070
   271
1070
     0
1002
}
  0
ARC
  5
1370
330
16F9
100
AcDbEntity
  8
0
100
AcDbCircle
 10
93.15000000000003
 20
134.5999999999999
 30
0.0
 40
1.95
100
AcDbArc
 50
270.0
 51
0.0
  0
DIMENSION
  5
1371
330
16F9
100
AcDbEntity
  8
SUNPO
  6
Continuous
100
AcDbDimension
  2
*D11
 10
125.125
 20
119.1249999999997
 30
0.0
 11
122.125
 21
121.8749999999997
 31
0.0
 70
    32
 71
     5
 42
6.0
  3
STANDARD
100
AcDbAlignedDimension
 13
119.125
 23
137.2749999999998
 33
0.0
 14
125.125
 24
132.6249999999998
 34
0.0
100
AcDbRotatedDimension
1001
ACAD
1000
DSTYLE
1002
{
1070
   271
1070
     0
1002
}
  0
ARC
  5
1372
330
16F9
100
AcDbEntity
  8
0
100
AcDbCircle
 10
123.7749999999997
 20
137.2999999999999
 30
0.0
 40
4.65
100
AcDbArc
 50
180.0
 51
270.0
  0
LINE
  5
1373
330
16F9
100
AcDbEntity
  8
0
100
AcDbLine
 10
125.125
 20
132.6249999999998
 30
0.0
 11
123.7749999999997
 21
132.6249999999998
 31
0.0
  0
LINE
  5
1374
330
16F9
100
AcDbEntity
  8
0
100
AcDbLine
 10
146.125
 20
184.6249999999999
 30
0.0
 11
132.125
 21
184.6249999999999
 31
0.0
  0
LINE
  5
1375
330
16F9
100
AcDbEntity
  8
0
100
AcDbLine
 10
132.125
 20
200.6249999999999
 30
0.0
 11
146.125
 21
200.6249999999999
 31
0.0
  0
DIMENSION
  5
1376
330
16F9
100
AcDbEntity
  8
SUNPO
  6
Continuous
100
AcDbDimension
  2
*D5
 10
104.6687499999998
 20
201.5749999999999
 30
0.0
 11
101.9187499999998
 21
192.6249999999999
 31
0.0
 70
    32
 71
     5
 42
17.90000000000012
  3
STANDARD
100
AcDbAlignedDimension
 13
110.1999999999999
 23
183.6749999999998
 33
0.0
 14
110.1999999999999
 24
201.5749999999999
 34
0.0
 50
90.0
100
AcDbRotatedDimension
1001
ACAD
1000
DSTYLE
1002
{
1070
   271
1070
     0
1002
}
  0
ARC
  5
1377
330
16F9
100
AcDbEntity
  8
0
100
AcDbCircle
 10
93.15000000000003
 20
250.6749999999998
 30
0.0
 40
1.95
100
AcDbArc
 50
0.0
 51
90.0
  0
LINE
  5
1378
330
16F9
100
AcDbEntity
  8
0
100
AcDbLine
 10
110.1999999999999
 20
183.6749999999998
 30
0.0
 11
110.1999999999999
 21
201.5749999999999
 31
0.0
  0
LINE
  5
1379
330
16F9
100
AcDbEntity
  8
0
100
AcDbLine
 10
119.175
 20
201.5749999999999
 30
0.0
 11
119.175
 21
183.6749999999998
 31
0.0
  0
LINE
  5
137A
330
16F9
100
AcDbEntity
  8
0
100
AcDbLine
 10
119.175
 20
183.6749999999998
 30
0.0
 11
110.1999999999999
 21
183.6749999999998
 31
0.0
  0
LINE
  5
137B
330
16F9
100
AcDbEntity
  8
0
100
AcDbLine
 10
110.1999999999999
 20
201.5749999999999
 30
0.0
 11
119.175
 21
201.5749999999999
 31
0.0
  0
LINE
  5
137C
330
16F9
100
AcDbEntity
  8
0
100
AcDbLine
 10
132.125
 20
184.6249999999999
 30
0.0
 11
132.125
 21
200.6249999999999
 31
0.0
  0
LINE
  5
137D
330
16F9
100
AcDbEntity
  8
0
100
AcDbLine
 10
125.125
 20
182.6249999999999
 30
0.0
 11
125.125
 21
202.6249999999999
 31
0.0
  0
LINE
  5
137E
330
16F9
100
AcDbEntity
  8
0
100
AcDbLine
 10
132.125
 20
202.6249999999999
 30
0.0
 11
132.125
 21
182.6249999999999
 31
0.0
  0
LINE
  5
137F
330
16F9
100
AcDbEntity
  8
0
100
AcDbLine
 10
132.125
 20
182.6249999999999
 30
0.0
 11
125.125
 21
182.6249999999999
 31
0.0
  0
LINE
  5
1380
330
16F9
100
AcDbEntity
  8
0
100
AcDbLine
 10
125.125
 20
188.6249999999999
 30
0.0
 11
132.125
 21
188.6249999999999
 31
0.0
  0
LINE
  5
1381
330
16F9
100
AcDbEntity
  8
0
100
AcDbLine
 10
132.125
 20
186.6249999999999
 30
0.0
 11
125.125
 21
186.6249999999999
 31
0.0
  0
LINE
  5
1382
330
16F9
100
AcDbEntity
  8
0
100
AcDbLine
 10
125.125
 20
184.6249999999999
 30
0.0
 11
132.125
 21
184.6249999999999
 31
0.0
  0
LINE
  5
1383
330
16F9
100
AcDbEntity
  8
0
100
AcDbLine
 10
125.125
 20
202.6249999999999
 30
0.0
 11
132.125
 21
202.6249999999999
 31
0.0
  0
LINE
  5
1384
330
16F9
100
AcDbEntity
  8
0
100
AcDbLine
 10
125.125
 20
200.6249999999999
 30
0.0
 11
132.125
 21
200.6249999999999
 31
0.0
  0
LINE
  5
1385
330
16F9
100
AcDbEntity
  8
0
100
AcDbLine
 10
132.125
 20
198.6249999999999
 30
0.0
 11
125.125
 21
198.6249999999999
 31
0.0
  0
LINE
  5
1386
330
16F9
100
AcDbEntity
  8
0
100
AcDbLine
 10
125.125
 20
196.6249999999999
 30
0.0
 11
132.125
 21
196.6249999999999
 31
0.0
  0
LINE
  5
1387
330
16F9
100
AcDbEntity
  8
0
100
AcDbLine
 10
132.125
 20
194.6249999999999
 30
0.0
 11
125.125
 21
194.6249999999999
 31
0.0
  0
LINE
  5
1388
330
16F9
100
AcDbEntity
  8
0
100
AcDbLine
 10
125.125
 20
192.6249999999999
 30
0.0
 11
132.125
 21
192.6249999999999
 31
0.0
  0
LINE
  5
1389
330
16F9
100
AcDbEntity
  8
0
100
AcDbLine
 10
132.125
 20
190.6249999999999
 30
0.0
 11
125.125
 21
190.6249999999999
 31
0.0
  0
ARC
  5
138A
330
16F9
100
AcDbEntity
  8
0
100
AcDbCircle
 10
123.875
 20
247.8749999999999
 30
0.0
 40
4.75
100
AcDbArc
 50
90.0
 51
180.0
  0
LINE
  5
138B
330
16F9
100
AcDbEntity
  8
0
100
AcDbLine
 10
123.875
 20
252.6249999999999
 30
0.0
 11
125.125
 21
252.6249999999999
 31
0.0
  0
LINE
  5
138C
330
16F9
100
AcDbEntity
  8
0
100
AcDbLine
 10
146.125
 20
200.6249999999999
 30
0.0
 11
146.125
 21
184.6249999999999
 31
0.0
  0
CIRCLE
  5
14FB
330
16F9
100
AcDbEntity
  8
0
  6
Continuous
100
AcDbCircle
 10
124.2499999999999
 20
98.275
 30
0.0
 40
2.5
  0
TEXT
  5
14FC
330
16F9
100
AcDbEntity
  8
0
100
AcDbText
 10
123.1709865979082
 20
96.52680473786311
 30
0.0
 40
3.5
  1
1
  7
BIGFONT
100
AcDbText
  0
TEXT
  5
14FD
330
16F9
100
AcDbEntity
  8
0
100
AcDbText
 10
131.1550277669818
 20
96.575
 30
0.0
 40
3.5
  1
カバープレート
  7
BIGFONT
100
AcDbText
  0
LINE
  5
14FE
330
16F9
100
AcDbEntity
  8
0
100
AcDbLine
 10
119.25
 20
95.27500000000001
 30
0.0
 11
178.875
 21
95.27499999999996
 31
0.0
  0
LINE
  5
14FF
330
16F9
100
AcDbEntity
  8
0
100
AcDbLine
 10
99.40000000000001
 20
65.27499999999999
 30
0.0
 11
99.40000000000001
 21
35.27499999999998
 31
0.0
  0
LINE
  5
1500
330
16F9
100
AcDbEntity
  8
0
100
AcDbLine
 10
14.775
 20
41.27500000000001
 30
0.0
 11
159.0249999999998
 21
41.27499999999995
 31
0.0
  0
TEXT
  5
1501
330
16F9
100
AcDbEntity
  8
0
100
AcDbText
 10
116.3050277669817
 20
60.57499999999999
 30
0.0
 40
3.5
  1
備　　考
  7
BIGFONT
100
AcDbText
  0
TEXT
  5
1503
330
16F9
100
AcDbEntity
  8
0
100
AcDbText
 10
101.3050277669818
 20
54.575
 30
0.0
 40
3.5
  1
解錠時、赤色点灯
  7
BIGFONT
100
AcDbText
  0
TEXT
  5
1505
330
16F9
100
AcDbEntity
  8
0
100
AcDbText
 10
16.58002776698185
 20
29.94098414668064
 30
0.0
 40
3.5
  1
※自動ドア、エレベータ使用出来ません。
  7
BIGFONT
100
AcDbText
  0
LINE
  5
1507
330
16F9
100
AcDbEntity
  8
0
100
AcDbLine
 10
146.125
 20
184.6249999999999
 30
0.0
 11
151.125
 21
184.6249999999999
 31
0.0
  0
LINE
  5
1508
330
16F9
100
AcDbEntity
  8
0
100
AcDbLine
 10
151.125
 20
200.6249999999999
 30
0.0
 11
146.125
 21
200.6249999999999
 31
0.0
  0
LINE
  5
1509
330
16F9
100
AcDbEntity
  8
0
100
AcDbLine
 10
151.125
 20
184.6249999999999
 30
0.0
 11
151.125
 21
191.1249999999999
 31
0.0
  0
LINE
  5
150A
330
16F9
100
AcDbEntity
  8
0
100
AcDbLine
 10
151.125
 20
194.1249999999999
 30
0.0
 11
154.1249999999999
 21
194.1249999999999
 31
0.0
  0
LINE
  5
150B
330
16F9
100
AcDbEntity
  8
0
100
AcDbLine
 10
154.1249999999999
 20
191.1249999999999
 30
0.0
 11
151.125
 21
191.1249999999999
 31
0.0
  0
LINE
  5
150C
330
16F9
100
AcDbEntity
  8
0
100
AcDbLine
 10
154.1249999999999
 20
190.6249999999999
 30
0.0
 11
154.1249999999999
 21
194.6249999999999
 31
0.0
  0
LINE
  5
150D
330
16F9
100
AcDbEntity
  8
0
100
AcDbLine
 10
158.1249999999999
 20
190.6249999999999
 30
0.0
 11
158.1249999999999
 21
194.6249999999999
 31
0.0
  0
LINE
  5
150E
330
16F9
100
AcDbEntity
  8
0
100
AcDbLine
 10
154.1249999999999
 20
194.6249999999999
 30
0.0
 11
158.1249999999999
 21
194.6249999999999
 31
0.0
  0
LINE
  5
150F
330
16F9
100
AcDbEntity
  8
0
100
AcDbLine
 10
158.1249999999999
 20
190.6249999999999
 30
0.0
 11
154.1249999999999
 21
190.6249999999999
 31
0.0
  0
LINE
  5
1510
330
16F9
100
AcDbEntity
  8
0
100
AcDbLine
 10
160.125
 20
190.6249999999999
 30
0.0
 11
164.125
 21
190.6249999999999
 31
0.0
  0
LINE
  5
1511
330
16F9
100
AcDbEntity
  8
0
100
AcDbLine
 10
164.125
 20
194.6249999999999
 30
0.0
 11
160.125
 21
194.6249999999999
 31
0.0
  0
LINE
  5
1512
330
16F9
100
AcDbEntity
  8
0
100
AcDbLine
 10
164.125
 20
191.1249999999999
 30
0.0
 11
168.125
 21
191.1249999999999
 31
0.0
  0
LINE
  5
1513
330
16F9
100
AcDbEntity
  8
0
100
AcDbLine
 10
168.125
 20
194.1249999999999
 30
0.0
 11
164.125
 21
194.1249999999999
 31
0.0
  0
LINE
  5
1514
330
16F9
100
AcDbEntity
  8
0
100
AcDbLine
 10
164.125
 20
190.6249999999999
 30
0.0
 11
164.125
 21
194.6249999999999
 31
0.0
  0
LINE
  5
1515
330
16F9
100
AcDbEntity
  8
0
100
AcDbLine
 10
160.125
 20
190.6249999999999
 30
0.0
 11
160.125
 21
194.6249999999999
 31
0.0
  0
LINE
  5
1516
330
16F9
100
AcDbEntity
  8
0
100
AcDbLine
 10
168.125
 20
193.1249999999998
 30
0.0
 11
164.125
 21
193.1249999999998
 31
0.0
  0
LINE
  5
1517
330
16F9
100
AcDbEntity
  8
0
100
AcDbLine
 10
164.125
 20
192.1249999999999
 30
0.0
 11
168.125
 21
192.1249999999999
 31
0.0
  0
LINE
  5
1518
330
16F9
100
AcDbEntity
  8
0
100
AcDbLine
 10
151.125
 20
194.1249999999999
 30
0.0
 11
151.125
 21
200.6249999999999
 31
0.0
  0
LINE
  5
174A
330
16F9
100
AcDbEntity
  8
0
100
AcDbLine
 10
4.19999999999996
 20
16.27499999999997
 30
0.0
 11
189.4249999999999
 21
16.27499999999997
 31
0.0
  0
LINE
  5
174B
330
16F9
100
AcDbEntity
  8
0
100
AcDbLine
 10
4.974999999999965
 20
24.27499999999998
 30
0.0
 11
189.4249999999999
 21
24.27499999999998
 31
0.0
  0
LINE
  5
174C
330
16F9
100
AcDbEntity
  8
0
100
AcDbLine
 10
104.4749999999998
 20
24.27499999999998
 30
0.0
 11
104.4749999999998
 21
8.274999999999977
 31
0.0
  0
LINE
  5
174D
330
16F9
100
AcDbEntity
  8
0
100
AcDbLine
 10
94.44999999999996
 20
24.27499999999998
 30
0.0
 11
94.44999999999996
 21
8.274999999999977
 31
0.0
  0
LINE
  5
174E
330
16F9
100
AcDbEntity
  8
0
100
AcDbLine
 10
14.82499999999996
 20
24.27499999999998
 30
0.0
 11
14.82499999999996
 21
8.274999999999977
 31
0.0
  0
INSERT
  5
174F
330
16F9
100
AcDbEntity
  8
0
  6
Continuous
100
AcDbBlockReference
  2
waku
 10
0.0499999999999545
 20
0.0
 30
0.0
  0
LINE
  5
1750
330
16F9
100
AcDbEntity
  8
0
100
AcDbLine
 10
4.19999999999996
 20
24.27499999999998
 30
0.0
 11
189.4249999999999
 21
24.27499999999998
 31
0.0
  0
TEXT
  5
1751
330
16F9
100
AcDbEntity
  8
0
100
AcDbText
 10
31.82499999999996
 20
18.74999999999997
 30
0.0
 40
3.674999999999998
  1
単位 mm
  7
BIGFONT
100
AcDbText
  0
TEXT
  5
1752
330
16F9
100
AcDbEntity
  8
0
100
AcDbText
 10
46.09999999999994
 20
18.74999999999997
 30
0.0
 40
3.674999999999998
  1
　
  7
BIGFONT
100
AcDbText
  0
TEXT
  5
1753
330
16F9
100
AcDbEntity
  8
0
100
AcDbText
 10
114.6249999999999
 20
9.474999999999965
 30
0.0
 40
3.524999999999999
  1
　
  7
BIGFONT
100
AcDbText
  0
TEXT
  5
1754
330
16F9
100
AcDbEntity
  8
0
100
AcDbText
 10
121.425
 20
10.47499999999996
 30
0.0
 40
3.674999999999999
  1
　日本電子工業株式会社
  7
BIGFONT
100
AcDbText
  0
LINE
  5
1755
330
16F9
100
AcDbEntity
  8
0
100
AcDbLine
 10
4.19999999999996
 20
270.025
 30
0.0
 11
189.4249999999999
 21
270.025
 31
0.0
  0
TEXT
  5
1756
330
16F9
100
AcDbEntity
  8
0
100
AcDbText
 10
31.82499999999996
 20
10.47499999999996
 30
0.0
 40
3.674999999999998
  1
尺度　　　１／１
  7
BIGFONT
100
AcDbText
  0
LINE
  5
1757
330
16F9
100
AcDbEntity
  8
0
100
AcDbLine
 10
159.4999999999998
 20
24.27499999999998
 30
0.0
 11
159.4999999999998
 21
16.27499999999997
 31
0.0
  0
LINE
  5
1758
330
16F9
100
AcDbEntity
  8
0
100
AcDbLine
 10
144.4749999999999
 20
24.27499999999998
 30
0.0
 11
144.4749999999999
 21
16.27499999999997
 31
0.0
  0
TEXT
  5
1759
330
16F9
100
AcDbEntity
  8
0
100
AcDbText
 10
163.3467056960535
 20
18.74999999999997
 30
0.0
 40
3.674999999999998
  1
SW-0011
  7
BIGFONT
100
AcDbText
  0
TEXT
  5
175A
330
16F9
100
AcDbEntity
  8
0
100
AcDbText
 10
147.0324564216774
 20
18.74999999999997
 30
0.0
 40
3.674999999999998
  1
図番
  7
BIGFONT
100
AcDbText
  0
LINE
  5
17D4
330
16F9
100
AcDbEntity
  8
0
  6
DASHED
 48
1.5
100
AcDbLine
 10
132.6250000712673
 20
240.6250001425345
 30
0.0
 11
127.6249999287326
 21
240.6249999999998
 31
0.0
  0
ARC
  5
17D5
330
16F9
100
AcDbEntity
  8
0
  6
DASHED
 48
1.5
100
AcDbCircle
 10
127.625
 20
238.1249999999998
 30
0.0
 40
2.5
100
AcDbArc
 50
90.00000163332769
 51
180.0
  0
LINE
  5
17D6
330
16F9
100
AcDbEntity
  8
0
  6
DASHED
100
AcDbLine
 10
137.625
 20
246.6249994898964
 30
0.0
 11
176.6250000000003
 21
246.624999489894
 31
0.0
  0
LINE
  5
17D7
330
16F9
100
AcDbEntity
  8
0
  6
DASHED
 48
1.5
100
AcDbLine
 10
127.6250000712673
 20
144.6249999999998
 30
0.0
 11
132.6249999287326
 21
144.6250001425345
 31
0.0
  0
ARC
  5
17D8
330
16F9
100
AcDbEntity
  8
0
  6
DASHED
 48
1.5
100
AcDbCircle
 10
127.625
 20
147.1249999999998
 30
0.0
 40
2.5
100
AcDbArc
 50
180.0
 51
270.0000016333277
  0
LINE
  5
17D9
330
16F9
100
AcDbEntity
  8
0
  6
DASHED
100
AcDbLine
 10
137.625
 20
138.6249994898964
 30
0.0
 11
176.6249999999996
 21
138.6249994898939
 31
0.0
  0
LINE
  5
17DA
330
16F9
100
AcDbEntity
  8
0
  6
DASHED
100
AcDbLine
 10
137.625
 20
247.6249999999998
 30
0.0
 11
137.625
 21
137.6249999999998
 31
0.0
  0
ARC
  5
17DB
330
16F9
100
AcDbEntity
  8
0
  6
DASHED
100
AcDbCircle
 10
132.625
 20
142.1250001425345
 30
0.0
 40
2.5
100
AcDbArc
 50
0.0
 51
90.00000163332769
  0
ARC
  5
17DC
330
16F9
100
AcDbEntity
  8
0
  6
DASHED
100
AcDbCircle
 10
132.625
 20
243.1250001425345
 30
0.0
 40
2.5
100
AcDbArc
 50
270.0000016333277
 51
0.0
  0
LINE
  5
17DD
330
16F9
100
AcDbEntity
  8
0
  6
DASHED
100
AcDbLine
 10
181.625
 20
241.624999489894
 30
0.0
 11
181.625
 21
143.6249994898939
 31
0.0
  0
ARC
  5
17DE
330
16F9
100
AcDbEntity
  8
0
  6
DASHED
100
AcDbCircle
 10
176.625
 20
143.6249994898939
 30
0.0
 40
5.0
100
AcDbArc
 50
269.9999999999951
 51
0.0
  0
ARC
  5
17DF
330
16F9
100
AcDbEntity
  8
0
  6
DASHED
100
AcDbCircle
 10
176.625
 20
241.624999489894
 30
0.0
 40
5.0
100
AcDbArc
 50
0.0
 51
89.99999999999674
  0
LINE
  5
17E0
330
16F9
100
AcDbEntity
  8
0
  6
DASHED
100
AcDbLine
 10
125.125
 20
238.1249999999998
 30
0.0
 11
125.125
 21
147.1249999999998
 31
0.0
  0
LINE
  5
17E1
330
16F9
100
AcDbEntity
  8
0
  6
Continuous
100
AcDbLine
 10
135.125
 20
247.6249999999998
 30
0.0
 11
137.625
 21
247.6249999999998
 31
0.0
  0
LINE
  5
17E2
330
16F9
100
AcDbEntity
  8
0
  6
Continuous
100
AcDbLine
 10
135.125
 20
137.6249999999998
 30
0.0
 11
137.625
 21
137.6249999999998
 31
0.0
  0
LINE
  5
17E3
330
16F9
100
AcDbEntity
  8
0
  6
DASHED
100
AcDbLine
 10
135.125
 20
247.6249999999998
 30
0.0
 11
135.125
 21
137.6249999999998
 31
0.0
  0
TEXT
  5
18B8
330
16F9
100
AcDbEntity
  8
0
100
AcDbText
 10
122.7348267226286
 20
261.5683137441973
 30
0.0
 40
3.0
  1
4×4用アウトレットBOX浅型対応
  7
BIGFONT
100
AcDbText
  0
POLYLINE
  5
18B9
330
16F9
100
AcDbEntity
  8
0
100
AcDb3dPolyline
 66
     1
 10
0.0
 20
0.0
 30
0.0
 70
     8
  0
VERTEX
  5
18BA
330
18B9
100
AcDbEntity
  8
0
100
AcDbVertex
100
AcDb3dPolylineVertex
 10
163.0753301640881
 20
246.6249994898952
 30
0.0
 70
    32
  0
VERTEX
  5
18BB
330
18B9
100
AcDbEntity
  8
0
100
AcDbVertex
100
AcDb3dPolylineVertex
 10
180.3472108747386
 20
260.1778340292387
 30
0.0
 70
    32
  0
VERTEX
  5
18BC
330
18B9
100
AcDbEntity
  8
0
100
AcDbVertex
100
AcDb3dPolylineVertex
 10
121.7793437017418
 20
260.1778340292387
 30
0.0
 70
    32
  0
SEQEND
  5
18BD
330
18B9
100
AcDbEntity
  8
0
  0
TEXT
  5
18BE
330
16F9
100
AcDbEntity
  8
0
100
AcDbText
 10
130.9874975971874
 20
255.7794100024195
 30
0.0
 40
3.0
  1
(1ヶ用塗りしろ)
  7
BIGFONT
100
AcDbText
  0
MTEXT
  5
194D
330
16F9
100
AcDbEntity
  8
0
  6
Continuous
100
AcDbMText
 10
96.81249999999998
 20
275.05
 30
0.0
 40
3.5
 41
100.0
 71
     5
 72
     5
  1
増設解錠スイッチ（表示付）
  7
BIGFONT
 73
     1
 44
1.0
1001
ACAD
1000
MTEXTBEGIN
1070
    73
1070
     1
1070
    44
1040
1.0
1070
    74
1070
     0
1000
MTEXTEND
  0
MTEXT
  5
194F
330
16F9
100
AcDbEntity
  8
0
  6
Continuous
100
AcDbMText
 10
184.4249999999999
 20
275.05
 30
0.0
 40
3.5
 41
50.0
 71
     6
 72
     5
  1
WP0190-01
  7
BIGFONT
 73
     1
 44
1.0
1001
ACAD
1000
MTEXTBEGIN
1070
    73
1070
     1
1070
    44
1040
1.0
1070
    74
1070
     0
1000
MTEXTEND
  0
ENDSEC
  0
SECTION
  2
OBJECTS
  0
DICTIONARY
  5
16E3
330
0
100
AcDbDictionary
281
     1
  3
ACAD_COLOR
350
16F2
  3
ACAD_GROUP
350
16E4
  3
ACAD_LAYOUT
350
16F0
  3
ACAD_MATERIAL
350
16F1
  3
ACAD_MLEADERSTYLE
350
191C
  3
ACAD_MLINESTYLE
350
16ED
  3
ACAD_PLOTSETTINGS
350
16EF
  3
ACAD_PLOTSTYLENAME
350
16E5
  3
ACAD_SCALELIST
350
18FA
  3
ACAD_TABLESTYLE
350
16F3
  3
ACAD_VISUALSTYLE
350
18E9
  3
ACDB_RECOMPOSE_DATA
350
1930
  3
AcDbVariableDictionary
350
1761
  3
DWGPROPS
350
195B
  0
DICTIONARY
  5
1932
330
16DF
100
AcDbDictionary
280
     1
281
     1
  0
DICTIONARY
  5
17BE
330
16D9
100
AcDbDictionary
280
     1
281
     1
  3
ACAD_LAYERSTATES
360
17BF
  0
DICTIONARY
  5
1924
330
16E7
100
AcDbDictionary
280
     1
281
     1
  3
ADSK_XREC_LAYER_RECONCILED
360
1925
  0
DICTIONARY
  5
1926
330
1708
100
AcDbDictionary
280
     1
281
     1
  3
ADSK_XREC_LAYER_RECONCILED
360
1927
  0
DICTIONARY
  5
1928
330
1709
100
AcDbDictionary
280
     1
281
     1
  3
ADSK_XREC_LAYER_RECONCILED
360
1929
  0
DICTIONARY
  5
192A
330
170A
100
AcDbDictionary
280
     1
281
     1
  3
ADSK_XREC_LAYER_RECONCILED
360
192B
  0
DICTIONARY
  5
192C
330
170B
100
AcDbDictionary
280
     1
281
     1
  3
ADSK_XREC_LAYER_RECONCILED
360
192D
  0
DICTIONARY
  5
16F2
102
{ACAD_REACTORS
330
16E3
102
}
330
16E3
100
AcDbDictionary
281
     1
  0
DICTIONARY
  5
16E4
102
{ACAD_REACTORS
330
16E3
102
}
330
16E3
100
AcDbDictionary
281
     1
  0
DICTIONARY
  5
16F0
102
{ACAD_REACTORS
330
16E3
102
}
330
16E3
100
AcDbDictionary
281
     1
  3
Model
350
16FC
  3
レイアウト1
350
16F8
  0
DICTIONARY
  5
16F1
102
{ACAD_REACTORS
330
16E3
102
}
330
16E3
100
AcDbDictionary
281
     1
  3
ByBlock
350
18D9
  3
ByLayer
350
18D1
  3
Global
350
18E1
  0
DICTIONARY
  5
191C
102
{ACAD_REACTORS
330
16E3
102
}
330
16E3
100
AcDbDictionary
281
     1
  3
Standard
350
191D
  0
DICTIONARY
  5
16ED
102
{ACAD_REACTORS
330
16E3
102
}
330
16E3
100
AcDbDictionary
281
     1
  3
Standard
350
16EE
  0
DICTIONARY
  5
16EF
102
{ACAD_REACTORS
330
16E3
102
}
330
16E3
100
AcDbDictionary
281
     1
  0
ACDBDICTIONARYWDFLT
  5
16E5
102
{ACAD_REACTORS
330
16E3
102
}
330
16E3
100
AcDbDictionary
281
     1
  3
Normal
350
16E6
100
AcDbDictionaryWithDefault
340
16E6
  0
DICTIONARY
  5
18FA
102
{ACAD_REACTORS
330
16E3
102
}
330
16E3
100
AcDbDictionary
281
     1
  3
A0
350
18FB
  3
A1
350
18FC
  3
A2
350
18FD
  3
A3
350
18FE
  3
A4
350
18FF
  3
A5
350
1900
  3
A6
350
1901
  3
A7
350
1902
  3
A8
350
1903
  3
A9
350
1904
  3
B0
350
1905
  3
B1
350
1906
  3
B2
350
1907
  3
B3
350
1908
  3
B4
350
1909
  3
B5
350
190A
  3
B6
350
190B
  3
B7
350
190C
  3
B8
350
190D
  3
B9
350
190E
  3
C0
350
190F
  3
C1
350
1910
  3
C2
350
1911
  3
C3
350
1912
  3
C4
350
1913
  3
C5
350
1914
  3
C6
350
1915
  3
C7
350
1916
  3
C8
350
1917
  3
C9
350
1918
  3
D0
350
1919
  3
D1
350
191A
  3
D2
350
191B
  0
DICTIONARY
  5
16F3
102
{ACAD_REACTORS
330
16E3
102
}
330
16E3
100
AcDbDictionary
281
     1
  3
Standard
350
16F4
  0
DICTIONARY
  5
18E9
102
{ACAD_REACTORS
330
16E3
102
}
330
16E3
100
AcDbDictionary
281
     1
  3
2dWireframe
350
18EF
  3
3D Hidden
350
18F1
  3
3dWireframe
350
18F0
  3
Basic
350
18EE
  3
Brighten
350
18F5
  3
ColorChange
350
18F9
  3
Conceptual
350
18F2
  3
Dim
350
18F4
  3
Facepattern
350
18F8
  3
Flat
350
18EA
  3
FlatWithEdges
350
18EB
  3
Gouraud
350
18EC
  3
GouraudWithEdges
350
18ED
  3
Linepattern
350
18F7
  3
Realistic
350
18F3
  3
Thicken
350
18F6
  0
XRECORD
  5
1930
102
{ACAD_REACTORS
330
16E3
102
}
330
16E3
100
AcDbXrecord
280
     1
 90
        1
330
16F4
  0
DICTIONARY
  5
1761
102
{ACAD_REACTORS
330
16E3
102
}
330
16E3
100
AcDbDictionary
281
     1
  3
CANNOSCALE
350
1944
  3
CMLEADERSTYLE
350
1943
  3
CTABLESTYLE
350
1762
  3
DIMASSOC
350
1763
  3
INDEXCTL
350
1946
  3
LIGHTINGUNITS
350
1952
  3
MSLTSCALE
350
1951
  3
PROJECTNAME
350
1764
  3
SORTENTS
350
1945
  0
XRECORD
  5
195B
102
{ACAD_REACTORS
330
16E3
102
}
330
16E3
100
AcDbXrecord
280
     1
  1
DWGPROPS COOKIE
  2

  3

  4

  6

  7

  8
Takeshi_Nakagawa
  9

300
=
301
=
302
=
303
=
304
=
305
=
306
=
307
=
308
=
309
=
 40
0.2963939351851852
 41
2453573.411721273
 42
2456553.5506861
  1

 90
        0
  0
DICTIONARY
  5
17BF
102
{ACAD_REACTORS
330
17BE
102
}
330
17BE
100
AcDbDictionary
281
     1
  0
XRECORD
  5
1925
102
{ACAD_REACTORS
330
1924
102
}
330
1924
100
AcDbXrecord
280
     1
290
     1
  0
XRECORD
  5
1927
102
{ACAD_REACTORS
330
1926
102
}
330
1926
100
AcDbXrecord
280
     1
290
     1
  0
XRECORD
  5
1929
102
{ACAD_REACTORS
330
1928
102
}
330
1928
100
AcDbXrecord
280
     1
290
     1
  0
XRECORD
  5
192B
102
{ACAD_REACTORS
330
192A
102
}
330
192A
100
AcDbXrecord
280
     1
290
     1
  0
XRECORD
  5
192D
102
{ACAD_REACTORS
330
192C
102
}
330
192C
100
AcDbXrecord
280
     1
290
     1
  0
LAYOUT
  5
16FC
102
{ACAD_XDICTIONARY
360
195F
102
}
102
{ACAD_REACTORS
330
16F0
102
}
330
16F0
100
AcDbPlotSettings
  1

  2
RICOH imagio Color 3100P-V
  4

  6

 40
0.0
 41
0.0
 42
0.0
 43
0.0
 44
0.0
 45
0.0
 46
0.0
 47
0.0
 48
0.0
 49
0.0
140
0.0
141
0.0
142
1.0
143
1.0
 70
  1712
 72
     0
 73
     0
 74
     0
  7

 75
     0
147
1.0
148
0.0
149
0.0
100
AcDbLayout
  1
Model
 70
     1
 71
     0
 10
0.0
 20
0.0
 11
12.0
 21
9.0
 12
0.0
 22
0.0
 32
0.0
 14
0.0
 24
0.0
 34
0.0
 15
0.0
 25
0.0
 35
0.0
146
0.0
 13
0.0
 23
0.0
 33
0.0
 16
1.0
 26
0.0
 36
0.0
 17
0.0
 27
1.0
 37
0.0
 76
     0
330
16F9
331
18CA
  0
LAYOUT
  5
16F8
102
{ACAD_XDICTIONARY
360
195D
102
}
102
{ACAD_REACTORS
330
16F0
102
}
330
16F0
100
AcDbPlotSettings
  1

  2
RICOH imagio Color 3100P-V
  4

  6

 40
0.0
 41
0.0
 42
0.0
 43
0.0
 44
0.0
 45
0.0
 46
0.0
 47
0.0
 48
0.0
 49
0.0
140
0.0
141
0.0
142
1.0
143
1.0
 70
   688
 72
     0
 73
     0
 74
     5
  7

 75
    16
147
1.0
148
0.0
149
0.0
100
AcDbLayout
  1
レイアウト1
 70
     1
 71
     1
 10
0.0
 20
0.0
 11
12.0
 21
9.0
 12
0.0
 22
0.0
 32
0.0
 14
1.000000000000000E+20
 24
1.000000000000000E+20
 34
1.000000000000000E+20
 15
-1.000000000000000E+20
 25
-1.000000000000000E+20
 35
-1.000000000000000E+20
146
0.0
 13
0.0
 23
0.0
 33
0.0
 16
1.0
 26
0.0
 36
0.0
 17
0.0
 27
1.0
 37
0.0
 76
     0
330
16F5
  0
MATERIAL
  5
18D9
102
{ACAD_XDICTIONARY
360
18DA
102
}
102
{ACAD_REACTORS
330
16F1
102
}
330
16F1
100
AcDbMaterial
  1
ByBlock
 72
     0
 43
0.0208333333333333
 43
0.0
 43
0.0
 43
0.0
 43
0.0
 43
0.0208333333333333
 43
0.0
 43
0.0
 43
0.0
 43
0.0
 43
1.0
 43
0.0
 43
0.0
 43
0.0
 43
0.0
 43
1.0
 77
     0
 47
0.0208333333333333
 47
0.0
 47
0.0
 47
0.0
 47
0.0
 47
0.0208333333333333
 47
0.0
 47
0.0
 47
0.0
 47
0.0
 47
1.0
 47
0.0
 47
0.0
 47
0.0
 47
0.0
 47
1.0
171
     0
 49
0.0208333333333333
 49
0.0
 49
0.0
 49
0.0
 49
0.0
 49
0.0208333333333333
 49
0.0
 49
0.0
 49
0.0
 49
0.0
 49
1.0
 49
0.0
 49
0.0
 49
0.0
 49
0.0
 49
1.0
175
     0
142
0.0208333333333333
142
0.0
142
0.0
142
0.0
142
0.0
142
0.0208333333333333
142
0.0
142
0.0
142
0.0
142
0.0
142
1.0
142
0.0
142
0.0
142
0.0
142
0.0
142
1.0
179
     0
144
0.0208333333333333
144
0.0
144
0.0
144
0.0
144
0.0
144
0.0208333333333333
144
0.0
144
0.0
144
0.0
144
0.0
144
1.0
144
0.0
144
0.0
144
0.0
144
0.0
144
1.0
147
0.0208333333333333
147
0.0
147
0.0
147
0.0
147
0.0
147
0.0208333333333333
147
0.0
147
0.0
147
0.0
147
0.0
147
1.0
147
0.0
147
0.0
147
0.0
147
0.0
147
1.0
  0
MATERIAL
  5
18D1
102
{ACAD_XDICTIONARY
360
18D2
102
}
102
{ACAD_REACTORS
330
16F1
102
}
330
16F1
100
AcDbMaterial
  1
ByLayer
 72
     0
 43
0.0208333333333333
 43
0.0
 43
0.0
 43
0.0
 43
0.0
 43
0.0208333333333333
 43
0.0
 43
0.0
 43
0.0
 43
0.0
 43
1.0
 43
0.0
 43
0.0
 43
0.0
 43
0.0
 43
1.0
 77
     0
 47
0.0208333333333333
 47
0.0
 47
0.0
 47
0.0
 47
0.0
 47
0.0208333333333333
 47
0.0
 47
0.0
 47
0.0
 47
0.0
 47
1.0
 47
0.0
 47
0.0
 47
0.0
 47
0.0
 47
1.0
171
     0
 49
0.0208333333333333
 49
0.0
 49
0.0
 49
0.0
 49
0.0
 49
0.0208333333333333
 49
0.0
 49
0.0
 49
0.0
 49
0.0
 49
1.0
 49
0.0
 49
0.0
 49
0.0
 49
0.0
 49
1.0
175
     0
142
0.0208333333333333
142
0.0
142
0.0
142
0.0
142
0.0
142
0.0208333333333333
142
0.0
142
0.0
142
0.0
142
0.0
142
1.0
142
0.0
142
0.0
142
0.0
142
0.0
142
1.0
179
     0
144
0.0208333333333333
144
0.0
144
0.0
144
0.0
144
0.0
144
0.0208333333333333
144
0.0
144
0.0
144
0.0
144
0.0
144
1.0
144
0.0
144
0.0
144
0.0
144
0.0
144
1.0
147
0.0208333333333333
147
0.0
147
0.0
147
0.0
147
0.0
147
0.0208333333333333
147
0.0
147
0.0
147
0.0
147
0.0
147
1.0
147
0.0
147
0.0
147
0.0
147
0.0
147
1.0
  0
MATERIAL
  5
18E1
102
{ACAD_XDICTIONARY
360
18E2
102
}
102
{ACAD_REACTORS
330
16F1
102
}
330
16F1
100
AcDbMaterial
  1
Global
 72
     0
 43
0.0208333333333333
 43
0.0
 43
0.0
 43
0.0
 43
0.0
 43
0.0208333333333333
 43
0.0
 43
0.0
 43
0.0
 43
0.0
 43
1.0
 43
0.0
 43
0.0
 43
0.0
 43
0.0
 43
1.0
 77
     0
 47
0.0208333333333333
 47
0.0
 47
0.0
 47
0.0
 47
0.0
 47
0.0208333333333333
 47
0.0
 47
0.0
 47
0.0
 47
0.0
 47
1.0
 47
0.0
 47
0.0
 47
0.0
 47
0.0
 47
1.0
171
     0
 49
0.0208333333333333
 49
0.0
 49
0.0
 49
0.0
 49
0.0
 49
0.0208333333333333
 49
0.0
 49
0.0
 49
0.0
 49
0.0
 49
1.0
 49
0.0
 49
0.0
 49
0.0
 49
0.0
 49
1.0
175
     0
142
0.0208333333333333
142
0.0
142
0.0
142
0.0
142
0.0
142
0.0208333333333333
142
0.0
142
0.0
142
0.0
142
0.0
142
1.0
142
0.0
142
0.0
142
0.0
142
0.0
142
1.0
179
     0
144
0.0208333333333333
144
0.0
144
0.0
144
0.0
144
0.0
144
0.0208333333333333
144
0.0
144
0.0
144
0.0
144
0.0
144
1.0
144
0.0
144
0.0
144
0.0
144
0.0
144
1.0
147
0.0208333333333333
147
0.0
147
0.0
147
0.0
147
0.0
147
0.0208333333333333
147
0.0
147
0.0
147
0.0
147
0.0
147
1.0
147
0.0
147
0.0
147
0.0
147
0.0
147
1.0
  0
MLEADERSTYLE
  5
191D
102
{ACAD_REACTORS
330
191C
102
}
330
191C
100
AcDbMLeaderStyle
170
     2
171
     1
172
     0
 90
        2
 40
0.0
 41
0.0
173
     1
 91
-1056964608
340
16EA
 92
       -2
290
     1
 42
0.09
291
     1
 43
0.36
  3
Standard
 44
0.18
300

342
16E8
174
     1
178
     6
175
     1
176
     0
 93
-1056964608
 45
0.18
292
     0
297
     0
 46
0.18
 94
-1056964608
 47
1.0
 49
1.0
140
1.0
293
     1
141
0.0
294
     1
177
     0
142
1.0
295
     0
296
     0
143
0.125
1001
ACAD_MLEADERVER
1070
     2
  0
MLINESTYLE
  5
16EE
102
{ACAD_REACTORS
330
16ED
102
}
330
16ED
100
AcDbMlineStyle
  2
STANDARD
 70
     0
  3

 62
   256
 51
90.0
 52
90.0
 71
     2
 49
0.5
 62
   256
  6
BYLAYER
 49
-0.5
 62
   256
  6
BYLAYER
  0
ACDBPLACEHOLDER
  5
16E6
102
{ACAD_REACTORS
330
16E5
102
}
330
16E5
  0
SCALE
  5
18FB
102
{ACAD_REACTORS
330
18FA
102
}
330
18FA
100
AcDbScale
 70
     0
300
1:1
140
1.0
141
1.0
290
     1
  0
SCALE
  5
18FC
102
{ACAD_REACTORS
330
18FA
102
}
330
18FA
100
AcDbScale
 70
     0
300
1:2
140
1.0
141
2.0
290
     0
  0
SCALE
  5
18FD
102
{ACAD_REACTORS
330
18FA
102
}
330
18FA
100
AcDbScale
 70
     0
300
1:4
140
1.0
141
4.0
290
     0
  0
SCALE
  5
18FE
102
{ACAD_REACTORS
330
18FA
102
}
330
18FA
100
AcDbScale
 70
     0
300
1:5
140
1.0
141
5.0
290
     0
  0
SCALE
  5
18FF
102
{ACAD_REACTORS
330
18FA
102
}
330
18FA
100
AcDbScale
 70
     0
300
1:8
140
1.0
141
8.0
290
     0
  0
SCALE
  5
1900
102
{ACAD_REACTORS
330
18FA
102
}
330
18FA
100
AcDbScale
 70
     0
300
1:10
140
1.0
141
10.0
290
     0
  0
SCALE
  5
1901
102
{ACAD_REACTORS
330
18FA
102
}
330
18FA
100
AcDbScale
 70
     0
300
1:16
140
1.0
141
16.0
290
     0
  0
SCALE
  5
1902
102
{ACAD_REACTORS
330
18FA
102
}
330
18FA
100
AcDbScale
 70
     0
300
1:20
140
1.0
141
20.0
290
     0
  0
SCALE
  5
1903
102
{ACAD_REACTORS
330
18FA
102
}
330
18FA
100
AcDbScale
 70
     0
300
1:30
140
1.0
141
30.0
290
     0
  0
SCALE
  5
1904
102
{ACAD_REACTORS
330
18FA
102
}
330
18FA
100
AcDbScale
 70
     0
300
1:40
140
1.0
141
40.0
290
     0
  0
SCALE
  5
1905
102
{ACAD_REACTORS
330
18FA
102
}
330
18FA
100
AcDbScale
 70
     0
300
1:50
140
1.0
141
50.0
290
     0
  0
SCALE
  5
1906
102
{ACAD_REACTORS
330
18FA
102
}
330
18FA
100
AcDbScale
 70
     0
300
1:100
140
1.0
141
100.0
290
     0
  0
SCALE
  5
1907
102
{ACAD_REACTORS
330
18FA
102
}
330
18FA
100
AcDbScale
 70
     0
300
2:1
140
2.0
141
1.0
290
     0
  0
SCALE
  5
1908
102
{ACAD_REACTORS
330
18FA
102
}
330
18FA
100
AcDbScale
 70
     0
300
4:1
140
4.0
141
1.0
290
     0
  0
SCALE
  5
1909
102
{ACAD_REACTORS
330
18FA
102
}
330
18FA
100
AcDbScale
 70
     0
300
8:1
140
8.0
141
1.0
290
     0
  0
SCALE
  5
190A
102
{ACAD_REACTORS
330
18FA
102
}
330
18FA
100
AcDbScale
 70
     0
300
10:1
140
10.0
141
1.0
290
     0
  0
SCALE
  5
190B
102
{ACAD_REACTORS
330
18FA
102
}
330
18FA
100
AcDbScale
 70
     0
300
100:1
140
100.0
141
1.0
290
     0
  0
SCALE
  5
190C
102
{ACAD_REACTORS
330
18FA
102
}
330
18FA
100
AcDbScale
 70
     0
300
1/128" = 1'-0"
140
0.0078125
141
12.0
290
     0
  0
SCALE
  5
190D
102
{ACAD_REACTORS
330
18FA
102
}
330
18FA
100
AcDbScale
 70
     0
300
1/64" = 1'-0"
140
0.015625
141
12.0
290
     0
  0
SCALE
  5
190E
102
{ACAD_REACTORS
330
18FA
102
}
330
18FA
100
AcDbScale
 70
     0
300
1/32" = 1'-0"
140
0.03125
141
12.0
290
     0
  0
SCALE
  5
190F
102
{ACAD_REACTORS
330
18FA
102
}
330
18FA
100
AcDbScale
 70
     0
300
1/16" = 1'-0"
140
0.0625
141
12.0
290
     0
  0
SCALE
  5
1910
102
{ACAD_REACTORS
330
18FA
102
}
330
18FA
100
AcDbScale
 70
     0
300
3/32" = 1'-0"
140
0.09375
141
12.0
290
     0
  0
SCALE
  5
1911
102
{ACAD_REACTORS
330
18FA
102
}
330
18FA
100
AcDbScale
 70
     0
300
1/8" = 1'-0"
140
0.125
141
12.0
290
     0
  0
SCALE
  5
1912
102
{ACAD_REACTORS
330
18FA
102
}
330
18FA
100
AcDbScale
 70
     0
300
3/16" = 1'-0"
140
0.1875
141
12.0
290
     0
  0
SCALE
  5
1913
102
{ACAD_REACTORS
330
18FA
102
}
330
18FA
100
AcDbScale
 70
     0
300
1/4" = 1'-0"
140
0.25
141
12.0
290
     0
  0
SCALE
  5
1914
102
{ACAD_REACTORS
330
18FA
102
}
330
18FA
100
AcDbScale
 70
     0
300
3/8" = 1'-0"
140
0.375
141
12.0
290
     0
  0
SCALE
  5
1915
102
{ACAD_REACTORS
330
18FA
102
}
330
18FA
100
AcDbScale
 70
     0
300
1/2" = 1'-0"
140
0.5
141
12.0
290
     0
  0
SCALE
  5
1916
102
{ACAD_REACTORS
330
18FA
102
}
330
18FA
100
AcDbScale
 70
     0
300
3/4" = 1'-0"
140
0.75
141
12.0
290
     0
  0
SCALE
  5
1917
102
{ACAD_REACTORS
330
18FA
102
}
330
18FA
100
AcDbScale
 70
     0
300
1" = 1'-0"
140
1.0
141
12.0
290
     0
  0
SCALE
  5
1918
102
{ACAD_REACTORS
330
18FA
102
}
330
18FA
100
AcDbScale
 70
     0
300
1-1/2" = 1'-0"
140
1.5
141
12.0
290
     0
  0
SCALE
  5
1919
102
{ACAD_REACTORS
330
18FA
102
}
330
18FA
100
AcDbScale
 70
     0
300
3" = 1'-0"
140
3.0
141
12.0
290
     0
  0
SCALE
  5
191A
102
{ACAD_REACTORS
330
18FA
102
}
330
18FA
100
AcDbScale
 70
     0
300
6" = 1'-0"
140
6.0
141
12.0
290
     0
  0
SCALE
  5
191B
102
{ACAD_REACTORS
330
18FA
102
}
330
18FA
100
AcDbScale
 70
     0
300
1'-0" = 1'-0"
140
12.0
141
12.0
290
     0
  0
TABLESTYLE
  5
16F4
102
{ACAD_XDICTIONARY
360
192E
102
}
102
{ACAD_REACTORS
330
16F3
102
}
330
16F3
100
AcDbTableStyle
  3
Standard
 70
     0
 71
     0
 40
0.06
 41
0.06
280
     0
281
     0
  7
STANDARD
140
0.18
170
     2
 62
     0
 63
     7
283
     0
274
    -2
284
     1
 64
     0
275
    -2
285
     1
 65
     0
276
    -2
286
     1
 66
     0
277
    -2
287
     1
 67
     0
278
    -2
288
     1
 68
     0
279
    -2
289
     1
 69
     0
  7
STANDARD
140
0.25
170
     5
 62
     0
 63
     7
283
     0
274
    -2
284
     1
 64
     0
275
    -2
285
     1
 65
     0
276
    -2
286
     1
 66
     0
277
    -2
287
     1
 67
     0
278
    -2
288
     1
 68
     0
279
    -2
289
     1
 69
     0
  7
STANDARD
140
0.18
170
     5
 62
     0
 63
     7
283
     0
274
    -2
284
     1
 64
     0
275
    -2
285
     1
 65
     0
276
    -2
286
     1
 66
     0
277
    -2
287
     1
 67
     0
278
    -2
288
     1
 68
     0
279
    -2
289
     1
 69
     0
  0
VISUALSTYLE
  5
18EF
102
{ACAD_REACTORS
330
18E9
102
}
330
18E9
100
AcDbVisualStyle
  2
2dWireframe
 70
     4
 71
     0
 72
     2
 73
     0
 90
        0
 40
-0.6
 41
-30.0
 62
     5
 63
     7
 74
     1
 91
        4
 64
     7
 65
   257
 75
     1
175
     1
 42
1.0
 92
        0
 66
   257
 43
1.0
 76
     1
 77
     6
 78
     2
 67
     7
 79
     5
170
     0
171
     0
290
     0
174
     0
 93
        1
 44
0.0
173
     0
291
     0
 45
0.0
1001
ACAD
1000
AcDbSavedByObjectVersion
1070
     0
  0
VISUALSTYLE
  5
18F1
102
{ACAD_REACTORS
330
18E9
102
}
330
18E9
100
AcDbVisualStyle
  2
3D Hidden
 70
     6
 71
     1
 72
     2
 73
     2
 90
        0
 40
-0.6
 41
-30.0
 62
     5
 63
     7
 74
     2
 91
        2
 64
     7
 65
   257
 75
     2
175
     1
 42
40.0
 92
        0
 66
   257
 43
1.0
 76
     1
 77
     6
 78
     2
 67
     7
 79
     3
170
     0
171
     0
290
     0
174
     0
 93
        1
 44
0.0
173
     0
291
     0
 45
0.0
1001
ACAD
1000
AcDbSavedByObjectVersion
1070
     0
  0
VISUALSTYLE
  5
18F0
102
{ACAD_REACTORS
330
18E9
102
}
330
18E9
100
AcDbVisualStyle
  2
3dWireframe
 70
     5
 71
     0
 72
     2
 73
     0
 90
        0
 40
-0.6
 41
-30.0
 62
     5
 63
     7
 74
     1
 91
        4
 64
     7
 65
   257
 75
     1
175
     1
 42
1.0
 92
        0
 66
   257
 43
1.0
 76
     1
 77
     6
 78
     2
 67
     7
 79
     5
170
     0
171
     0
290
     0
174
     0
 93
        1
 44
0.0
173
     0
291
     0
 45
0.0
1001
ACAD
1000
AcDbSavedByObjectVersion
1070
     0
  0
VISUALSTYLE
  5
18EE
102
{ACAD_REACTORS
330
18E9
102
}
330
18E9
100
AcDbVisualStyle
  2
Basic
 70
     7
 71
     1
 72
     0
 73
     1
 90
        0
 40
-0.6
 41
-30.0
 62
     5
 63
     7
 74
     0
 91
        4
 64
     7
 65
   257
 75
     1
175
     1
 42
1.0
 92
        8
 66
     7
 43
1.0
 76
     1
 77
     6
 78
     2
 67
     7
 79
     5
170
     0
171
     0
290
     0
174
     0
 93
        1
 44
0.0
173
     0
291
     1
 45
0.0
1001
ACAD
1000
AcDbSavedByObjectVersion
1070
     0
  0
VISUALSTYLE
  5
18F5
102
{ACAD_REACTORS
330
18E9
102
}
330
18E9
100
AcDbVisualStyle
  2
Brighten
 70
    12
 71
     2
 72
     2
 73
     0
 90
        0
 40
-0.6
 41
-30.0
 62
     5
 63
     7
 74
     1
 91
        4
 64
     7
 65
   257
 75
     1
175
     1
 42
1.0
 92
        8
 66
     7
 43
1.0
 76
     1
 77
     6
 78
     2
 67
     7
 79
     5
170
     0
171
     0
290
     0
174
     0
 93
        1
 44
50.0
173
     0
291
     1
 45
0.0
1001
ACAD
1000
AcDbSavedByObjectVersion
1070
     0
  0
VISUALSTYLE
  5
18F9
102
{ACAD_REACTORS
330
18E9
102
}
330
18E9
100
AcDbVisualStyle
  2
ColorChange
 70
    16
 71
     2
 72
     2
 73
     3
 90
        0
 40
-0.6
 41
-30.0
 62
     5
 63
     8
 74
     1
 91
        4
 64
     7
 65
   257
 75
     1
175
     1
 42
1.0
 92
        8
 66
     8
 43
1.0
 76
     1
 77
     6
 78
     2
 67
     7
 79
     5
170
     0
171
     0
290
     0
174
     0
 93
        1
 44
0.0
173
     0
291
     1
 45
0.0
1001
ACAD
1000
AcDbSavedByObjectVersion
1070
     0
  0
VISUALSTYLE
  5
18F2
102
{ACAD_REACTORS
330
18E9
102
}
330
18E9
100
AcDbVisualStyle
  2
Conceptual
 70
     9
 71
     3
 72
     2
 73
     0
 90
        0
 40
-0.6
 41
-30.0
 62
     5
 63
     7
 74
     2
 91
        2
 64
     7
 65
   257
 75
     1
175
     1
 42
40.0
 92
        8
 66
     7
 43
1.0
 76
     1
 77
     6
 78
     2
 67
     7
 79
     3
170
     0
171
     0
290
     0
174
     0
 93
        1
 44
0.0
173
     0
291
     0
 45
0.0
1001
ACAD
1000
AcDbSavedByObjectVersion
1070
     0
  0
VISUALSTYLE
  5
18F4
102
{ACAD_REACTORS
330
18E9
102
}
330
18E9
100
AcDbVisualStyle
  2
Dim
 70
    11
 71
     2
 72
     2
 73
     0
 90
        0
 40
-0.6
 41
-30.0
 62
     5
 63
     7
 74
     1
 91
        4
 64
     7
 65
   257
 75
     1
175
     1
 42
1.0
 92
        8
 66
     7
 43
1.0
 76
     1
 77
     6
 78
     2
 67
     7
 79
     5
170
     0
171
     0
290
     0
174
     0
 93
        1
 44
-50.0
173
     0
291
     1
 45
0.0
1001
ACAD
1000
AcDbSavedByObjectVersion
1070
     0
  0
VISUALSTYLE
  5
18F8
102
{ACAD_REACTORS
330
18E9
102
}
330
18E9
100
AcDbVisualStyle
  2
Facepattern
 70
    15
 71
     2
 72
     2
 73
     0
 90
        0
 40
-0.6
 41
-30.0
 62
     5
 63
     7
 74
     1
 91
        4
 64
     7
 65
   257
 75
     1
175
     1
 42
1.0
 92
        8
 66
     7
 43
1.0
 76
     1
 77
     6
 78
     2
 67
     7
 79
     5
170
     0
171
     0
290
     0
174
     0
 93
        1
 44
0.0
173
     0
291
     1
 45
0.0
1001
ACAD
1000
AcDbSavedByObjectVersion
1070
     0
  0
VISUALSTYLE
  5
18EA
102
{ACAD_REACTORS
330
18E9
102
}
330
18E9
100
AcDbVisualStyle
  2
Flat
 70
     0
 71
     2
 72
     1
 73
     1
 90
        2
 40
-0.6
 41
30.0
 62
     5
 63
     7
 74
     0
 91
        4
 64
     7
 65
   257
 75
     1
175
     1
 42
1.0
 92
        8
 66
     7
 43
1.0
 76
     1
 77
     6
 78
     2
 67
     7
 79
     5
170
     0
171
     0
290
     0
174
     0
 93
       13
 44
0.0
173
     0
291
     1
 45
0.0
1001
ACAD
1000
AcDbSavedByObjectVersion
1070
     0
  0
VISUALSTYLE
  5
18EB
102
{ACAD_REACTORS
330
18E9
102
}
330
18E9
100
AcDbVisualStyle
  2
FlatWithEdges
 70
     1
 71
     2
 72
     1
 73
     1
 90
        2
 40
-0.6
 41
30.0
 62
     5
 63
     7
 74
     1
 91
        4
 64
     7
 65
   257
 75
     1
175
     1
 42
1.0
 92
        0
 66
   257
 43
1.0
 76
     1
 77
     6
 78
     2
 67
     7
 79
     5
170
     0
171
     0
290
     0
174
     0
 93
       13
 44
0.0
173
     0
291
     1
 45
0.0
1001
ACAD
1000
AcDbSavedByObjectVersion
1070
     0
  0
VISUALSTYLE
  5
18EC
102
{ACAD_REACTORS
330
18E9
102
}
330
18E9
100
AcDbVisualStyle
  2
Gouraud
 70
     2
 71
     2
 72
     2
 73
     1
 90
        2
 40
-0.6
 41
30.0
 62
     5
 63
     7
 74
     0
 91
        4
 64
     7
 65
   257
 75
     1
175
     1
 42
1.0
 92
        0
 66
     7
 43
1.0
 76
     1
 77
     6
 78
     2
 67
     7
 79
     5
170
     0
171
     0
290
     0
174
     0
 93
       13
 44
0.0
173
     0
291
     1
 45
0.0
1001
ACAD
1000
AcDbSavedByObjectVersion
1070
     0
  0
VISUALSTYLE
  5
18ED
102
{ACAD_REACTORS
330
18E9
102
}
330
18E9
100
AcDbVisualStyle
  2
GouraudWithEdges
 70
     3
 71
     2
 72
     2
 73
     1
 90
        2
 40
-0.6
 41
30.0
 62
     5
 63
     7
 74
     1
 91
        4
 64
     7
 65
   257
 75
     1
175
     1
 42
1.0
 92
        0
 66
   257
 43
1.0
 76
     1
 77
     6
 78
     2
 67
     7
 79
     5
170
     0
171
     0
290
     0
174
     0
 93
       13
 44
0.0
173
     0
291
     1
 45
0.0
1001
ACAD
1000
AcDbSavedByObjectVersion
1070
     0
  0
VISUALSTYLE
  5
18F7
102
{ACAD_REACTORS
330
18E9
102
}
330
18E9
100
AcDbVisualStyle
  2
Linepattern
 70
    14
 71
     2
 72
     2
 73
     0
 90
        0
 40
-0.6
 41
-30.0
 62
     5
 63
     7
 74
     1
 91
        4
 64
     7
 65
   257
 75
     7
175
     7
 42
1.0
 92
        8
 66
     7
 43
1.0
 76
     1
 77
     6
 78
     2
 67
     7
 79
     5
170
     0
171
     0
290
     0
174
     0
 93
        1
 44
0.0
173
     0
291
     1
 45
0.0
1001
ACAD
1000
AcDbSavedByObjectVersion
1070
     0
  0
VISUALSTYLE
  5
18F3
102
{ACAD_REACTORS
330
18E9
102
}
330
18E9
100
AcDbVisualStyle
  2
Realistic
 70
     8
 71
     2
 72
     2
 73
     0
 90
        0
 40
-0.6
 41
-30.0
 62
     5
 63
     7
 74
     1
 91
        0
 64
     7
 65
   257
 75
     1
175
     1
 42
1.0
 92
        8
 66
     8
 43
1.0
 76
     1
 77
     6
 78
     2
 67
     7
 79
     5
170
     0
171
     0
290
     0
174
     0
 93
       13
 44
0.0
173
     0
291
     0
 45
0.0
1001
ACAD
1000
AcDbSavedByObjectVersion
1070
     0
  0
VISUALSTYLE
  5
18F6
102
{ACAD_REACTORS
330
18E9
102
}
330
18E9
100
AcDbVisualStyle
  2
Thicken
 70
    13
 71
     2
 72
     2
 73
     0
 90
        0
 40
-0.6
 41
-30.0
 62
     5
 63
     7
 74
     1
 91
        4
 64
     7
 65
   257
 75
     1
175
     1
 42
1.0
 92
       12
 66
     7
 43
1.0
 76
     1
 77
     6
 78
     2
 67
     7
 79
     5
170
     0
171
     0
290
     0
174
     0
 93
        1
 44
0.0
173
     0
291
     1
 45
0.0
1001
ACAD
1000
AcDbSavedByObjectVersion
1070
     0
  0
DICTIONARYVAR
  5
1944
102
{ACAD_REACTORS
330
1761
102
}
330
1761
100
DictionaryVariables
280
     0
  1
1:1
  0
DICTIONARYVAR
  5
1943
102
{ACAD_REACTORS
330
1761
102
}
330
1761
100
DictionaryVariables
280
     0
  1
STANDARD
  0
DICTIONARYVAR
  5
1762
102
{ACAD_REACTORS
330
1761
102
}
330
1761
100
DictionaryVariables
280
     0
  1
STANDARD
  0
DICTIONARYVAR
  5
1763
102
{ACAD_REACTORS
330
1761
102
}
330
1761
100
DictionaryVariables
280
     0
  1
1
  0
DICTIONARYVAR
  5
1946
102
{ACAD_REACTORS
330
1761
102
}
330
1761
100
DictionaryVariables
280
     0
  1
0
  0
DICTIONARYVAR
  5
1952
102
{ACAD_REACTORS
330
1761
102
}
330
1761
100
DictionaryVariables
280
     0
  1
0
  0
DICTIONARYVAR
  5
1951
102
{ACAD_REACTORS
330
1761
102
}
330
1761
100
DictionaryVariables
280
     0
  1
0
  0
DICTIONARYVAR
  5
1764
102
{ACAD_REACTORS
330
1761
102
}
330
1761
100
DictionaryVariables
280
     0
  1

  0
DICTIONARYVAR
  5
1945
102
{ACAD_REACTORS
330
1761
102
}
330
1761
100
DictionaryVariables
280
     0
  1
127
  0
DICTIONARY
  5
195F
330
16FC
100
AcDbDictionary
280
     1
281
     1
  3
ACAD_XREC_ROUNDTRIP
360
1960
  0
DICTIONARY
  5
195D
330
16F8
100
AcDbDictionary
280
     1
281
     1
  3
ACAD_XREC_ROUNDTRIP
360
195E
  0
DICTIONARY
  5
18DA
330
18D9
100
AcDbDictionary
280
     1
281
     1
  3
ACAD_XREC_ROUNDTRIP
360
1962
  3
BUMPTILE
360
18DC
  3
DIFFUSETILE
360
18DB
  3
OPACITYTILE
360
18DF
  3
REFLECTIONTILE
360
18DE
  3
REFRACTIONTILE
360
18E0
  3
SPECULARTILE
360
18DD
  0
DICTIONARY
  5
18D2
330
18D1
100
AcDbDictionary
280
     1
281
     1
  3
ACAD_XREC_ROUNDTRIP
360
1961
  3
BUMPTILE
360
18D4
  3
DIFFUSETILE
360
18D3
  3
OPACITYTILE
360
18D7
  3
REFLECTIONTILE
360
18D6
  3
REFRACTIONTILE
360
18D8
  3
SPECULARTILE
360
18D5
  0
DICTIONARY
  5
18E2
330
18E1
100
AcDbDictionary
280
     1
281
     1
  3
ACAD_XREC_ROUNDTRIP
360
1963
  3
BUMPTILE
360
18E4
  3
DIFFUSETILE
360
18E3
  3
OPACITYTILE
360
18E7
  3
REFLECTIONTILE
360
18E6
  3
REFRACTIONTILE
360
18E8
  3
SPECULARTILE
360
18E5
  0
DICTIONARY
  5
192E
330
16F4
100
AcDbDictionary
280
     1
281
     1
  3
ACAD_ROUNDTRIP_2008_TABLESTYLE_CELLSTYLEMAP
360
195A
  3
ACAD_XREC_ROUNDTRIP
360
195C
  0
XRECORD
  5
1960
102
{ACAD_REACTORS
330
195F
102
}
330
195F
100
AcDbXrecord
280
     1
102
SHADEPLOT
 70
     0
102
SHADEPLOTRESLEVEL
 70
     2
102
SHADEPLOTCUSTOMDPI
 70
   300
  0
XRECORD
  5
195E
102
{ACAD_REACTORS
330
195D
102
}
330
195D
100
AcDbXrecord
280
     1
102
SHADEPLOT
 70
     0
102
SHADEPLOTRESLEVEL
 70
     2
102
SHADEPLOTCUSTOMDPI
 70
   300
  0
XRECORD
  5
1962
102
{ACAD_REACTORS
330
18DA
102
}
330
18DA
100
AcDbXrecord
280
     1
102
MATERIAL
148
0.0
149
0.0
149
0.0
 93
        0
 94
      127
282
     0
 72
     0
 77
     0
171
     0
175
     0
179
     0
273
     0
  0
XRECORD
  5
18DC
102
{ACAD_REACTORS
330
18DA
102
}
330
18DA
100
AcDbXrecord
280
     1
270
     1
271
     1
  0
XRECORD
  5
18DB
102
{ACAD_REACTORS
330
18DA
102
}
330
18DA
100
AcDbXrecord
280
     1
270
     1
271
     1
  0
XRECORD
  5
18DF
102
{ACAD_REACTORS
330
18DA
102
}
330
18DA
100
AcDbXrecord
280
     1
270
     1
271
     1
  0
XRECORD
  5
18DE
102
{ACAD_REACTORS
330
18DA
102
}
330
18DA
100
AcDbXrecord
280
     1
270
     1
271
     1
  0
XRECORD
  5
18E0
102
{ACAD_REACTORS
330
18DA
102
}
330
18DA
100
AcDbXrecord
280
     1
270
     1
271
     1
  0
XRECORD
  5
18DD
102
{ACAD_REACTORS
330
18DA
102
}
330
18DA
100
AcDbXrecord
280
     1
270
     1
271
     1
  0
XRECORD
  5
1961
102
{ACAD_REACTORS
330
18D2
102
}
330
18D2
100
AcDbXrecord
280
     1
102
MATERIAL
148
0.0
149
0.0
149
0.0
 93
        0
 94
      127
282
     0
 72
     0
 77
     0
171
     0
175
     0
179
     0
273
     0
  0
XRECORD
  5
18D4
102
{ACAD_REACTORS
330
18D2
102
}
330
18D2
100
AcDbXrecord
280
     1
270
     1
271
     1
  0
XRECORD
  5
18D3
102
{ACAD_REACTORS
330
18D2
102
}
330
18D2
100
AcDbXrecord
280
     1
270
     1
271
     1
  0
XRECORD
  5
18D7
102
{ACAD_REACTORS
330
18D2
102
}
330
18D2
100
AcDbXrecord
280
     1
270
     1
271
     1
  0
XRECORD
  5
18D6
102
{ACAD_REACTORS
330
18D2
102
}
330
18D2
100
AcDbXrecord
280
     1
270
     1
271
     1
  0
XRECORD
  5
18D8
102
{ACAD_REACTORS
330
18D2
102
}
330
18D2
100
AcDbXrecord
280
     1
270
     1
271
     1
  0
XRECORD
  5
18D5
102
{ACAD_REACTORS
330
18D2
102
}
330
18D2
100
AcDbXrecord
280
     1
270
     1
271
     1
  0
XRECORD
  5
1963
102
{ACAD_REACTORS
330
18E2
102
}
330
18E2
100
AcDbXrecord
280
     1
102
MATERIAL
148
0.0
149
0.0
149
0.0
 93
        0
 94
      127
282
     0
 72
     0
 77
     0
171
     0
175
     0
179
     0
273
     0
  0
XRECORD
  5
18E4
102
{ACAD_REACTORS
330
18E2
102
}
330
18E2
100
AcDbXrecord
280
     1
270
     1
271
     1
  0
XRECORD
  5
18E3
102
{ACAD_REACTORS
330
18E2
102
}
330
18E2
100
AcDbXrecord
280
     1
270
     1
271
     1
  0
XRECORD
  5
18E7
102
{ACAD_REACTORS
330
18E2
102
}
330
18E2
100
AcDbXrecord
280
     1
270
     1
271
     1
  0
XRECORD
  5
18E6
102
{ACAD_REACTORS
330
18E2
102
}
330
18E2
100
AcDbXrecord
280
     1
270
     1
271
     1
  0
XRECORD
  5
18E8
102
{ACAD_REACTORS
330
18E2
102
}
330
18E2
100
AcDbXrecord
280
     1
270
     1
271
     1
  0
XRECORD
  5
18E5
102
{ACAD_REACTORS
330
18E2
102
}
330
18E2
100
AcDbXrecord
280
     1
270
     1
271
     1
  0
CELLSTYLEMAP
  5
195A
102
{ACAD_REACTORS
330
192E
102
}
330
192E
100
AcDbCellStyleMap
 90
        3
300
CELLSTYLE
  1
TABLEFORMAT_BEGIN
 90
        5
170
     1
 91
        0
 92
    32768
 62
   257
 93
        1
300
CONTENTFORMAT
  1
CONTENTFORMAT_BEGIN
 90
        0
 91
        0
 92
        4
 93
        0
300

 40
0.0
140
1.0
 94
        5
 62
     0
340
16E8
144
0.25
309
CONTENTFORMAT_END
171
     0
 94
        6
 95
        1
302
GRIDFORMAT
  1
GRIDFORMAT_BEGIN
 90
        0
 91
        1
 62
     0
 92
       -2
340
0
 93
        0
 40
0.045
309
GRIDFORMAT_END
 95
        2
302
GRIDFORMAT
  1
GRIDFORMAT_BEGIN
 90
        0
 91
        1
 62
     0
 92
       -2
340
0
 93
        0
 40
0.045
309
GRIDFORMAT_END
 95
        4
302
GRIDFORMAT
  1
GRIDFORMAT_BEGIN
 90
        0
 91
        1
 62
     0
 92
       -2
340
0
 93
        0
 40
0.045
309
GRIDFORMAT_END
 95
        8
302
GRIDFORMAT
  1
GRIDFORMAT_BEGIN
 90
        0
 91
        1
 62
     0
 92
       -2
340
0
 93
        0
 40
0.045
309
GRIDFORMAT_END
 95
       16
302
GRIDFORMAT
  1
GRIDFORMAT_BEGIN
 90
        0
 91
        1
 62
     0
 92
       -2
340
0
 93
        0
 40
0.045
309
GRIDFORMAT_END
 95
       32
302
GRIDFORMAT
  1
GRIDFORMAT_BEGIN
 90
        0
 91
        1
 62
     0
 92
       -2
340
0
 93
        0
 40
0.045
309
GRIDFORMAT_END
309
TABLEFORMAT_END
  1
CELLSTYLE_BEGIN
 90
        1
 91
        1
300
_TITLE
309
CELLSTYLE_END
300
CELLSTYLE
  1
TABLEFORMAT_BEGIN
 90
        5
170
     1
 91
        0
 92
        0
 62
   257
 93
        1
300
CONTENTFORMAT
  1
CONTENTFORMAT_BEGIN
 90
        0
 91
        0
 92
        4
 93
        0
300

 40
0.0
140
1.0
 94
        5
 62
     0
340
16E8
144
0.18
309
CONTENTFORMAT_END
171
     0
 94
        6
 95
        1
302
GRIDFORMAT
  1
GRIDFORMAT_BEGIN
 90
        0
 91
        1
 62
     0
 92
       -2
340
0
 93
        0
 40
0.045
309
GRIDFORMAT_END
 95
        2
302
GRIDFORMAT
  1
GRIDFORMAT_BEGIN
 90
        0
 91
        1
 62
     0
 92
       -2
340
0
 93
        0
 40
0.045
309
GRIDFORMAT_END
 95
        4
302
GRIDFORMAT
  1
GRIDFORMAT_BEGIN
 90
        0
 91
        1
 62
     0
 92
       -2
340
0
 93
        0
 40
0.045
309
GRIDFORMAT_END
 95
        8
302
GRIDFORMAT
  1
GRIDFORMAT_BEGIN
 90
        0
 91
        1
 62
     0
 92
       -2
340
0
 93
        0
 40
0.045
309
GRIDFORMAT_END
 95
       16
302
GRIDFORMAT
  1
GRIDFORMAT_BEGIN
 90
        0
 91
        1
 62
     0
 92
       -2
340
0
 93
        0
 40
0.045
309
GRIDFORMAT_END
 95
       32
302
GRIDFORMAT
  1
GRIDFORMAT_BEGIN
 90
        0
 91
        1
 62
     0
 92
       -2
340
0
 93
        0
 40
0.045
309
GRIDFORMAT_END
309
TABLEFORMAT_END
  1
CELLSTYLE_BEGIN
 90
        2
 91
        1
300
_HEADER
309
CELLSTYLE_END
300
CELLSTYLE
  1
TABLEFORMAT_BEGIN
 90
        5
170
     1
 91
        0
 92
        0
 62
   257
 93
        1
300
CONTENTFORMAT
  1
CONTENTFORMAT_BEGIN
 90
        0
 91
        0
 92
        4
 93
        0
300

 40
0.0
140
1.0
 94
        2
 62
     0
340
16E8
144
0.18
309
CONTENTFORMAT_END
171
     0
 94
        6
 95
        1
302
GRIDFORMAT
  1
GRIDFORMAT_BEGIN
 90
        0
 91
        1
 62
     0
 92
       -2
340
0
 93
        0
 40
0.045
309
GRIDFORMAT_END
 95
        2
302
GRIDFORMAT
  1
GRIDFORMAT_BEGIN
 90
        0
 91
        1
 62
     0
 92
       -2
340
0
 93
        0
 40
0.045
309
GRIDFORMAT_END
 95
        4
302
GRIDFORMAT
  1
GRIDFORMAT_BEGIN
 90
        0
 91
        1
 62
     0
 92
       -2
340
0
 93
        0
 40
0.045
309
GRIDFORMAT_END
 95
        8
302
GRIDFORMAT
  1
GRIDFORMAT_BEGIN
 90
        0
 91
        1
 62
     0
 92
       -2
340
0
 93
        0
 40
0.045
309
GRIDFORMAT_END
 95
       16
302
GRIDFORMAT
  1
GRIDFORMAT_BEGIN
 90
        0
 91
        1
 62
     0
 92
       -2
340
0
 93
        0
 40
0.045
309
GRIDFORMAT_END
 95
       32
302
GRIDFORMAT
  1
GRIDFORMAT_BEGIN
 90
        0
 91
        1
 62
     0
 92
       -2
340
0
 93
        0
 40
0.045
309
GRIDFORMAT_END
309
TABLEFORMAT_END
  1
CELLSTYLE_BEGIN
 90
        3
 91
        2
300
_DATA
309
CELLSTYLE_END
  0
XRECORD
  5
195C
102
{ACAD_REACTORS
330
192E
102
}
330
192E
100
AcDbXrecord
280
     1
102
ACAD_ROUNDTRIP_PRE2007_TABLESTYLE
 90
        4
 91
        0
  1

 92
        4
 93
        0
  2

 94
        4
 95
        0
  3

  0
ENDSEC
  0
EOF
